#TITLE:Witch Doctor;
#SUBTITLE:;
#ARTIST:banya;
#TITLETRANSLIT:;
#SUBTITLETRANSLIT:;
#ARTISTTRANSLIT:;
#CREDIT:;
#BANNER:Witch Doctor-banner.png;
#BACKGROUND:Witch Doctor-bg.png;
#LYRICSPATH:;
#CDTITLE:;
#MUSIC:Witch Doctor.ogg;
#OFFSET:-0.039;
#SAMPLESTART:9.880;
#SAMPLELENGTH:12.000;
#SELECTABLE:YES;
#BPMS:0.000=195.000;
#STOPS:92.000=0.923
;
#BGCHANGES:0.000=Witch Doctor.avi=1.000=1=1=0,
99999=-nosongbg-=1.000=0=0=0 // don't automatically add -songbackground-
;

//---------------dance-single - ----------------
#NOTES:
     dance-single:
     :
     Hard:
     9:
     0.630,0.655,0.165,0.110,0.077:
0000
0000
0000
0000
,
0000
0000
0000
0000
,
0000
0000
0000
0000
,
0000
0000
0000
0000
,
0001
0100
0010
1000
0001
0100
0010
1000
,
0001
0010
0100
2000
0000
0000
0000
3000
,
1000
0010
0100
0001
1000
0010
0100
0001
,
1000
0100
0010
0002
0000
0000
0000
0003
,
1000
0001
0010
0000
0100
1000
0010
0100
,
0000
0100
1000
0100
0010
0000
0100
0010
,
1000
0001
0010
0000
0001
1000
0100
0010
,
0000
0100
1000
0001
0010
0000
0100
0010
,
0001
1000
0001
1000
0100
0010
0100
1000
,
0000
1000
0010
0100
1000
0000
1000
0100
,
0001
0010
0100
0010
0001
1000
0010
1000
,
0000
1000
0010
0001
0010
0000
0010
0100
,
1000
0010
0100
0001
1000
0100
1000
0010
,
0000
0100
1000
0100
0001
0000
0001
0100
,
0010
1000
0001
0010
0100
0010
0001
0010
,
0000
0100
1000
0100
1000
0000
1000
0100
,
0010
0001
0100
0010
0001
0000
0000
0000
,
0001
0010
1000
0100
0010
0000
0000
0000
,
0100
0010
0100
0000
0001
1000
0001
0000
,
0000
0000
1000
0000
0011
0000
0001
0100
,
1000
0100
0010
0000
0110
0000
0010
1000
,
0001
0010
0100
0000
1100
0000
1000
0010
,
0001
0010
0001
0100
1000
0100
0010
1000
,
0001
0000
0010
0000
0100
0000
0000
0100
0000
0000
0010
0000
0000
0000
0001
0000
,
0100
0000
0010
0000
0100
0000
0000
0100
0000
0000
0010
0000
0000
0000
1000
0000
,
0001
0000
0010
0000
0100
0000
0000
1000
0000
0000
0010
0000
0000
0000
0100
0000
,
0001
0000
1000
0000
0100
0000
0000
0100
0000
0000
0010
0000
0000
0000
0010
0000
,
0001
0000
1000
0000
0001
0000
0000
0100
0000
0000
0010
0000
0000
0000
0100
0000
,
0010
0000
1001
0000
0010
0000
0000
0100
0000
0000
0001
0000
0000
0000
1000
0000
,
0010
0000
1001
0000
0010
0000
0000
0010
0000
0000
0100
0000
0000
0000
0010
0000
,
0100
1001
0200
0000
0320
0000
2030
0000
,
3200
0000
1300
1000
0000
1000
0000
1000
,
0000
0000
1000
0000
0001
0000
0000
0000
0001
0010
0100
0000
1000
0000
0010
0000
,
0000
0100
0000
0000
0000
0000
0000
0000
,
0000
0000
0000
0000
,
0000
0000
0000
0000
,
0000
2002
0000
0000
,
3003
0000
0000
0000
0001
0000
0000
0100
0000
0000
0010
0000
0000
0000
0100
0000
,
0010
0100
0010
1000
0001
0010
0100
1000
,
0100
0000
0010
0000
0100
0000
0000
0010
0000
0000
0001
0000
0000
0000
0001
0000
,
0100
0001
0010
0100
1000
1001
0000
0000
,
0000
0000
0000
0000
0001
0000
0000
1000
0000
0000
0010
0000
0000
0000
0100
0000
,
0001
0000
0010
0000
0100
0000
0000
0010
0000
0000
0001
0000
0000
0000
1000
0000
,
0010
0000
0100
0000
0001
0000
0000
1000
0000
0000
0010
0000
0100
0000
0000
0001
,
0000
0010
0110
0000
0000
0011
0000
0001
,
0100
0010
1001
0000
0000
0101
0000
0001
,
0100
0010
1010
0000
0000
0110
0000
0010
,
1000
0001
0010
0100
0010
0100
0010
0100
,
0010
0000
0001
0000
0100
0001
0000
0100
,
0010
0000
1000
0000
1000
0100
0000
0010
,
0001
0000
0001
0000
0001
0100
0000
0100
,
0010
0000
0010
0000
0010
1000
0000
0001
,
0010
0100
1000
0000
0100
1000
0000
0010
,
0100
0000
0001
0000
0001
1000
0000
0100
,
1000
0000
0010
0000
0010
0100
0000
0010
,
1000
0000
0001
0000
0001
0010
0000
0010
,
0100
0000
1000
0100
0010
0001
0010
0100
,
0001
0100
0010
1000
0001
0100
0010
1000
,
0100
1000
0010
0100
0001
1000
0010
0001
,
0010
0100
0010
0001
0010
0100
1000
0100
,
1000
0010
0100
0010
1000
0001
0010
0001
,
0010
0100
0010
0100
0001
1000
0010
0100
,
0001
1000
0001
0100
0010
0100
1000
0100
,
0001
0010
1000
0010
0001
0010
0100
1000
,
0010
0100
2002
0000
0000
0000
0000
0000
,
0000
0000
3000
0000
,
0000
0003
0000
0000
;

//---------------dance-single - ----------------
#NOTES:
     dance-single:
     :
     Challenge:
     12:
     1.000,1.000,0.077,0.208,1.000:
0000
0000
0000
0000
,
0000
0000
0000
0000
,
0000
0000
0000
0000
,
0000
0000
0000
0000
,
0002
1003
0020
1030
2000
3001
0200
0310
,
0100
0001
0010
0100
0000
0000
0000
0000
,
2000
3001
0200
0301
0002
1003
0020
0130
,
0010
1000
0100
0010
0000
0000
0000
0000
,
1000
0000
0001
0000
0010
0000
0001
0000
0100
0000
0010
0000
1000
0000
0001
1000
,
0001
0000
1000
0000
0010
0000
0100
0000
0001
0100
0001
0000
0001
0010
0001
0000
,
0010
0000
0100
0000
0010
0000
0001
0000
1000
0000
0010
1000
0010
0000
0100
0000
,
0001
0100
0001
0100
0001
0000
0100
0000
0010
0000
1000
0000
0100
0000
0010
0000
,
0100
0000
1000
0000
0001
0000
1000
0000
0001
0000
0100
0010
0100
0000
0010
0000
,
1000
0010
1000
0000
1000
0001
1000
0000
0100
0000
0010
0000
0100
0000
1000
0000
,
0001
0000
0100
0000
1000
0000
0100
0000
0010
1000
0010
0000
1000
0000
0001
0000
,
0010
0100
0010
0100
0010
0000
0100
0000
1000
0000
0000
0000
0100
0000
0010
0000
,
1000
0000
0100
0000
0010
0000
0001
0000
0010
0000
0100
0000
1000
0000
0100
1000
,
0010
0000
0100
0000
0001
0000
0010
0000
0100
0010
0100
0000
0100
0010
0100
0000
,
0010
0000
0001
0000
1000
0000
0001
0000
1000
0000
0100
1000
0100
0000
0010
0000
,
0001
0010
0001
0010
0001
0000
0010
0000
1000
0000
0010
0000
0001
0000
1000
0000
,
0010
0000
1000
0000
0100
0000
1000
0010
0100
0000
0001
0000
0000
0000
0000
0000
,
0001
0000
0100
0000
0010
0000
1000
0010
1000
0000
0100
0000
0000
0000
0000
0000
,
1100
0100
0010
0000
0011
0010
0100
0000
,
0000
0000
0001
0000
1010
0000
0010
1000
,
0001
0010
0001
0010
0100
0000
0000
0000
1100
0000
0000
0000
1000
0000
0010
0000
,
0100
0001
0010
0100
1000
0000
0000
0000
1001
0000
0000
0000
0001
0000
1000
0000
,
0100
0010
0001
1000
0001
0100
0010
1000
0001
0010
0100
1000
0100
0010
0001
1000
,
0010
0100
0001
0010
0001
0000
0010
0000
0001
0000
1000
0000
0010
0000
1000
0000
,
0100
1000
0100
0000
1000
0000
0010
0000
1000
0000
0001
0000
0010
0000
0001
0000
,
1000
0001
1000
0000
0001
0000
0010
0000
0001
0000
1000
0000
0010
0000
1000
0000
,
0001
0010
0001
0000
0010
0000
0100
0000
0010
0000
0001
0000
1000
0000
0010
0000
,
0100
0010
0100
0000
0010
0000
1000
0000
0001
0000
0010
0000
0100
0000
1000
0001
,
0020
0030
0100
1000
0010
1000
0001
0010
,
0100
0010
0002
0000
1003
0000
0001
0000
0010
0000
0100
0000
0010
0000
0001
0000
,
1000
0010
0200
0000
0310
0000
0000
0000
1010
0000
0000
0000
1000
0000
0000
0000
,
1001
0000
0002
0203
0000
1000
0000
0010
,
0000
0000
1300
0000
0100
0000
0002
0000
0000
0000
0013
0100
2000
0000
0010
0000
,
0000
0100
0000
0000
0000
0000
0000
0000
,
0000
0000
0000
0000
,
0000
0000
0000
0000
,
0000
0002
0000
0000
,
3003
0000
0000
0000
0001
1000
0001
0000
0001
0100
0001
0000
0100
0010
0100
0010
,
0100
0010
0100
0000
0010
1000
0010
0000
1000
0100
1000
0000
1000
0001
1000
0001
,
1000
0001
1000
0000
0001
0100
0001
0000
0100
0010
0100
0000
0010
1000
0010
1000
,
0010
1000
0010
0000
0100
0010
0100
0000
0100
0001
0100
0000
0001
0010
0001
0010
,
0001
0010
0001
0000
0001
0000
0010
0100
0000
0100
1000
0000
1000
0010
0000
0100
,
0001
0000
0001
0000
1000
0010
0000
0100
0001
0000
0001
0010
0000
0100
1000
0000
,
0001
0000
0010
0000
0100
0000
1000
0010
0000
0100
0001
0000
0010
0000
0100
1000
,
0000
1000
0010
0000
0200
0000
0301
0000
0000
0000
0000
0000
0000
0000
0000
0000
,
0000
0000
0020
1030
0000
0000
0000
0000
,
0000
0000
2000
3001
0000
0000
0000
0000
,
0000
1000
0001
1000
,
0001
0000
0000
0000
1000
0100
1000
0100
1000
0100
1000
0100
1000
0100
1000
0100
,
1000
0100
1000
0100
1000
0100
1000
0100
1000
0100
1000
0100
1000
0100
1000
0100
,
1000
0100
1000
0100
1000
0100
1000
0100
1000
0100
1000
0100
1000
0100
1000
0100
,
1000
0100
1000
0100
1000
0100
1000
0100
1000
0100
1000
0100
1000
0100
1000
0100
,
1000
0100
1000
0100
0010
0001
0010
0001
0010
0001
0010
0001
0010
0001
0010
0001
,
0010
0001
0010
0001
0010
0001
0010
0001
0010
0001
0010
0001
0010
0001
0010
0001
,
0010
0001
0010
0001
0010
0001
0010
0001
0010
0001
0010
0001
0010
0001
0010
0001
,
0010
0001
0010
0001
0010
0001
0010
0001
0010
0001
0010
0001
0010
0001
0010
0001
,
0010
0001
0010
0001
1000
0001
1000
0001
1000
0001
1000
0001
1000
0001
1000
0001
,
1000
0001
1000
0001
0100
0010
0100
0010
0100
0010
0100
0010
0100
0010
0100
0010
,
0100
0010
0100
0010
1000
0010
1000
0010
1000
0010
1000
0010
1000
0010
1000
0010
,
1000
0010
1000
0010
1000
0100
1000
0100
1000
0100
1000
0100
1000
0100
1000
0100
,
1000
0100
1000
0100
0010
0001
0010
0100
1000
0100
0010
0001
0010
0100
1000
0100
,
0010
0001
0010
0100
1000
0010
0100
0001
1000
0010
0100
0001
1000
0010
0100
0001
,
1000
0010
0100
0001
0100
1000
0100
0010
0001
0010
0100
1000
0100
0010
0001
0010
,
0100
1000
0100
0010
0001
0100
0010
1000
0001
0100
0010
1000
0001
0100
0010
1000
,
0001
0100
0010
1000
0001
0000
0000
0000
0000
0000
0000
0000
0000
0000
0000
0000
;

//---------------dance-single - ----------------
#NOTES:
     dance-single:
     :
     Medium:
     6:
     0.412,0.449,0.121,0.022,0.000:
0000
0000
0000
0000
,
0000
0000
0000
0000
,
0000
0000
0000
0000
,
0000
0000
0000
0000
,
1001
0000
0000
0000
,
0010
0100
0000
0000
0000
0000
0000
0000
,
0110
0000
0000
0000
,
1000
0001
1000
0001
0000
0000
0000
0000
,
1000
0000
0001
0000
0100
0010
1000
0000
,
0010
0000
0100
0000
0010
1000
0001
0000
,
0010
0000
0100
0000
1000
0100
1000
0000
,
1000
0100
0010
0001
,
0001
0100
0010
0000
0100
0000
0010
1000
,
0000
0010
0100
0000
0010
0000
1000
0000
,
0001
1000
0001
0000
1000
0000
0100
1000
,
0000
1000
0010
0000
0100
0000
0010
1000
,
0001
0010
0100
0010
,
0001
0010
0100
1000
0100
0000
1000
0000
,
0010
0100
0010
1000
,
0010
0100
0010
1000
0001
0000
1000
0000
,
0001
0100
0010
1000
0010
0000
0000
0000
,
0001
1000
0010
1000
0010
0000
0000
0000
,
1000
0100
0010
0000
0100
0010
0001
0000
,
0000
0001
1000
0010
,
0100
0000
0001
0000
0100
0001
0100
0000
,
0100
0001
0100
0000
0100
0001
0100
0000
,
0001
0100
0001
0000
0001
0000
0100
0000
,
0010
1010
0010
0100
,
0010
1010
0010
0100
,
0001
1001
1000
0100
,
0010
0011
0001
0010
,
0100
0000
1100
0000
0010
0000
0100
0010
,
1000
0000
0100
0000
1000
0000
0010
0100
,
0001
0000
1000
0000
0001
0000
0001
0100
,
1000
1000
0100
0010
,
1000
0000
0001
0000
0000
1000
0000
0100
,
0000
2000
0000
0020
,
0000
3030
0000
0000
,
0000
0000
0000
0000
,
0000
0000
0000
0000
,
0000
0000
0000
0000
,
0000
0001
1000
0010
,
1000
0000
0010
0100
0010
0000
0100
0010
,
0100
0010
1000
0001
,
0010
0100
0100
0010
,
0010
0001
1000
0001
,
1000
0010
0100
0010
,
0100
0001
1000
0010
,
0100
0110
0000
0000
,
0000
1001
0000
0000
,
0000
0110
0000
0000
,
0000
1001
0001
0001
,
1000
0000
0001
0000
0100
0010
0000
0100
,
0000
0000
0010
0000
1000
0010
0000
0100
,
0000
0000
0010
0000
1000
0001
0000
1000
,
0000
0000
1000
0000
0100
1000
0000
0010
,
0000
0000
0100
0000
0010
0100
0000
0010
,
0000
0000
1000
0000
0001
1000
0000
0100
,
0000
0000
1000
0000
0100
1000
0000
0010
,
0000
0000
0100
0000
0010
0100
0000
0010
,
1000
0010
0100
0000
0010
1000
0000
0001
,
0000
0000
1000
0000
0100
0010
0000
0001
,
0000
0000
0001
0000
0010
0100
0000
1000
,
0000
0000
0100
0000
1000
0010
0000
0100
,
0000
0000
0010
0000
1000
0001
0000
0100
,
0000
0000
0001
0000
0100
0010
0000
0100
,
0000
0000
0010
0000
1000
0001
0000
1000
,
0000
0000
1000
0000
1000
0100
0000
1000
,
0100
0010
0001
0000
0000
0000
0000
0000
;

//---------------dance-single - ----------------
#NOTES:
     dance-single:
     :
     Easy:
     5:
     0.312,0.337,0.088,0.022,0.000:
0000
0000
0000
0000
,
0000
0000
0000
0000
,
0000
0000
0000
0000
,
0000
0000
0000
0000
,
0010
0000
0000
0000
,
0100
0000
0000
0000
,
0001
0000
0000
0000
,
2002
0000
0000
3003
,
0001
1000
0100
0100
,
1000
0001
0100
0001
,
0100
0001
0010
0010
,
0001
1000
0001
1000
,
0010
1000
0100
0100
,
1000
0010
0100
0001
,
0010
0010
0001
0001
,
0100
0010
1000
0000
,
0001
1000
0100
0100
,
1000
0010
0100
0010
,
1000
1000
0001
1000
,
0100
1000
0010
0100
,
0001
1000
0001
0000
,
1000
0001
1000
0000
,
0001
1000
0001
0000
1000
0001
1000
0000
,
0000
0010
0000
0100
,
0000
0001
0000
1000
,
0000
0100
0000
1000
,
0000
0010
0100
0001
,
1000
1001
0001
1000
,
0001
1000
0010
0100
,
0010
1000
0010
0100
,
0010
1000
0001
0010
,
0100
1000
1000
0001
,
0100
0001
1000
0001
,
0100
0001
1000
0001
,
0100
0010
0010
0010
,
0010
0000
0100
0000
0000
0010
0000
0000
,
0000
0100
0000
0001
,
0000
0000
0000
0000
,
0000
0000
0000
0000
,
0000
0000
0000
0000
,
0000
0000
0000
0000
,
0000
1000
1000
1000
,
1000
0001
0100
0010
,
1000
0100
0100
0100
,
0100
0110
0000
0000
,
0000
0010
0001
0100
,
0100
0001
0010
0100
,
0100
0010
0001
1000
,
0010
0110
0000
0000
,
0000
1001
0000
0000
,
0000
0110
0000
0000
,
0000
1001
0000
0000
,
0000
0001
0000
1000
,
0000
0010
0000
1000
,
0000
0100
0000
0010
,
0000
0001
1000
0001
,
0100
0010
0000
0100
,
0000
0010
0000
1000
,
0000
0001
0000
1000
,
0000
0100
0000
1000
,
0000
0010
0100
0010
,
1000
0001
0010
0100
,
0010
0001
1000
0010
,
0100
0010
1000
0001
,
0010
1000
0010
0001
,
0100
1000
0100
0001
,
0010
0100
0010
0001
,
1000
0010
0100
0001
,
1000
1100
0000
0000
;

//---------------dance-single - ----------------
#NOTES:
     dance-single:
     :
     Beginner:
     2:
     0.185,0.262,0.066,0.000,0.000: // measure 1
0000
0000
0000
0000
,  // measure 2
0000
0000
0000
0000
,  // measure 3
0000
0000
0000
0000
,  // measure 4
0000
0000
0000
0000
,  // measure 5
0010
0000
0000
0000
,  // measure 6
0100
0000
0000
0000
,  // measure 7
0010
0000
0000
0000
,  // measure 8
0100
0000
0000
0000
,  // measure 9
0001
0000
0000
0000
,  // measure 10
1000
1000
1000
0000
,  // measure 11
0010
0000
0000
0000
,  // measure 12
0100
0100
0100
0000
,  // measure 13
0010
0000
0000
0000
,  // measure 14
1000
1000
1000
0000
,  // measure 15
0100
0000
0000
0000
,  // measure 16
0010
0010
0010
0000
,  // measure 17
0001
0000
0000
0000
,  // measure 18
0100
0100
0100
0000
,  // measure 19
0010
0000
0000
0000
,  // measure 20
1000
1000
1000
0000
,  // measure 21
0001
0000
0000
0000
,  // measure 22
0100
0000
0000
0000
,  // measure 23
0010
0000
0010
0000
,  // measure 24
0000
0100
0000
0000
,  // measure 25
0000
0010
0000
0000
,  // measure 26
0000
1000
0000
0000
,  // measure 27
0000
0001
0000
0001
,  // measure 28
0000
1000
1000
1000
,  // measure 29
0000
0010
0010
0010
,  // measure 30
0000
0100
0100
0100
,  // measure 31
0000
0001
0001
0001
,  // measure 32
0000
1000
1000
1000
,  // measure 33
0000
0001
0001
0001
,  // measure 34
0000
1000
1000
1000
,  // measure 35
0000
0001
0000
1000
,  // measure 36
0000
0110
0000
0000
,  // measure 37
0000
0100
0000
0100
,  // measure 38
0000
0000
0000
0000
,  // measure 39
0000
0000
0000
0000
,  // measure 40
0000
0000
0000
0000
,  // measure 41
0000
0000
0000
0000
,  // measure 42
0000
0010
0000
0000
,  // measure 43
0000
1000
0000
0001
,  // measure 44
0000
0100
0000
0000
,  // measure 45
0000
0010
0010
0000
,  // measure 46
0000
0100
0000
0000
,  // measure 47
0000
0010
0000
0000
,  // measure 48
0000
0100
0000
0010
,  // measure 49
0000
1001
0000
0000
,  // measure 50
0000
0110
0000
0000
,  // measure 51
0000
1001
0000
0000
,  // measure 52
0000
0110
0000
0000
,  // measure 53
0000
0010
0000
0000
,  // measure 54
0000
1000
0000
0000
,  // measure 55
0000
0100
0000
0000
,  // measure 56
0000
0010
0000
0001
,  // measure 57
0000
1000
0000
0000
,  // measure 58
0000
0010
0000
0000
,  // measure 59
0000
0100
0000
0000
,  // measure 60
0000
0010
0000
0000
,  // measure 61
0000
1000
1000
1000
,  // measure 62
0000
0001
0001
0001
,  // measure 63
0000
0100
0100
0100
,  // measure 64
0000
0010
0010
0010
,  // measure 65
0000
0100
0100
0100
,  // measure 66
0000
0010
0010
0010
,  // measure 67
0000
1000
1000
1000
,  // measure 68
0000
0001
1000
0010
,  // measure 69
0100
0110
0000
0000
;
