#TITLE:Witch Doctor #1;
#SUBTITLE:;
#ARTIST:Yahpp;
#TITLETRANSLIT:;
#SUBTITLETRANSLIT:;
#ARTISTTRANSLIT:;
#CREDIT:;
#BANNER:Witch Doctor #1-banner.png;
#BACKGROUND:Witch Doctor #1-bg.png;
#LYRICSPATH:;
#CDTITLE:;
#MUSIC:Witch Doctor #1.ogg;
#OFFSET:-0.031;
#SAMPLESTART:59.042;
#SAMPLELENGTH:18.000;
#SELECTABLE:YES;
#BPMS:0.000=122.000,99.000=61.000,108.000=122.000;
#STOPS:35.000=0.246
,38.500=0.246
,138.000=0.492
,138.500=0.246
;
#BGCHANGES:-10000.000=songbackground=1.000=0=0=1,
0.000=Witch Doctor #1.avi=1.000=0=0=1,
99999=-nosongbg-=1.000=0=0=0 // don't automatically add -songbackground-
;

//---------------dance-single - ----------------
#NOTES:
     dance-single:
     :
     Challenge:
     7:
     0.364,0.405,0.148,0.079,0.074: // measure 1
0000
0000
0000
0000
,  // measure 2
0000
0000
0000
0000
,  // measure 3
0000
0000
0000
0000
,  // measure 4
0010
0000
0000
1000
0000
0000
0100
0000
0000
0010
0000
0000
0001
0000
1000
0000
,  // measure 5
0100
1000
0010
0000
0100
0001
1000
0000
,  // measure 6
0001
0010
0100
0000
0010
0001
1000
0010
,  // measure 7
1000
0010
0100
0000
0100
0001
0010
0000
,  // measure 8
0001
0000
0000
1000
0000
0000
0010
0000
0000
1000
0000
0000
0010
0000
0100
0000
,  // measure 9
0001
0100
1000
0000
1000
0100
0010
0100
,  // measure 10
0010
0001
0000
0001
0010
1000
1000
0001
,  // measure 11
0010
0000
0100
1000
0001
0000
0200
0000
,  // measure 12
0000
0000
0000
0301
,  // measure 13
1100
0000
1000
0010
0010
0000
0100
0010
,  // measure 14
0010
0000
0100
0001
0001
0000
1000
0100
,  // measure 15
0100
0000
0010
0001
0001
0000
1000
0010
,  // measure 16
0001
0000
0010
0000
1000
0000
0100
0000
0001
0000
0100
0000
0010
0000
0000
0010
,  // measure 17
0000
0010
0000
0100
0010
1000
0001
1000
,  // measure 18
0100
0000
0010
0000
0000
0000
0000
0000
0000
0000
0000
0000
0100
0000
0000
0010
,  // measure 19
0000
0100
0000
0100
1000
0010
0100
0001
,  // measure 20
0010
0000
1000
0000
0000
0000
0000
0000
0000
0000
0000
0000
0100
0000
0000
1000
,  // measure 21
0000
0000
0010
0000
0000
0000
0100
0000
0001
0000
0010
0000
0100
0000
0000
0100
,  // measure 22
0000
0000
0100
0000
0000
0000
0100
0000
0010
0000
0001
0000
1000
0000
0000
1000
,  // measure 23
0000
0001
0000
1000
0100
0010
0011
0000
,  // measure 24
1100
0101
1010
0110
,  // measure 25
0000
0101
0000
1100
0101
0000
0020
0000
,  // measure 26
0030
0000
0100
0000
0001
1000
0100
0000
,  // measure 27
0010
0001
0100
0000
0010
1000
0002
0000
,  // measure 28
1003
0000
0000
0000
0000
0000
0000
0000
0100
0000
0000
1000
0000
0000
0100
0000
,  // measure 29
0000
1000
0100
1000
0010
0100
0001
0010
,  // measure 30
1000
0000
0010
0000
0001
0000
0100
0000
0001
0000
0000
0100
0000
0000
0010
0000
,  // measure 31
0000
0100
0001
1000
0100
0100
1000
0010
,  // measure 32
0000
0000
0000
0000
0000
0000
0000
0000
0110
0000
0000
0100
0000
0000
0010
0000
,  // measure 33
0000
0000
0100
0000
0001
0000
1000
0000
1001
0000
0000
0001
0000
0000
0001
0000
,  // measure 34
0000
0000
0001
0000
0100
0000
0010
0000
0110
0000
0000
0010
0000
0000
1000
0000
,  // measure 35
1100
0000
0000
1000
0000
0000
0100
0000
1100
0000
0101
0000
0001
0000
0100
0000
,  // measure 36
1000
0100
0010
1000
0010
0100
0010
1000
,  // measure 37
0100
0010
0100
0010
0001
2000
0000
0000
,  // measure 38
3000
1000
0100
0010
0100
1000
0100
0010
,  // measure 39
0100
1000
0010
0100
0001
2000
0000
0000
,  // measure 40
3000
0001
0010
0100
0010
0001
0010
0100
,  // measure 41
0010
0001
0010
0100
0010
0002
0000
0000
,  // measure 42
0003
1000
0001
0100
0001
0010
0001
0100
,  // measure 43
0010
0100
0010
1000
0100
0020
0100
0100
,  // measure 44
0000
0230
0300
0000
0000
0000
0000
0000
;
