#TITLE:Win The Race;
#SUBTITLE:;
#ARTIST:Modern Talking;
#TITLETRANSLIT:;
#SUBTITLETRANSLIT:;
#ARTISTTRANSLIT:;
#GENRE:UK JUMPSTYLE;
#CREDIT:;
#BANNER:bn.png;
#BACKGROUND:bg.png;
#LYRICSPATH:;
#CDTITLE:;
#MUSIC:Win The Race.mp3;
#OFFSET:-0.036;
#SAMPLESTART:51.964;
#SAMPLELENGTH:12.000;
#SELECTABLE:YES;
#BPMS:0.000=139.560
,120.000=139.541
,120.021=139.500
;
#STOPS:120.000=1.295
;
#BGCHANGES:0.000=WTRBGA.avi=1.000=0=0=0=StretchNoLoop====,
314.667=bg.png=1.000=0=0=1=Centered====,
99999=-nosongbg-=1.000=0=0=0 // don't automatically add -songbackground-
;
#KEYSOUNDS:;
#ATTACKS:;

//---------------dance-single - ----------------
#NOTES:
     dance-single:
     :
     Hard:
     9:
     0.452,0.484,0.340,0.014,0.456,388.000,47.000,2.000,0.000,0.000,0.000,0.452,0.484,0.340,0.014,0.456,388.000,47.000,2.000,0.000,0.000,0.000:
0000
0000
0000
0000
,
0000
0000
0000
0000
,
0000
0000
0000
0000
,
0000
0000
0000
0000
,
0101
0000
0000
0000
,
0000
0000
0000
0110
,
1001
0000
0000
0000
0000
0100
0001
0000
0000
0010
0000
0000
,
0001
0000
0000
1000
0000
0000
0100
0000
0000
0010
0000
0010
,
0001
0000
0000
0100
0000
0010
1000
0000
0000
0100
0000
0010
,
0001
0000
0000
1000
0000
0001
0100
0000
0010
1000
0000
1000
,
0100
0000
0000
1000
0000
1000
0010
0000
0000
0100
0000
0010
,
0100
0000
0000
0001
0000
0001
0010
0000
0010
0100
0000
0100
,
1000
0000
1000
0001
0000
0000
0100
0000
0010
1000
0000
0000
,
0100
0000
0010
1000
0000
0000
1000
0000
0001
0100
0000
0001
,
0010
0001
0100
1000
,
0100
0000
0000
0010
0000
0000
1000
0000
0000
1010
0000
0010
,
1000
0000
0000
1010
0000
0010
1000
0000
0010
1000
0000
1000
,
0100
0000
0100
0010
0000
0010
0001
0000
0001
1000
0000
0001
,
0010
0001
0100
0010
,
1000
0000
0000
0010
0000
0000
0100
0000
0000
0010
0000
1000
,
0010
0000
0000
0010
0000
1000
0010
0000
0000
0010
0000
1000
,
0010
0100
0010
1000
,
0001
0000
0001
0100
0000
0100
0010
0000
0000
0100
0000
0000
,
0010
0000
0010
1000
0000
1000
0001
0000
0000
0010
0000
0000
,
0100
0010
0001
0100
,
0010
1000
0001
0011
,
1100
0000
1000
0100
0000
0000
0100
0000
0010
0100
0000
0000
,
0100
0000
1000
0010
0000
0000
0100
0000
0100
0001
0000
0001
,
0010
0000
0010
0001
0000
0000
0001
0000
0001
0100
0000
0000
,
0100
0000
0010
1000
0000
0100
1000
0000
1000
0100
0010
0001
,
1000
0101
0001
0001
,
1000
0100
0010
0100
,
1000
1010
0010
0100
,
0001
1000
0001
0010
,
0100
1000
0100
0010
0000
0000
0100
0000
0000
1000
0000
0000
,
0010
0100
0001
0010
,
0010
0000
0010
0100
0000
0000
0010
0000
0010
0100
0000
0000
,
0010
0000
0010
0100
1000
0001
0100
0001
0010
0001
0100
0010
,
1000
0100
0010
0001
0000
0000
0101
0000
0000
0001
0000
0001
,
0100
0000
0100
0010
0000
0010
1000
0000
1000
0001
0000
0001
,
0010
0100
1000
0001
0000
0000
1001
0000
0000
0001
0000
0001
,
1000
0000
1000
0010
0000
0100
0010
0000
0010
1000
0000
1000
,
0100
0010
0001
1000
0000
0000
0101
0000
0000
1000
0000
0000
,
0110
0001
1100
0001
,
0110
0000
0000
0010
0000
0010
1000
0000
1000
0100
0000
0100
,
0010
0000
0010
0002
0000
0000
0000
0000
1003
1001
0000
0000
,
0011
1100
1010
0101
,
0011
0000
1100
0000
0000
0000
0000
0000
0000
0000
0000
0000
,
0000
0000
0000
0000
,
1001
0110
0000
0000
,
0000
0000
0000
0000
,
0000
0110
0000
0000
,
0000
0000
0000
0000
,
0101
1010
0000
0000
,
0000
0000
0000
0000
,
0000
0000
0000
1000
0000
0001
0100
0000
0000
1000
0000
0001
,
0100
0000
0000
1000
0000
0001
0100
0000
0000
0001
0000
0001
,
0100
0000
0100
0010
0000
0010
0100
0000
0000
0010
0000
1000
,
0010
0000
0000
0010
0000
0100
0010
0000
0000
0010
0000
0010
,
1000
0000
1000
0001
0000
0001
0010
0000
0000
0001
0000
0001
,
0010
0000
0000
0001
0000
0001
0010
0000
0010
0100
0000
0100
,
1000
0000
1000
1010
0000
0000
0000
0000
0000
0010
0000
0010
,
0100
0000
0100
0010
0000
0010
1000
0000
1000
0100
0000
0100
,
0010
0000
0010
0001
0000
0000
0011
0000
0000
0001
0000
0001
,
0100
0000
0100
0010
0000
0010
1000
0000
1000
0100
0000
0100
,
0010
0000
0010
0001
0000
0000
0011
0000
0000
0001
0000
0001
,
0100
0000
0000
0001
0000
0001
0100
0000
0100
0010
0000
0010
,
1000
0000
0000
1000
0000
1000
0001
0000
0001
0100
0000
0100
,
0010
0000
0010
1000
0000
0000
0110
0000
0000
1001
0000
0000
,
0110
0000
0000
1001
0000
0000
0101
0000
0000
0001
0000
0001
,
0100
0000
0100
0010
0000
0010
1000
0000
1000
0100
0000
0100
,
0010
0000
0010
0001
0000
0000
1100
0000
0000
0100
0000
0100
,
1000
0000
1000
0100
0000
0010
0100
0000
0100
0010
0000
0010
,
0001
0000
0001
0100
0000
0000
0101
0000
0000
0100
0000
0000
,
0110
0010
1010
1000
,
1100
1000
0100
0001
,
0010
0002
0000
0103
,
0010
0110
0101
1001
,
1100
0000
0000
0110
0000
0000
0011
0000
1100
0000
0000
0000
;

//---------------dance-single - ----------------
#NOTES:
     dance-single:
     :
     Medium:
     6:
     0.314,0.370,0.362,0.080,0.167,242.000,50.000,11.000,0.000,0.000,0.000,0.314,0.370,0.362,0.080,0.167,242.000,50.000,11.000,0.000,0.000,0.000:
0000
0000
0000
0000
,
0000
0000
0000
0000
,
0000
0000
0000
0000
,
0000
0000
0000
0000
,
1001
0000
0000
0000
,
0000
0000
0000
0101
,
0011
0000
0001
0001
,
1000
0000
0000
0010
0000
0000
0100
0000
0000
0010
0000
0200
,
0000
0300
0010
1000
,
0010
0000
0000
0100
0000
0001
0000
0000
0000
0000
0000
0000
,
0000
0000
0000
0000
0000
0001
0100
0000
0000
0010
0000
0000
,
1000
0000
0000
0001
0000
0000
0010
0000
0000
0100
0000
0200
,
0000
0000
0000
0300
,
0010
0000
0001
0000
,
1000
0001
0100
0100
,
0001
1000
0010
0100
,
0110
0000
0000
0100
0000
0000
0110
0000
0000
0010
0000
1000
,
0010
0000
0100
0000
0000
0010
0000
0000
0000
0000
0000
0000
,
1000
0100
0001
0100
,
0010
1000
0001
0010
,
1100
0010
1100
0010
,
1000
0000
0100
0000
0000
1000
0000
0000
0000
0100
0000
0000
,
1000
0000
0000
0010
0000
0100
0000
0000
0010
1000
0000
0010
,
0100
0000
0000
0010
0000
1000
0000
0000
0000
1000
0000
1000
,
0001
0000
0000
0100
0000
0000
0001
0000
0000
0010
0000
0020
,
0000
0000
0030
0001
,
0010
0100
1000
0100
,
1000
0000
0000
0010
0000
0010
0000
0000
0000
0000
0000
0100
,
0010
0000
0000
1000
0000
0000
0001
0000
0000
0010
0000
0002
,
0000
0000
0000
0000
,
1003
1001
0000
0001
,
0100
0000
0000
0010
0000
0000
0100
0000
0100
0000
0000
0010
,
0000
1001
0000
1000
,
0100
0000
0000
1000
0000
0000
0010
0000
0010
0000
0000
0100
,
0000
0101
0000
0001
,
1000
0000
0000
0100
0000
0000
1000
0000
0100
0000
0000
0000
,
0100
0011
0100
1010
,
0100
1001
0110
1001
,
0110
1001
0000
0001
,
0100
0000
0000
0010
0000
0000
1000
0000
0010
0000
0000
0100
,
0000
0010
1001
0010
,
0100
0000
0000
0010
0000
0000
1000
0000
0001
0000
0000
0010
,
0000
0002
0000
0103
,
1000
0000
0000
0100
0000
0000
0010
0000
0010
0000
0000
0000
,
0000
0110
1001
1010
,
0001
0000
0202
0000
0000
0000
0000
0000
0003
0301
0000
0000
,
0001
0001
0001
0001
,
0001
0000
2000
0000
0000
0000
0000
0000
0000
0000
0000
0000
,
0000
0000
3000
0000
,
1001
0101
0000
0000
,
0000
0000
0000
0000
,
0000
0110
0000
0000
,
0000
0000
0000
0000
,
1100
0110
0000
0000
,
0000
0000
0000
0000
,
0000
1000
0001
0100
,
0001
0010
0100
1000
,
0100
1000
0010
0100
,
0100
0010
0010
0100
,
0001
1000
0001
0010
,
0100
1000
0100
0010
,
0001
1001
0000
0101
,
0001
0000
0000
0100
0000
0000
0010
0000
0010
0000
0000
0100
,
0000
0110
0000
0010
,
1000
0000
0000
0001
0000
0000
1000
0000
0001
0000
0000
0100
,
0000
0110
0000
0010
,
1000
0000
0000
0010
0000
0000
0100
0000
0100
0000
0000
0000
,
0010
0000
0100
0000
0000
0000
0010
0000
0100
0000
0000
0010
,
0100
0000
0010
0000
0000
0000
0110
0000
0000
0101
0000
0000
,
0011
1100
0000
1000
,
0001
0000
0000
0100
0000
0000
0110
0000
0110
0000
0000
0010
,
0000
1001
0101
0001
,
0100
0000
0000
0010
0000
0000
0100
0000
0010
0000
0000
0100
,
0000
0110
0000
1001
,
0001
0000
0000
0101
0000
0000
0010
0000
0200
0000
0000
0000
,
0300
0110
1001
0011
,
1100
0000
0220
0000
0000
0000
0000
0000
0000
0000
0000
0000
,
0330
0010
0001
0100
,
1000
0000
0000
0110
0000
0000
1001
0000
1001
0000
0000
0000
;

//---------------dance-single - ----------------
#NOTES:
     dance-single:
     :
     Easy:
     4:
     0.282,0.370,0.261,0.051,0.004,230.000,36.000,7.000,0.000,0.000,0.000,0.282,0.370,0.261,0.051,0.004,230.000,36.000,7.000,0.000,0.000,0.000:
0000
0000
0000
0000
,
0000
0000
0000
0000
,
0000
0000
0000
0000
,
0000
0000
0000
0000
,
0000
0000
0000
0000
,
0000
0000
0000
0000
,
0000
0000
0000
0000
,
0000
0000
0000
0000
,
0010
0000
1000
0010
,
0100
0001
0010
0000
,
0100
0000
1000
1000
,
0001
1000
1000
0010
,
0100
0000
0001
0000
,
0010
0000
0001
0000
,
1000
0100
0010
0011
,
0001
0010
0100
1100
,
1000
0100
0001
0100
,
0010
0001
1000
0010
,
0100
0001
0010
0110
,
0100
1000
0010
0110
,
0010
0010
0100
0100
,
0010
1000
0001
0010
,
0100
0100
0100
0110
,
0010
0010
0010
0110
,
0001
0001
0001
1001
,
1000
1000
1000
1001
,
0001
0100
0010
0110
,
0010
1000
0100
0110
,
0010
0001
0100
0010
,
1000
1000
1000
1000
,
0101
1001
0001
0100
,
1000
0100
0100
0010
,
0010
1001
0001
1000
,
0010
0001
0001
0010
,
0010
0110
0100
0010
,
1000
0100
0010
0001
,
0001
0100
0001
0010
,
0001
2000
0100
0010
,
3001
1100
0000
0100
,
0010
0100
1000
0001
,
0100
0001
0011
0001
,
0100
0010
0010
1000
,
1000
0200
0000
1300
,
0100
0010
0001
0010
,
0100
1100
0110
0011
,
0101
2002
0000
0000
,
3003
0000
0000
0000
,
0000
0110
0000
0000
,
0000
0000
0000
0000
,
0101
1100
0000
0000
,
0000
0000
0000
0000
,
0000
1001
0000
0000
,
0000
0000
0000
0000
,
0011
1010
0000
0000
,
0000
0000
0000
0000
,
0000
0010
0100
0001
,
1000
0010
0100
0001
,
1000
0010
0100
0001
,
1000
0010
0100
0001
,
1000
0001
0100
0010
,
1000
0100
0010
0010
,
0010
1100
0000
1001
,
0001
0100
0001
0010
,
0100
1100
0000
1100
,
0100
0010
0010
0100
,
0100
1100
0000
1000
,
0001
0100
1000
0100
,
0010
1000
1000
0001
,
1000
2002
0000
0000
,
3003
0101
0000
0001
,
1000
0100
1000
0001
,
0100
0001
0011
0001
,
0010
1000
0010
0001
,
1000
0010
1000
0100
,
1000
0010
0100
0001
,
0010
0100
0100
0100
,
0100
0200
0000
0000
,
0000
0300
0000
0010
,
0001
0000
0000
1000
0000
0000
0001
0000
1001
0000
0000
0000
;

//---------------dance-single - ----------------
#NOTES:
     dance-single:
     :
     Beginner:
     2:
     0.130,0.200,0.080,0.007,0.000,114.000,11.000,1.000,0.000,0.000,0.000,0.130,0.200,0.080,0.007,0.000,114.000,11.000,1.000,0.000,0.000,0.000: // measure 0
0000
0000
0000
0000
,  // measure 1
0000
0000
0000
0000
,  // measure 2
0000
0000
0000
0000
,  // measure 3
0000
0000
0000
0000
,  // measure 4
0000
0000
0000
0000
,  // measure 5
0000
0000
0000
0000
,  // measure 6
0000
0000
0000
0000
,  // measure 7
0000
0000
0000
0000
,  // measure 8
1000
0000
1000
0000
,  // measure 9
1000
0000
1000
0000
,  // measure 10
0001
0000
0001
0000
,  // measure 11
0001
0000
0001
0000
,  // measure 12
0100
0000
0100
0000
,  // measure 13
0100
0000
0010
0000
,  // measure 14
0100
0000
0000
0000
,  // measure 15
0010
0000
0000
0000
,  // measure 16
1000
0000
1000
0000
,  // measure 17
1000
1000
1000
0000
,  // measure 18
0001
0000
0000
0000
,  // measure 19
0100
0000
0000
0000
,  // measure 20
0010
0000
0010
0000
,  // measure 21
0010
0010
0010
0000
,  // measure 22
0100
0000
0000
0000
,  // measure 23
0010
0000
0000
0000
,  // measure 24
1000
0000
1000
0000
,  // measure 25
1000
0000
0000
0000
,  // measure 26
0001
0000
0000
0000
,  // measure 27
0001
0000
0000
0000
,  // measure 28
0010
0000
0100
0000
,  // measure 29
1000
0000
0000
0000
,  // measure 30
1001
0010
0000
0000
,  // measure 31
0000
0100
0000
0000
,  // measure 32
0000
0010
0000
0000
,  // measure 33
0000
1000
0000
0000
,  // measure 34
0000
1001
0000
0000
,  // measure 35
0000
0001
0000
0000
,  // measure 36
0000
0010
0000
0010
,  // measure 37
0000
0010
0100
0100
,  // measure 38
0100
0110
0000
0010
,  // measure 39
0000
0001
0000
1000
,  // measure 40
0000
1000
0000
0001
,  // measure 41
0000
1000
0000
1000
,  // measure 42
0000
0010
0000
0010
,  // measure 43
0000
0010
0010
0010
,  // measure 44
0000
0100
0000
0010
,  // measure 45
0000
2000
0000
0000
,  // measure 46
3000
0000
0000
0000
,  // measure 47
0000
0001
0000
0000
,  // measure 48
0000
0000
0000
0000
,  // measure 49
0010
0010
0000
0000
,  // measure 50
0000
0000
0000
0000
,  // measure 51
0000
1000
0000
0000
,  // measure 52
0000
0000
0000
0000
,  // measure 53
0001
0001
0000
0000
,  // measure 54
0000
0000
0000
0000
,  // measure 55
0000
0100
0000
0000
,  // measure 56
0000
0010
0000
0000
,  // measure 57
0000
1000
0000
0000
,  // measure 58
0000
0001
0000
0000
,  // measure 59
0000
0010
0000
0000
,  // measure 60
0000
0000
0100
0100
,  // measure 61
0100
1001
0000
0000
,  // measure 62
0000
1000
0000
0000
,  // measure 63
0000
0110
0000
0000
,  // measure 64
0000
0100
0000
0000
,  // measure 65
0000
1001
0000
0000
,  // measure 66
0000
0001
0000
0000
,  // measure 67
0000
0100
0000
0100
,  // measure 68
0000
0100
0010
0010
,  // measure 69
0010
1001
0000
1000
,  // measure 70
0000
1000
0000
1000
,  // measure 71
0000
1001
0000
0001
,  // measure 72
0000
0001
0000
0001
,  // measure 73
0000
0100
0000
0010
,  // measure 74
0000
1000
1000
1000
,  // measure 75
0000
0001
0001
0001
,  // measure 76
1000
1000
0000
0000
,  // measure 77
0000
0000
0000
0010
,  // measure 78
0010
0110
1001
0110
;
