#TITLE:Win the race;
#SUBTITLE:-Scooter remix-;
#ARTIST:Modern Talking;
#TITLETRANSLIT:;
#SUBTITLETRANSLIT:;
#ARTISTTRANSLIT:;
#CREDIT:;
#BANNER:bn.png;
#BACKGROUND:bg.png;
#LYRICSPATH:;
#CDTITLE:;
#MUSIC:Win the race -Scooter remix-.mp3;
#OFFSET:-0.038;
#SAMPLESTART:20.480;
#SAMPLELENGTH:12.000;
#SELECTABLE:YES;
#BPMS:0.000=139.520;
#STOPS:;
#BGCHANGES:;

//---------------dance-single - ----------------
#NOTES:
     dance-single:
     :
     Challenge:
     9:
     0.604,0.650,0.659,0.047,0.786:
0000
0000
0000
0000
,
0000
0000
0000
0000
,
0000
0000
0000
0000
,
0000
0000
0000
0000
,
1001
0000
0001
0100
0000
0100
0010
0000
0010
1000
0000
1000
,
0001
0000
0001
1000
0000
1000
0001
0000
0001
1000
0000
1000
,
0010
0000
0100
0010
0000
0100
0001
0000
0001
0010
0000
0010
,
0100
0000
0010
0100
0000
0010
0100
0000
0100
1000
0000
0010
,
0000
0000
0100
0001
0000
0100
0010
0000
0010
1000
0000
1000
,
0001
0000
0001
0010
0000
0001
0100
0000
0010
1000
0000
0100
,
0010
0000
0010
0001
0000
0001
0100
0000
0010
1000
0000
1000
,
0100
0000
0100
0010
0000
0010
0001
0000
0100
0010
0000
1000
,
1001
0101
0011
0011
,
1001
0000
0000
1010
0000
0000
1100
0000
0000
1100
0000
0010
,
0001
0000
0000
1100
0000
0010
0001
0000
0000
1001
0000
0001
,
0200
0000
1000
0000
0000
0020
0000
0000
0000
0330
0000
0100
,
0101
0110
0101
1010
,
1100
0000
0000
1001
0000
0000
0101
0000
0000
0011
0000
0100
,
1000
0000
0000
0011
0000
0100
1000
0000
0000
0011
0000
0100
,
2000
0000
0010
0000
0000
3001
0000
0000
0001
0100
0000
0010
,
1000
0000
1000
0001
1000
0001
1000
0000
1000
0001
1000
0001
,
1000
0000
1000
0001
1000
0001
1000
0001
1000
0001
1000
0001
,
0010
0000
0100
0010
0100
0010
0100
0000
0010
0100
0010
0100
,
0010
0000
0010
0100
0010
0100
0010
0100
0010
0100
0010
0100
,
1000
0000
1000
0001
0100
0001
0010
0000
0001
0100
0001
1000
,
0100
0000
1000
0001
0100
0001
0010
0001
0100
0010
1000
0100
,
2000
3010
0200
0310
,
0101
1010
1100
0011
,
1001
0000
0101
0110
,
0101
0000
0000
1010
0000
0110
0000
0000
1001
0000
0000
0000
,
0011
0000
1001
1100
,
1010
0000
0000
0101
0000
0110
0000
0000
1001
0000
0000
0000
,
1100
0000
1010
0101
,
1001
0000
0000
1010
0000
1100
0000
0000
0000
1100
0000
1010
,
0000
0000
0000
0000
0110
0000
0000
0000
0000
0000
1100
0000
0000
0000
0000
0000
0011
0000
0000
0000
0000
1010
0000
0000
,
0000
1001
0110
1001
,
0110
0000
0010
1000
0010
0100
0001
0000
0001
0010
0100
1000
,
0100
0000
0100
1000
0010
0100
0001
1000
0100
1000
0001
0100
,
0001
0000
1000
0001
0100
0001
0010
0000
0010
0100
1000
0010
,
0100
0000
0100
0010
1000
0001
0010
0100
1000
0100
0010
0001
,
1000
0000
0001
0100
0010
1000
0100
0000
0100
1000
0010
0100
,
0001
0000
0001
1000
0100
0010
0100
1000
0010
0100
0001
0010
,
0001
0000
0001
0100
0010
0100
0010
0000
0100
0010
1000
0100
,
0010
0000
0010
0100
1000
0001
0100
0010
1000
0100
0010
0001
,
0100
0100
0100
0100
,
0100
0100
0100
0100
,
0010
0010
0010
0010
,
0010
0010
0010
0010
,
1010
0101
1010
0101
,
1100
0011
1100
0011
,
0110
1001
0110
1001
,
0101
0000
0000
1010
0000
0100
0001
0000
0010
0100
0000
0010
,
0001
0000
1000
0001
0000
0010
0001
0000
0100
0001
0000
0001
,
1000
0000
0010
1000
0000
0100
1000
0000
0001
1000
0000
0100
,
0010
0000
0001
0010
0000
1000
0010
0000
0100
0010
0000
0010
,
0100
0000
1000
0100
0000
0001
0100
0000
0010
0100
0000
0100
,
1000
1000
0100
0001
,
0100
1000
0010
0001
,
0010
1000
0001
0010
,
0100
0000
0000
1000
0000
0000
0100
0010
0001
1000
0000
0100
,
1001
0000
0000
0000
;
