#TITLE:When the sun comes down;
#SUBTITLE:(Spencer and Hill remix);
#ARTIST:R.I.O;
#TITLETRANSLIT:;
#SUBTITLETRANSLIT:;
#ARTISTTRANSLIT:;
#CREDIT:;
#BANNER:;
#BACKGROUND:;
#LYRICSPATH:;
#CDTITLE:;
#MUSIC:When the sun comes down (Spencer and Hill remix).mp3;
#OFFSET:-0.050;
#SAMPLESTART:28.940;
#SAMPLELENGTH:12.000;
#SELECTABLE:YES;
#BPMS:0.000=65.000,32.000=130.000,96.000=260.001,160.000=520.002,176.000=130.000;
#STOPS:;
#BGCHANGES:;

//---------------dance-single - ----------------
#NOTES:
     dance-single:
     :
     Challenge:
     8:
     0.402,0.571,0.229,0.229,0.284: // measure 1
0000
0000
0000
0000
,  // measure 2
0000
0000
0000
0000
,  // measure 3
0000
0000
0000
0000
,  // measure 4
0000
0000
0000
0000
,  // measure 5
0001
0000
0000
0100
0000
0000
0010
0000
0000
1000
0000
0000
0100
0000
0000
0000
1000
0000
0000
0001
0000
0000
0010
0000
0000
0100
0000
0000
0010
0000
0000
0000
,  // measure 6
0001
0000
0000
0100
0000
0000
0010
0000
0000
1000
0000
0000
0100
0000
0000
0000
1000
0000
0000
0001
0000
0000
0100
0000
0000
0010
0000
0000
1000
0000
0000
0000
,  // measure 7
0020
0000
0000
1030
0000
0000
0200
0000
0000
0301
0000
0000
0000
0000
0000
0000
,  // measure 8
0001
0000
0000
0010
0000
0000
0100
0000
1000
0000
0000
0100
0000
0000
0100
0000
0000
0000
0000
0000
0000
0000
1001
0000
0000
0000
0001
0000
0000
0010
0000
0000
,  // measure 9
0100
0000
0000
1000
0000
0000
0010
0000
0000
0000
0100
0000
0000
0010
0000
0000
,  // measure 10
1000
0000
0000
0001
0000
0000
0100
0000
0000
0000
0001
0000
0000
1000
0000
0000
,  // measure 11
0100
0000
0000
0010
0000
0000
0100
0000
0000
0000
1000
0000
0000
0010
0000
0000
,  // measure 12
0100
0000
0000
0001
0000
0000
0100
0000
0000
0000
0010
0000
0000
1000
0000
0000
,  // measure 13
1002
0000
0000
1000
0000
0000
1003
0000
0000
0000
0001
0000
0000
0100
0000
0000
,  // measure 14
0120
0000
0000
0100
0000
0000
0130
0000
0000
0000
0010
0000
0000
1000
0000
0000
,  // measure 15
0100
0000
0000
0000
0000
1000
0200
0000
,  // measure 16
0000
0000
0020
0000
0330
0000
0000
0000
0000
0000
0010
0000
0000
0001
0000
0000
,  // measure 17
1002
0000
0000
1000
0000
0000
1003
0000
0000
0000
0001
0000
0000
0100
0000
0000
,  // measure 18
1020
0000
0000
1000
0000
0000
1030
0000
0000
0000
0010
0000
0000
1000
0000
0000
,  // measure 19
2100
0000
0000
0100
0000
0000
3100
0000
0000
0000
1000
0000
0000
0100
0000
0000
,  // measure 20
0021
0000
0000
0001
0000
0000
0031
0000
0000
0000
0001
0000
0000
0100
0000
0000
,  // measure 21
0120
0000
0000
0100
0000
0000
0130
0000
0000
0000
0010
0000
0000
1000
0000
0000
,  // measure 22
1002
0000
0000
1000
0000
0000
1003
0000
0000
0000
0001
0000
0000
0100
0000
0000
,  // measure 23
0110
0000
0000
0000
0000
0010
2000
0000
,  // measure 24
0000
0000
0000
0001
0000
0000
0001
0000
,  // measure 25
3001
0000
1000
0001
,  // measure 26
0100
0000
0101
0000
,  // measure 27
0001
0100
0010
1000
,  // measure 28
0100
0001
0100
1000
,  // measure 29
0010
0000
0110
0000
,  // measure 30
0100
0010
1010
0000
,  // measure 31
1000
0000
0101
0000
,  // measure 32
0010
0000
1100
0000
,  // measure 33
1000
0001
0100
0000
,  // measure 34
0010
1000
0100
0000
,  // measure 35
1000
0001
0100
0000
,  // measure 36
0001
0010
0100
0000
,  // measure 37
0010
0001
0100
0010
,  // measure 38
1000
0001
1000
0010
,  // measure 39
0100
0001
0100
0001
0100
0001
0100
0001
,  // measure 40
0100
0001
0100
0001
0100
0001
0100
0001
,  // measure 41
0010
0000
0000
0000
,  // measure 42
0000
0000
0000
0000
,  // measure 43
0000
0000
0000
0000
,  // measure 44
1001
0000
0000
0000
,  // measure 45
0001
0000
0100
0000
0010
0000
1000
0100
0000
0000
1000
0000
1001
0000
0000
0000
,  // measure 46
0001
0000
0010
0000
0001
0000
1000
0001
0000
0000
0100
0000
0020
0000
2030
0000
,  // measure 47
3001
0000
0010
0000
0100
0000
0010
0001
0000
0000
0100
0000
0101
0000
0000
0000
,  // measure 48
0001
0000
0100
0000
0010
0000
1000
0000
0001
0000
0000
1000
0000
0000
1000
0000
,  // measure 49
0001
0000
0010
0000
0100
0000
1000
0010
0000
0000
0100
0000
1010
0000
0000
0000
,  // measure 50
1000
0000
0010
0000
0100
0000
0010
1000
0000
0000
0100
0000
0020
0000
0032
0000
,  // measure 51
0013
0000
0100
0000
1000
0000
0010
0100
0000
0000
0001
0000
1100
0000
0000
0000
,  // measure 52
0010
0100
1000
0100
0001
0010
0100
1000
,  // measure 53
1200
0000
0000
0000
1000
0000
0000
0301
0000
0000
0000
0000
0000
0000
0000
0000
,  // measure 54
0201
0000
0000
0000
1000
0000
0000
0301
0000
0000
0000
0000
0000
0000
0000
0000
,  // measure 55
1020
0000
0000
0000
0001
0000
0000
1030
0000
0000
0000
0000
0000
0000
0000
0000
,  // measure 56
0210
0000
0000
0000
1000
0000
0000
0301
0000
0000
0000
0000
0000
0000
0000
0000
,  // measure 57
0102
0000
0000
0000
0010
0000
0000
0013
0000
0000
0000
0000
0000
0000
0000
0000
,  // measure 58
2010
0000
0000
0000
0100
0000
0000
3100
0000
0000
0000
0000
0000
0000
0000
0000
,  // measure 59
0120
0000
0000
0000
1000
0000
0000
0031
0000
0000
0000
0000
0000
0000
0000
0000
,  // measure 60
1002
0000
0000
0000
0000
0000
0000
0000
0010
0000
0000
0010
0000
0000
0013
0000
,  // measure 61
0001
0000
0100
0000
0010
0000
1000
0010
0000
0100
0001
0000
0000
0000
0000
0000
,  // measure 62
0001
0000
0001
0000
0010
0000
0100
1000
0000
1000
0010
0000
0000
0000
0000
0000
,  // measure 63
0100
0000
0000
0000
0010
0000
0000
1000
0000
0000
0001
0000
0000
0000
0000
0000
,  // measure 64
0001
0000
1000
0000
0100
0000
1000
0100
0000
0001
0010
0000
0001
0000
0100
0000
,  // measure 65
0010
0000
0000
0000
1000
0000
0000
0001
0000
0000
0010
0000
0000
0000
0000
0000
,  // measure 66
0100
0000
1000
0000
0010
0000
0100
0001
0000
0001
1000
0000
0000
0000
0000
0000
,  // measure 67
1000
0000
0000
0000
0001
0000
0000
0010
0000
0000
0100
0000
0000
0000
0000
0000
,  // measure 68
0100
0010
0002
0103
0010
1000
0002
0013
,  // measure 69
2200
0000
0000
0000
,  // measure 70
3300
0000
0000
0000
;
