#TITLE:Werewolf!;
#SUBTITLE:;
#ARTIST:Al Storm;
#TITLETRANSLIT:;
#SUBTITLETRANSLIT:;
#ARTISTTRANSLIT:;
#CREDIT:;
#BANNER:bn.png;
#BACKGROUND:bg.png;
#LYRICSPATH:;
#CDTITLE:;
#MUSIC:Werewolf!.mp3;
#OFFSET:-9.682;
#SAMPLESTART:30.380;
#SAMPLELENGTH:12.000;
#SELECTABLE:YES;
#BPMS:0.000=174.000,57.000=87.000,60.000=174.000,123.000=87.000,124.250=174.020,141.000=130.500,162.000=174.000,174.000=87.000,175.000=174.000,200.000=87.000,203.000=174.000;
#STOPS:0.000=1.034
,59.000=0.172
,59.250=0.172
,59.500=0.172
,59.750=0.172
,90.000=0.345
,124.250=1.132
,138.000=0.172
,138.500=0.172
,175.000=0.345
,202.000=0.172
,202.250=0.172
,202.500=0.172
,202.750=0.172
;
#BGCHANGES:;

//---------------dance-single - ----------------
#NOTES:
     dance-single:
     :
     Hard:
     8:
     0.461,0.600,0.558,0.140,0.109:
0000
0000
0100
0010
0000
1000
0000
0001
,
0000
0000
1000
0000
0000
0000
0100
0000
0000
0010
0000
0001
0000
0000
1000
0000
,
0000
0001
0000
0001
0000
1000
0000
0100
,
0000
0010
0000
0100
1000
0001
1000
0000
,
0010
0000
0110
0010
0000
0100
0000
0001
,
0000
0000
1000
0000
0000
0000
0100
0000
0000
1000
0000
1000
0000
0000
0001
0000
,
0000
0100
0000
0010
0000
0100
0000
0001
,
0000
1000
0000
0001
0010
0100
1000
0000
,
1001
0002
0100
0100
,
0103
2000
0100
0100
,
3100
0002
0010
0010
,
0013
2000
0010
0010
,
3010
0000
0000
0000
0100
0000
0000
0010
1000
0000
0000
1000
0001
0000
0000
0001
,
0010
0000
0000
0010
0100
0000
0000
0100
1000
0000
0000
1000
0001
0000
0000
0001
,
0100
0000
0000
0010
1000
0000
0001
0000
0010
0000
0100
1000
0010
0010
0010
0110
,
1001
1000
0000
0001
0000
0011
0000
1001
,
0000
1000
0000
0010
0000
0110
0000
1001
,
0000
0010
0000
1000
0000
1010
0000
1001
,
0000
1100
0000
0101
0000
1001
0000
1100
,
0000
1000
0000
0001
0000
0011
0000
1001
,
0000
0001
0000
0100
0000
0110
0000
1001
,
0000
0100
0000
0001
0000
0101
0000
1001
,
0000
0001
0000
1000
0000
0000
0100
0000
,
0011
0000
0001
0100
0010
0000
1000
0000
,
0101
0000
0001
1000
0100
0000
0010
0000
,
0011
0000
0001
0100
1000
0000
0100
0000
,
0110
0000
0010
1000
0001
0000
1000
0000
,
1001
0000
0001
0100
0010
0000
1000
0000
,
1100
0000
1000
0001
0010
0000
0100
0000
,
1100
0000
0100
0010
0001
0000
2000
0000
,
3002
0000
0000
0000
0103
0001
0000
0000
0020
0000
0000
0000
0030
0000
0000
0000
,
0000
1001
0000
0000
0000
0000
0000
0000
2001
0000
0000
0000
0000
0000
0001
0000
,
0000
0000
3100
0000
2100
0000
0000
0100
,
0100
0000
3100
0000
1002
0000
0000
0100
,
0000
0000
0013
0000
0011
1010
0010
0000
,
0010
1000
0002
0000
0000
0000
0000
0000
,
0000
0000
0000
0000
,
0000
0000
0000
0000
,
0000
0000
0000
0000
,
0000
0000
0000
0000
,
0000
0000
1003
1000
,
0001
0001
0100
0100
,
0010
0010
0100
0001
,
1000
0100
2002
3003
,
0110
0010
0000
0100
0000
0001
0000
1000
,
0000
0000
0100
0000
0000
1000
0000
1000
0000
0000
0100
0000
0000
0000
1000
0000
,
0000
0100
0000
0010
0000
0001
0000
0010
,
0000
0001
0100
1000
0100
0000
0010
0000
,
1001
0001
0000
1000
0000
0100
0000
1000
,
0000
0000
0010
0000
0000
0100
0000
0100
0000
0000
0010
0000
0000
0000
1000
0000
,
0001
0000
1000
0000
0010
0000
1000
0001
0010
0010
0010
1001
0101
0000
0001
0000
,
0000
0100
0000
0110
0000
1001
0000
0001
,
0000
0100
0000
0110
0000
1010
0000
1000
,
0000
0100
0000
0110
0000
0011
0000
0101
,
0000
1100
0000
0101
0000
1100
0000
0010
,
0000
1001
0000
0001
0000
0110
0000
0001
,
0000
1100
0000
0010
0000
1001
0000
0100
,
0000
1010
0000
0100
0000
0110
0000
1001
,
0000
1001
0000
0000
0000
0000
0001
0000
,
0110
0000
0010
1000
0100
0000
1000
0000
,
1100
0000
1000
0010
0100
0000
0001
0000
,
1001
0000
0001
0010
0100
0000
0010
0000
,
0011
0000
0001
0100
0010
0000
1000
0000
,
1001
0000
0001
0100
1000
0000
0100
0000
,
0110
0000
0010
1000
0001
0000
1000
0000
,
0101
0000
0000
0000
0001
0000
0100
0000
0010
0000
0000
0000
0200
0000
0000
0300
,
0000
0000
0000
0000
0010
0100
0010
0000
1000
0000
0000
0000
2200
0000
0000
0000
,
0000
0000
0000
0000
,
0000
0000
0000
3300
;

//---------------dance-single - ----------------
#NOTES:
     dance-single:
     :
     Medium:
     6:
     0.326,0.510,0.140,0.070,0.000:
0000
0000
1000
0001
0000
0100
0000
0001
,
0000
0010
0000
0100
0000
0010
0000
0001
,
0000
1000
0000
0010
0000
1000
0000
0001
,
0000
0010
0000
0100
0000
0010
1000
0000
,
0001
0000
1000
0100
0000
0010
0000
0001
,
0000
0100
0000
1000
0000
0100
0000
0010
,
0000
1000
0000
0001
0000
0010
0000
0100
,
0000
0010
0000
0001
0000
0001
0100
0000
,
0010
0100
0100
0100
,
0100
0010
0010
0010
,
0010
1000
1000
1000
,
1000
0001
0001
0001
,
0001
1001
0110
1001
,
0110
1001
0110
1001
,
0110
0001
1000
0200
,
1300
0100
0000
0010
0000
0100
0000
1000
,
0000
0100
0000
0010
0000
0100
0000
1000
,
0000
0100
0000
0010
0000
0100
0000
1000
,
0000
0100
0000
0010
0000
0100
0000
1000
,
0000
0001
0000
0100
0000
1000
0000
0100
,
0000
0001
0000
0100
0000
1000
0000
0100
,
0000
0001
0000
0100
0000
1000
0000
0100
,
0000
0001
0000
0010
0000
0000
0100
0010
,
0000
0010
0000
0100
0000
0100
0000
1000
,
0000
1000
0000
0001
0000
0001
0000
1000
,
0000
0001
0000
0100
0000
0100
0000
0001
,
0000
0010
0000
1000
0000
0010
0000
0100
,
0000
1000
0000
0100
0000
0010
0000
0001
,
0000
0010
0000
0001
0000
0100
0000
1000
,
0000
0100
0000
0010
0000
0001
1000
0000
,
1000
0000
0100
0010
0001
0000
1001
0000
,
0000
0000
0002
0000
,
0000
0000
0203
0000
,
0000
0000
0320
0000
,
0000
0000
0000
0000
1030
0001
0100
0000
,
0000
0020
0000
0000
,
0000
0000
0000
0000
,
0000
0000
0000
0000
,
0000
0000
0000
0000
,
0000
0000
0000
0000
,
0000
0000
0130
0100
,
0010
0010
1000
1000
,
0001
0001
0101
1100
,
0101
1100
1001
0000
,
0010
0100
0000
0001
0000
0100
0000
1000
,
0000
0100
0000
0010
0000
1000
0000
0001
,
0000
0010
0000
0001
0000
0100
0000
1000
,
0000
0100
0000
0010
1000
0000
0010
0000
,
1010
0010
0000
0100
0000
0010
0000
1000
,
0000
0001
0000
1000
0000
0100
0000
1000
,
0200
0000
0000
0000
0000
0000
0310
0001
,
0000
0010
0000
0001
0000
0010
0000
0100
,
0000
1000
0000
0100
0000
1000
0000
0100
,
0000
0010
0000
0001
0000
0010
0000
0100
,
0000
1000
0000
0001
0000
0100
0000
0001
,
0000
0100
0000
1000
0000
0100
0000
0010
,
0000
1000
0000
0001
0000
0010
0000
0001
,
0000
0100
0000
1000
0000
0100
0000
0010
,
0000
1000
0000
0000
0000
0000
0001
1000
,
0000
1000
0000
0001
0000
0001
0000
0100
,
0000
0100
0000
0010
0000
0010
0000
1000
,
0000
0010
0000
0100
0000
0001
0000
0010
,
0000
0100
0000
0010
0000
0001
0000
1000
,
0000
0001
0000
0100
0000
1000
0000
0100
,
0000
0010
0000
1000
0000
0001
0000
0010
,
0000
0100
0000
1000
0000
0100
0000
0000
,
0000
0000
1000
0001
0100
0000
0220
0000
,
0000
0000
0000
0000
,
0000
0000
0000
0330
;

//---------------dance-single - ----------------
#NOTES:
     dance-single:
     :
     Easy:
     4:
     0.272,0.450,0.070,0.105,0.000:
0000
0010
0000
0100
,
0000
0001
1000
0001
,
1000
0010
0000
1000
,
0000
0010
1000
0001
,
0010
0100
0000
0010
,
0000
0001
0000
1000
,
0000
0010
0000
0100
,
0000
0001
1000
0100
,
1000
0020
0000
0000
,
0030
0200
0000
0000
,
0300
0020
0000
0000
,
0030
0200
0000
0000
,
0300
0001
0001
1000
,
1001
0001
0001
1000
,
1001
0001
0000
0000
,
0100
0010
1000
1000
,
0010
0100
0010
0010
,
0100
0001
1000
1000
,
0001
0100
1000
0100
,
0010
1000
0010
1000
,
0001
1000
0001
1000
,
0001
0010
0001
0010
,
0001
0010
0000
0100
,
1000
0100
0010
0100
,
1000
0010
0100
0001
,
1000
0010
1000
0001
,
0010
0100
1000
0100
,
1000
0010
0100
0010
,
1000
0001
0010
0100
,
0010
0001
1000
0010
,
0100
0001
0000
0000
,
0000
0000
2000
0000
,
0000
0000
3002
0000
,
0000
0000
0203
0000
,
0000
0000
0300
0000
,
0000
0020
0000
0000
,
0000
0000
0000
0000
,
0000
0000
0000
0000
,
0000
0000
0000
0000
,
0000
0000
0000
0000
,
0000
0000
1030
1000
,
0001
0001
1000
1000
,
0001
0001
1001
1001
,
1001
0000
1001
0000
0220
0330
0000
0000
,
0010
0100
0100
0100
,
0010
1000
0001
0010
,
0100
0010
0001
0010
,
1000
0010
0100
1000
,
0100
1000
0010
0100
,
0001
1000
0001
0010
,
0100
0000
0000
0010
,
0010
0001
0001
1000
,
1000
0001
0100
0001
,
0100
1000
0100
0010
,
1000
0001
1000
0001
,
0100
0001
0010
0001
,
0100
0010
1000
0100
,
0010
0100
1000
0001
,
0100
0000
0000
0100
,
0010
0100
0001
1000
,
0001
0100
1000
0100
,
0010
1000
0001
0010
,
1000
0010
0100
1000
,
0100
1000
0010
0100
,
0001
0010
0100
1000
,
0100
1000
0010
0100
,
0000
0000
0000
2002
,
0000
0000
0000
0000
,
0000
0000
0000
3003
;

//---------------dance-single - ----------------
#NOTES:
     dance-single:
     :
     Beginner:
     2:
     0.122,0.291,0.070,0.000,0.000: // measure 1
0000
0010
0000
0000
,  // measure 2
0000
1000
0000
1000
,  // measure 3
0000
0001
0000
0000
,  // measure 4
0000
0100
0000
0010
,  // measure 5
0010
1000
0000
0000
,  // measure 6
0000
0001
0000
1000
,  // measure 7
0000
0010
0000
0000
,  // measure 8
0000
0100
0000
0010
,  // measure 9
0000
1000
0000
0000
,  // measure 10
0000
0001
0000
0000
,  // measure 11
0000
0100
0000
0000
,  // measure 12
0000
0010
0000
0000
,  // measure 13
0110
1001
0000
0001
,  // measure 14
1001
0000
0000
1000
,  // measure 15
1001
0000
0000
0000
,  // measure 16
0100
0000
0000
0000
,  // measure 17
0010
0000
0000
0000
,  // measure 18
1000
0000
0000
0000
,  // measure 19
0001
0000
1000
0000
,  // measure 20
0100
0000
0000
0000
,  // measure 21
1000
0000
0000
0000
,  // measure 22
0010
0000
0000
0000
,  // measure 23
0100
0000
0000
0100
,  // measure 24
0000
0000
0000
0010
,  // measure 25
0000
0000
0000
1000
,  // measure 26
0000
0000
0000
0001
,  // measure 27
0000
1000
0000
0010
,  // measure 28
0000
0000
0000
1000
,  // measure 29
0000
0000
0000
0001
,  // measure 30
0000
0000
0000
0010
,  // measure 31
0010
0010
0000
0000
,  // measure 32
0000
0000
0100
0000
,  // measure 33
0000
0000
0010
0000
,  // measure 34
1000
1000
0001
0000
,  // measure 35
0000
0000
1000
0000
,  // measure 36
0000
0100
0000
0000
,  // measure 37
0000
0000
0000
0000
,  // measure 38
0000
0000
0000
0000
,  // measure 39
0000
0000
0000
0000
,  // measure 40
0000
0000
0000
0000
,  // measure 41
0000
0000
0010
0000
,  // measure 42
0100
0000
1000
0000
,  // measure 43
0001
0000
1000
0001
,  // measure 44
1000
0001
1001
0000
,  // measure 45
0010
0000
0000
0000
,  // measure 46
1000
0000
1000
0000
,  // measure 47
1001
0000
0000
0000
,  // measure 48
0001
0000
0100
0000
,  // measure 49
0110
0000
0000
0000
,  // measure 50
0010
0000
1000
0000
,  // measure 51
0001
0000
0000
0100
,  // measure 52
0000
0000
0000
0010
,  // measure 53
0000
0000
0000
1000
,  // measure 54
0000
0000
0000
0001
,  // measure 55
0000
1000
0000
0010
,  // measure 56
0000
0000
0000
0100
,  // measure 57
0000
0000
0000
0001
,  // measure 58
0000
0000
0000
1000
,  // measure 59
0000
0100
0100
0100
,  // measure 60
0000
0000
0000
1000
,  // measure 61
0000
0000
0000
0010
,  // measure 62
0000
0000
0000
1000
,  // measure 63
0000
0001
0000
0010
,  // measure 64
0000
0000
0000
0001
,  // measure 65
0000
0000
0000
0100
,  // measure 66
0000
0000
0000
0010
,  // measure 67
0000
0000
0000
1001
;
