#TITLE:Wenkamui;
#SUBTITLE:;
#ARTIST:Zektbach;
#TITLETRANSLIT:;
#SUBTITLETRANSLIT:;
#ARTISTTRANSLIT:;
#CREDIT:;
#BANNER:bn.png;
#BACKGROUND:bg.png;
#LYRICSPATH:;
#CDTITLE:;
#MUSIC:18 Wenkamui.mp3;
#OFFSET:-0.213;
#SAMPLESTART:57.080;
#SAMPLELENGTH:12.000;
#SELECTABLE:YES;
#BPMS:0.000=135.060;
#STOPS:;
#BGCHANGES:;

//---------------dance-single - ----------------
#NOTES:
     dance-single:
     :
     Hard:
     7:
     0.360,0.461,0.039,0.246,0.010:
0000
0000
0000
0000
,
0000
0000
0000
0000
,
0000
0000
0000
0000
,
0000
0000
0000
0000
,
0000
0000
0000
0000
,
0000
0000
0000
0000
,
0000
0000
0000
0000
,
0000
0000
0000
0000
,
1000
1000
1000
1000
,
0001
0001
0001
0001
,
0100
0100
0100
0100
,
0010
0010
0010
0010
,
0100
0001
1000
0100
,
1000
0001
0100
0001
,
0001
1000
0010
1000
,
0010
1000
0100
0010
,
0001
0100
0010
0100
0002
0000
1003
0000
,
1000
0010
1000
0000
0100
0010
0100
0000
,
0010
0001
0100
1000
,
0100
0010
1000
0010
,
0100
0000
0010
1000
0001
0000
0010
0000
,
0100
0000
1000
0010
0100
0000
0010
1000
,
0200
0310
0200
1300
,
2000
3020
0230
0302
,
0013
0000
0000
0020
2000
0000
0000
0000
,
3030
0000
0020
0001
,
0130
0000
0000
0100
2000
0000
0000
0000
,
3010
0000
0000
0100
0000
0000
0010
0000
1000
0000
0000
0100
0000
0000
0010
0000
,
0002
0000
0000
1000
2000
0000
0000
0000
,
3003
0000
0002
0203
,
2300
0000
3000
0100
0010
0000
0000
0010
,
2000
3002
0023
0032
,
1003
0100
1000
0010
0100
0001
0010
0100
,
0000
0100
0010
0100
0001
0010
0100
0010
,
0000
0100
1000
0010
0100
0001
0100
1000
,
0200
0000
0310
1000
0200
0010
0320
0100
,
0130
0010
0001
0100
0001
1000
0100
1000
,
0000
1000
0010
0100
0001
0100
0001
0010
,
0000
0001
0010
0100
1000
0100
1000
0010
,
0100
0100
0010
2000
0000
0001
0001
3001
,
1000
0001
0100
1000
0100
0001
0010
0001
,
0000
0001
1000
0100
0010
0100
1000
0010
,
0000
0100
1000
0001
0100
1000
0100
0010
,
0110
1001
0101
1010
,
0000
0001
0100
0010
0100
0100
0010
1000
,
0000
1000
0100
0010
0100
0100
0010
0001
,
0000
0001
0010
0001
0100
0010
1000
0001
,
0010
0010
0001
0200
0000
0310
1000
0100
,
0010
0001
0010
0001
,
1000
0010
1000
0010
,
1000
0100
1000
0100
,
0010
0001
0010
0001
,
1000
0000
0000
0000
;

//---------------dance-single - ----------------
#NOTES:
     dance-single:
     :
     Medium:
     5:
     0.277,0.384,0.089,0.138,0.000:
0000
0000
0000
0000
,
0000
0000
0000
0000
,
0000
0000
0000
0000
,
0000
0000
0000
0000
,
0000
0000
0000
0000
,
0000
0000
0000
0000
,
0000
0000
0000
0000
,
0000
0000
0000
0000
,
1000
0001
1000
0001
,
0100
0010
0100
0010
,
0100
0001
0100
0001
,
0010
0100
0010
0100
,
1000
0100
1000
0100
,
1000
0010
1000
0010
,
0100
0010
0100
0010
,
0100
0001
0100
0001
,
2000
0000
0000
3001
0100
0000
0010
0000
,
1000
0100
0020
0031
,
0002
0100
0000
1000
,
0000
0010
0000
1003
,
0001
0000
0100
0001
2000
0000
0100
0000
,
3100
0000
1000
0010
0200
0000
0010
0000
,
0320
1000
0000
0100
,
0000
0001
0000
0130
,
0020
0000
0000
1000
2000
0000
0000
0000
,
0000
0000
0000
3030
0010
0000
1000
0000
,
0200
0000
0000
0010
0020
0000
0330
0000
,
0010
0000
0001
0000
,
0200
0000
0000
0001
0002
0000
0000
0000
,
0303
0000
0001
1000
,
0200
0000
0000
0010
0020
0000
0000
0330
,
0010
0001
0100
0001
,
1000
1000
1000
1000
,
0001
0001
0001
0001
,
0100
0100
0100
0100
,
0110
1001
0110
1001
,
0001
0100
0010
1000
,
0100
1000
0010
0100
,
0001
0001
1000
1000
,
0010
1000
0010
1000
0000
1000
0100
0010
,
0001
0000
0001
0000
0001
0000
0001
0010
,
0100
0000
0100
0000
0100
0000
0100
0010
,
0001
0000
0001
0000
0001
0000
0001
1000
,
1001
0101
1001
0011
,
0110
0000
0100
0000
1000
0000
0100
1000
,
0010
0000
0010
0000
0010
0000
0100
0010
,
1000
0001
0010
0100
,
0100
1000
0010
0100
0000
0010
1000
0001
,
0010
0001
0010
0001
,
0100
0001
0100
0001
,
0100
0010
0100
0010
,
0010
1000
0010
1000
,
0001
0000
0000
0000
;

//---------------dance-single - ----------------
#NOTES:
     dance-single:
     :
     Easy:
     3:
     0.184,0.333,0.069,0.099,0.000:
0000
0000
0000
0000
,
0000
0000
0000
0000
,
0000
0000
0000
0000
,
0000
0000
0000
0000
,
0000
0000
0000
0000
,
0000
0000
0000
0000
,
0000
0000
0000
0000
,
0000
0000
0000
0000
,
1000
0000
0010
0000
,
0100
0000
0010
0000
,
1000
0000
0001
0000
,
0001
0000
0010
0000
,
0001
0000
0100
0000
,
0010
0000
0100
0000
,
0010
0000
1000
0000
,
0001
0000
0010
0000
,
0100
0010
0002
0000
,
0000
0003
1000
0000
,
0020
0000
0000
0000
,
0000
0000
0000
0030
,
0100
0000
0002
0000
,
0000
0003
1000
0000
,
0200
0000
0000
0000
,
0000
0000
0000
0300
,
0110
0000
0000
0000
,
0010
0000
0001
0001
,
1001
0000
0100
0000
,
0010
1000
0010
0001
,
0010
0000
0100
0000
,
0101
0000
0001
0001
,
1000
0000
0010
0000
,
0100
0100
0010
0010
,
1000
0001
1000
1000
,
0001
1000
0001
0001
,
1000
0001
1000
0001
,
2000
0001
0001
3001
,
0001
0100
0010
1000
,
0100
1000
0010
0100
,
0001
0010
0100
1000
,
1100
1100
1100
1100
,
1000
1000
0100
0100
,
0010
0010
0001
0001
,
1000
1000
0001
0001
,
0002
0100
0100
0103
,
0010
1000
0010
1000
,
0001
1000
0001
1000
,
0100
1000
0100
1000
,
0100
0010
0001
0010
,
0200
0000
0000
0000
,
2300
0000
0000
0000
,
3020
0000
0000
0000
,
0230
0000
0000
0000
,
0300
0000
0000
0000
;

//---------------dance-single - ----------------
#NOTES:
     dance-single:
     :
     Beginner:
     1:
     0.073,0.103,0.010,0.000,0.000: // measure 1
0000
0000
0000
0000
,  // measure 2
0000
0000
0000
0000
,  // measure 3
0000
0000
0000
0000
,  // measure 4
0000
0000
0000
0000
,  // measure 5
0000
0000
0000
0000
,  // measure 6
0000
0000
0000
0000
,  // measure 7
0000
0000
0000
0000
,  // measure 8
0000
0000
0000
0000
,  // measure 9
0010
0000
0000
0000
,  // measure 10
0010
0000
0000
0000
,  // measure 11
0100
0000
0000
0000
,  // measure 12
1000
0000
0000
0000
,  // measure 13
0001
0000
0000
0000
,  // measure 14
0010
0000
0000
0000
,  // measure 15
0100
0000
0000
0000
,  // measure 16
0100
0000
0000
0000
,  // measure 17
0010
0000
0001
0000
,  // measure 18
0000
0000
1000
0000
,  // measure 19
1000
0000
0000
0000
,  // measure 20
0000
0000
0000
0000
,  // measure 21
0001
0000
1000
0000
,  // measure 22
0000
0000
0010
0000
,  // measure 23
0010
0000
0000
0000
,  // measure 24
0000
0000
0000
0000
,  // measure 25
1001
0000
0000
0000
,  // measure 26
0100
0000
0000
0000
,  // measure 27
0010
0000
0000
0000
,  // measure 28
1000
0000
1000
0000
,  // measure 29
1000
0000
0000
0000
,  // measure 30
0001
0000
0000
0000
,  // measure 31
0100
0000
0000
0000
,  // measure 32
0010
0000
0010
0000
,  // measure 33
0010
0000
0000
0000
,  // measure 34
1000
0000
0000
0000
,  // measure 35
0001
0000
0000
0000
,  // measure 36
0010
0000
0010
0000
,  // measure 37
0010
0000
0000
0000
,  // measure 38
0100
0000
0000
0000
,  // measure 39
0100
0000
0000
0000
,  // measure 40
1000
0000
1000
0000
,  // measure 41
1000
0000
0000
0000
,  // measure 42
0001
0000
0000
0000
,  // measure 43
0100
0000
0000
0000
,  // measure 44
0001
0000
0001
0000
,  // measure 45
1000
0000
0000
0000
,  // measure 46
0010
0000
0000
0000
,  // measure 47
0100
0000
0000
0000
,  // measure 48
0010
0000
0010
0000
,  // measure 49
0100
0000
0000
0000
,  // measure 50
0100
0000
0000
0000
,  // measure 51
0010
0000
0000
0000
,  // measure 52
1000
0000
0000
0000
,  // measure 53
0001
0000
0000
0000
;
