#TITLE:Welcome 2 Wonderland;
#SUBTITLE:;
#ARTIST:Y.O.M.C.;
#TITLETRANSLIT:;
#SUBTITLETRANSLIT:;
#ARTISTTRANSLIT:;
#CREDIT:;
#BANNER:bn.png;
#BACKGROUND:bg.png;
#LYRICSPATH:;
#CDTITLE:;
#MUSIC:Welcome 2 Wonderland.ogg;
#OFFSET:0.020;
#SAMPLESTART:61.680;
#SAMPLELENGTH:12.000;
#SELECTABLE:YES;
#BPMS:0.000=70.000,19.500=140.000,180.000=70.000,215.000=140.000;
#STOPS:19.500=3.643
;
#BGCHANGES:;

//---------------dance-single - ----------------
#NOTES:
     dance-single:
     :
     Hard:
     7:
     0.283,0.472,0.008,0.159,0.335:
0000
0000
0000
0000
,
0000
0000
0000
0000
,
0000
0000
0000
0000
,
0000
0000
0000
0000
,
1000
0000
0000
0001
0000
0000
0100
0000
0000
0000
0000
0000
0000
0000
0000
0000
0000
0000
0000
0000
0000
0000
0000
0000
0000
0000
0000
0000
0000
0000
0000
0000
,
0001
0000
0000
0010
0000
0000
0001
0000
0100
0000
0000
0000
0010
0000
0000
0000
,
1000
0001
0010
0100
,
1000
0000
0000
1000
0000
0000
1000
0000
0001
0000
0000
0000
0010
0000
0000
0000
,
0001
0100
1000
0100
,
0010
0000
0000
0010
0000
0000
0010
0000
1000
0000
0000
0000
0001
0000
0000
0000
,
0010
0001
0100
1000
,
0100
0000
0000
0100
0000
0000
0100
0000
0001
0000
0000
0000
0010
0000
0000
0000
,
0100
0000
0000
1000
0000
0000
0010
0000
0100
0000
0000
0001
0000
0000
1000
0000
,
0200
0000
2000
0300
,
0020
3000
0200
0030
,
0002
0300
0020
0003
,
0200
0030
2000
0300
,
0020
3000
0200
0030
,
0002
0300
2000
0003
,
0200
3000
0002
0300
,
0200
0003
2000
0300
,
3010
0000
0000
0000
,
0000
0000
0000
0000
0000
0000
0010
1000
,
0001
0020
0000
0000
0030
0000
0000
0000
,
0000
0000
0000
0000
0000
0000
0100
1000
,
0020
0000
0030
0000
,
0000
0000
0000
0000
,
1001
0000
0001
0000
,
1000
0001
0010
0100
,
1000
0010
0000
0000
0100
0000
0000
0010
0000
0000
1000
0000
0000
0001
0000
0000
,
0010
0000
0000
0100
0000
0000
0010
0000
0000
0001
0000
0000
0100
0000
0000
0010
,
0000
1000
0000
0000
0001
0000
0000
0100
0000
0000
1000
0000
0000
0100
0000
0000
,
1000
0000
0000
0100
0000
0000
0001
0000
0000
0001
0000
0000
1000
0000
0000
0001
,
0000
0100
0000
0000
0010
0000
0000
1000
0000
0000
0010
0000
0000
0100
0000
0000
,
0001
0000
0000
0010
0000
0000
0100
0000
0000
1000
0000
0000
0100
0000
0000
1000
,
0000
0100
0000
0000
1000
0000
0000
0010
0000
0000
0100
0000
0000
0001
0000
0000
,
1000
0000
0000
0001
0000
0000
0100
0000
0000
0010
0000
0000
1000
0000
0100
0000
,
1000
0001
1000
0010
,
1000
0100
0010
0100
,
1000
0001
0100
0001
,
0010
0100
0010
0001
,
1000
0100
1000
0010
,
0100
0001
0010
0100
,
0010
0001
1000
0100
,
1000
0010
0100
0001
,
1000
0000
0000
1000
0000
0000
1000
0000
0000
0000
0000
0000
0000
0000
0001
0000
0100
0000
0010
0000
1000
0000
0100
0000
1000
0000
0010
0100
0000
0000
0000
0000
,
0010
0000
0000
0010
0000
0000
0010
0000
0000
0000
0000
0000
0000
0100
0000
0010
0000
0000
0000
1000
0000
0010
0000
0100
0000
0010
1000
0000
0000
0000
0000
0000
,
0001
0000
0000
0001
0000
0000
0001
0000
0000
0000
1000
0000
0001
0000
0100
0000
0001
0000
0000
0000
0010
0000
0100
0000
1000
0000
0000
0000
0000
0000
0000
0000
,
0010
0000
0000
1000
0000
0000
0010
0000
0000
0000
0000
0000
0000
0000
0000
0000
0000
0000
0000
0000
0000
0000
0000
0000
0000
0000
0000
0000
1000
0000
0001
0000
,
0010
0000
0000
0100
0000
0000
0010
0000
0000
0000
0010
0000
0000
0000
0010
0000
0000
0000
0000
0000
0000
0000
0000
0000
0000
0000
0000
0000
0100
0000
0010
0000
,
0001
0000
0000
0100
0000
0000
0010
0000
0000
0000
0010
0000
0000
0000
0010
0000
0000
0000
0000
0000
0000
0000
0000
0000
0000
0000
0000
0000
1000
0000
0001
0000
,
1000
0000
0000
0010
0000
0000
0100
0000
0000
0000
0100
0000
0000
0000
0100
0000
0000
0000
0000
0000
0000
0000
0000
0000
0000
0000
0000
0000
0010
0000
1000
0000
,
0200
0000
0000
0010
0000
0000
0010
0000
0000
0000
0010
0000
0000
0000
0010
0000
0000
0000
0000
0000
0000
0000
0000
0000
0000
0000
0000
0000
0000
0000
0000
0000
,
0310
0000
0000
0001
0000
0000
0100
0000
0000
0000
0100
0000
0000
0000
0100
0000
0000
0000
0100
0000
0000
0000
0100
0000
0000
0000
0000
0000
0000
0000
0000
0000
;

//---------------dance-single - ----------------
#NOTES:
     dance-single:
     :
     Medium:
     4:
     0.167,0.245,0.000,0.100,0.025:
0000
0000
0000
0000
,
0000
0000
0000
0000
,
0000
0000
0000
0000
,
0000
0000
0000
0000
,
0100
0000
0000
0000
,
0010
0000
0000
0010
0000
0000
0010
0000
0000
0000
0000
0000
0000
0000
0000
0000
,
0000
0000
0000
0000
,
1000
0000
0000
0001
0000
0000
0100
0000
0000
0000
0000
0000
0000
0000
0000
0000
,
0000
0000
0000
0000
,
0001
0000
0000
0001
0000
0000
0010
0000
0000
0000
0000
0000
0000
0000
0000
0000
,
0000
0000
0000
0000
,
1000
0000
0000
0010
0000
0000
0100
0000
0000
0000
0000
0000
0000
0000
0000
0000
,
0010
0000
0000
1000
0000
0000
0010
0000
0000
0100
0000
0000
0001
0000
0000
0000
,
0100
0000
0010
0000
,
1000
0000
1000
0001
,
0010
0000
0100
0000
,
0010
0000
0001
0000
,
1000
0000
1000
0000
,
0010
0000
0100
0000
,
0001
0000
0010
0000
,
0100
0000
1000
0100
,
0020
0000
0030
0000
,
0000
0000
0000
0100
,
0020
0000
0030
0000
,
0000
0000
0000
0010
,
0002
0000
0003
0000
,
0000
0000
0000
0000
,
1000
0000
0000
0000
,
0001
0100
0010
1000
,
0100
0100
0010
0001
,
0100
0000
0010
0000
1000
0000
0010
0100
,
0001
1000
0001
0100
,
0001
0000
0010
0000
0100
0000
1000
0100
,
0010
0100
1000
0010
,
0100
0000
0001
0000
1000
0000
0010
0100
,
0001
0100
0010
1000
,
0100
1000
0010
0000
0100
0001
0010
0000
,
0100
0100
0010
0010
,
0001
0001
1000
1000
,
0010
0010
0100
0100
,
0001
0001
1000
1000
,
0100
0100
0010
0010
,
0100
0100
1000
1000
,
0001
0001
0010
0010
,
0001
0001
0100
0100
,
0020
0030
0000
0000
,
0200
0300
0000
0000
,
0002
0003
0000
0000
,
2000
0000
3000
0000
0000
0000
0000
1000
,
0200
0000
0300
0000
0000
0000
0000
0100
,
2000
0000
3000
0000
0000
0000
0000
0001
,
0020
0000
0030
0000
0000
0000
0000
0001
,
0200
0300
0000
0000
,
0020
0030
0000
0000
;

//---------------dance-single - ----------------
#NOTES:
     dance-single:
     :
     Easy:
     1:
     0.103,0.111,0.000,0.209,0.000: // measure 1
0000
0000
0000
0000
,  // measure 2
0000
0000
0000
0000
,  // measure 3
0000
0000
0000
0000
,  // measure 4
0000
0000
0000
0000
,  // measure 5
0001
0000
0000
0000
,  // measure 6
1000
1000
1000
0000
,  // measure 7
0000
0000
0000
0000
,  // measure 8
0001
0001
0001
0000
,  // measure 9
0000
0000
0000
0000
,  // measure 10
0100
0100
0100
0000
,  // measure 11
0000
0000
0000
0000
,  // measure 12
0010
0010
0010
0000
,  // measure 13
0100
0000
0001
0000
,  // measure 14
2000
0000
0000
3000
,  // measure 15
2000
0000
0000
3000
,  // measure 16
0002
0000
0000
0003
,  // measure 17
0002
0000
0000
0003
,  // measure 18
0020
0000
0000
0030
,  // measure 19
0020
0000
0000
0030
,  // measure 20
0200
0000
0000
0300
,  // measure 21
0200
0000
0000
0300
,  // measure 22
0010
0000
0000
0000
,  // measure 23
0000
0000
0000
0001
,  // measure 24
0001
0000
0000
0000
,  // measure 25
0000
0000
0000
1000
,  // measure 26
1000
0000
0000
0000
,  // measure 27
0000
0000
0000
0000
,  // measure 28
0000
0000
0000
0000
,  // measure 29
0000
0000
0000
0000
,  // measure 30
0020
0000
0000
0000
,  // measure 31
2030
0000
0000
0000
,  // measure 32
3200
0000
0000
0000
,  // measure 33
0320
0000
0000
0000
,  // measure 34
0230
0000
0000
0000
,  // measure 35
0320
0000
0000
0000
,  // measure 36
0032
0000
0000
0000
,  // measure 37
0203
0000
0000
0000
,  // measure 38
0310
0000
1000
0000
,  // measure 39
0001
0000
0010
0000
,  // measure 40
0001
0000
0100
0000
,  // measure 41
0010
0000
1000
0000
,  // measure 42
0100
0000
1000
0000
,  // measure 43
0010
0000
0100
0000
,  // measure 44
0010
0000
1000
0000
,  // measure 45
0001
0000
0010
0000
,  // measure 46
0200
0300
0000
0000
,  // measure 47
0020
0030
0000
0000
,  // measure 48
2000
3000
0000
0000
,  // measure 49
0002
0003
0000
0000
,  // measure 50
0020
0000
0030
0000
,  // measure 51
0020
0000
0030
0000
,  // measure 52
0020
0000
0030
0000
,  // measure 53
0020
0000
0030
0000
,  // measure 54
0002
0003
0000
0000
;

//---------------dance-single - ----------------
#NOTES:
     dance-single:
     :
     Beginner:
     1:
     0.053,0.111,0.008,0.000,0.000:
0000
0000
0000
0000
,
0000
0000
0000
0000
,
0000
0000
0000
0000
,
0000
0000
0000
0000
,
0000
0000
0000
0000
,
0001
0000
0000
0000
,
0000
0000
0000
0000
,
1000
0000
0000
0000
,
0000
0000
0000
0000
,
0010
0000
0000
0000
,
0000
0000
0000
0000
,
0100
0000
0000
0000
,
0010
0000
0000
0000
,
1000
0000
0000
0000
,
0000
0000
0001
0000
,
0001
0000
0000
0000
,
0000
0000
0000
0000
,
0010
0000
0000
0000
,
0000
0000
0000
0100
,
0100
0000
0000
0000
,
1000
0000
0000
0000
,
0010
0000
0000
0000
,
0000
0000
0000
0000
,
0010
0000
0000
0000
,
0000
0000
0000
0000
,
0100
0000
0000
0000
,
0000
0000
0000
0000
,
0000
0000
0000
0000
,
0100
0000
0010
0000
,
1001
0000
0000
0000
,
1000
0000
1000
0000
,
1000
0000
0000
0000
,
0000
0000
0000
0000
,
0001
0000
0000
0000
,
0010
0000
0010
0000
,
0010
0000
0000
0000
,
0100
0000
0000
0000
,
1000
0000
0000
0000
,
1000
0000
0000
0000
,
0001
0000
0000
0000
,
0001
0000
0000
0000
,
0100
0000
0000
0000
,
0010
0000
0000
0000
,
1000
0000
0000
0000
,
0001
0000
0000
0000
,
0010
0000
0000
0000
,
0100
0000
0000
0000
,
1000
0000
0000
0000
,
0010
0000
0000
0000
,
0100
0000
0000
0000
,
0001
0000
0000
0000
,
1000
0000
0000
0000
,
0100
0000
0000
0000
,
0010
0000
0000
0000
;
