#TITLE:WONDER WALKER;
#SUBTITLE:;
#ARTIST:L.E.D.;
#TITLETRANSLIT:;
#SUBTITLETRANSLIT:;
#ARTISTTRANSLIT:;
#CREDIT:;
#BANNER:bn.png;
#BACKGROUND:bg.png;
#LYRICSPATH:;
#CDTITLE:;
#MUSIC:31 WONDER WALKER.mp3;
#OFFSET:-1.831;
#SAMPLESTART:62.940;
#SAMPLELENGTH:12.000;
#SELECTABLE:YES;
#BPMS:0.000=165.000;
#STOPS:96.000=1.455
;
#BGCHANGES:;

//---------------dance-single - ----------------
#NOTES:
     dance-single:
     :
     Hard:
     9:
     0.595,0.685,0.142,0.016,0.381: // measure 1
0000
0000
0000
0000
,  // measure 2
0000
0000
0000
0000
,  // measure 3
0000
0000
0000
0000
,  // measure 4
0000
0000
0000
0000
,  // measure 5
0000
0000
0000
0000
,  // measure 6
0000
0000
0000
0000
,  // measure 7
0000
0000
0000
0000
,  // measure 8
0000
0000
0000
0000
,  // measure 9
0001
0000
0100
0001
0000
0100
0010
1000
,  // measure 10
0000
0001
0001
0000
0100
0000
0010
0000
,  // measure 11
1000
0000
0100
0010
0000
0100
1000
0001
,  // measure 12
0000
0100
0010
0000
1000
0000
0001
0000
,  // measure 13
0010
0000
0100
0010
0000
0100
1000
0010
,  // measure 14
0000
0100
0001
0000
1000
0000
0010
0000
,  // measure 15
0100
0000
0100
0000
0000
0001
0000
1000
,  // measure 16
0000
1000
0100
0010
0000
0010
0000
0001
,  // measure 17
0000
0001
0010
0100
0000
0010
0000
0010
,  // measure 18
0000
0001
0010
0100
0000
0010
0000
0010
,  // measure 19
0000
0001
0010
0100
0000
0010
0000
0010
,  // measure 20
0000
0001
0010
0100
0000
0010
0000
0010
,  // measure 21
0000
0001
0010
0100
1000
0100
0010
0001
,  // measure 22
0010
0100
1000
0100
0010
0001
0010
0100
,  // measure 23
1000
0001
1000
0001
1000
0001
1000
0001
,  // measure 24
0100
0000
0010
0000
0100
0000
0010
0000
0100
0010
0100
0010
0100
0010
0100
0010
,  // measure 25
0100
0000
0000
0000
,  // measure 26
0001
0000
0100
0010
0000
1000
0000
0010
1000
0000
1000
0001
0000
0010
0000
0001
,  // measure 27
0100
0000
0000
0010
0000
0000
1000
0000
0001
0000
0010
0000
0000
0010
0000
0000
,  // measure 28
0100
0000
0010
0001
0000
0100
0000
0010
1000
0000
0010
0100
0000
0001
0000
1000
,  // measure 29
0100
0000
0000
1000
0000
0000
0010
0000
0100
0000
0001
0000
0000
1000
0000
0000
,  // measure 30
0010
0000
0100
0010
0000
1000
0000
0001
0010
0000
0100
1000
0000
0001
0000
0100
,  // measure 31
0001
0000
0000
0100
0000
0010
0100
0000
0010
0000
0100
0000
0010
0000
0010
0000
,  // measure 32
1000
0000
1000
0100
0000
1000
0100
0000
0100
0000
0100
0010
0000
0010
0001
0000
,  // measure 33
1000
0001
0100
0001
1001
0000
0110
0000
,  // measure 34
0001
0000
0100
0010
0000
0100
0000
0010
1000
0000
0001
0000
1000
0000
0100
0000
,  // measure 35
1000
0000
0000
0100
0000
0000
1000
0000
0010
0000
0100
0000
0000
0010
0000
0000
,  // measure 36
0100
0000
0001
0100
0000
0010
1000
0000
0100
0000
0010
0001
0000
0001
0100
0000
,  // measure 37
0010
0000
0000
0100
0000
0000
0010
0000
1000
0000
0001
0000
0000
1000
0000
0000
,  // measure 38
0100
0000
1000
0000
0001
0000
0100
0001
0100
0000
0010
0100
0000
0100
0001
0000
,  // measure 39
1000
0000
0000
0100
0000
0000
0010
0000
0001
0000
0100
0000
0000
0010
0000
0000
,  // measure 40
0100
0010
1000
0001
0010
0001
1000
0010
,  // measure 41
1010
0000
0000
1100
0000
0000
1001
0000
0001
0100
0000
1010
0000
0000
0001
0000
,  // measure 42
1000
0001
0100
0001
1000
0001
0100
0001
,  // measure 43
1000
0001
0010
0001
1000
0001
0010
0001
,  // measure 44
1000
0001
0100
0001
1000
0001
0010
0001
,  // measure 45
1000
0100
0010
0001
0000
0001
0000
0001
,  // measure 46
0001
1000
0010
1000
0001
1000
0010
1000
,  // measure 47
0001
1000
0100
1000
0001
1000
0100
1000
,  // measure 48
0001
1000
0010
1000
0001
1000
0100
1000
,  // measure 49
0001
0010
0100
1000
0000
1000
0000
1000
,  // measure 50
0100
0010
0001
0010
0100
0010
0001
0010
,  // measure 51
0100
0010
1000
0010
0100
0010
1000
0010
,  // measure 52
0100
0010
0001
0010
0100
0010
1000
0010
,  // measure 53
0100
0001
1000
0010
0000
0010
0000
0010
,  // measure 54
0010
0100
1000
0100
0010
0100
1000
0100
,  // measure 55
0010
0100
0001
0100
0010
0100
0001
0100
,  // measure 56
0010
0100
1000
0100
0010
0100
0001
0100
,  // measure 57
0010
1000
0001
0100
1000
0100
0010
0001
,  // measure 58
1000
1000
1000
1000
,  // measure 59
0001
0001
0001
0001
,  // measure 60
1000
1000
1000
1000
,  // measure 61
0001
0001
0001
0001
,  // measure 62
0110
0000
0100
0000
0010
0000
1000
0010
,  // measure 63
1010
0000
0010
0000
1000
0000
0100
0010
,  // measure 64
0110
0000
0000
0010
0110
0000
0000
0010
,  // measure 65
1001
0110
1001
0110
,  // measure 66
1000
0000
0010
0100
0000
0001
0000
0100
0001
0000
0001
1000
0000
0100
0000
1000
,  // measure 67
0010
0000
0000
0100
0000
0000
0001
0000
1000
0000
0100
0000
0000
0100
0000
0000
,  // measure 68
0010
0000
0100
1000
0000
0010
0000
0100
0001
0000
0100
0010
0000
1000
0000
0001
,  // measure 69
0010
0000
0000
0001
0000
0000
0100
0000
0010
0000
1000
0000
0000
0001
0000
0000
,  // measure 70
0100
0000
0010
0100
0000
0001
0000
1000
0100
0000
0010
0001
0000
1000
0000
0010
,  // measure 71
1000
0000
0000
0010
0000
0100
0010
0000
0100
0000
0010
0000
0100
0000
0100
0000
,  // measure 72
0001
0000
0001
0010
0000
0001
0010
0000
0010
0000
0010
0100
0000
0100
1000
0000
,  // measure 73
0001
1000
0010
1000
1000
0001
1000
0001
,  // measure 74
1000
0000
0010
0100
0000
0010
0000
0100
0001
0000
1000
0000
0001
0000
0010
0000
,  // measure 75
0001
0000
0000
0010
0000
0000
0001
0000
0100
0000
0010
0000
0000
0100
0000
0000
,  // measure 76
0010
0000
1000
0010
0000
0100
0001
0000
0010
0000
0100
1000
0000
1000
0010
0000
,  // measure 77
0100
0000
0000
0010
0000
0000
0100
0000
0001
0000
1000
0000
0000
0001
0000
0000
,  // measure 78
0010
0000
0001
0000
1000
0000
0010
1000
0010
0000
0100
0010
0000
0010
1000
0000
,  // measure 79
0001
0000
0000
0010
0000
0000
0100
0000
1000
0000
0010
0000
0000
0100
0000
0000
,  // measure 80
0010
0100
0001
1000
0100
1000
0001
0100
,  // measure 81
0101
0000
0000
1010
0000
0000
1000
0000
1001
0000
0001
0100
0000
0000
0010
0000
,  // measure 82
2002
0000
0000
0000
,  // measure 83
0000
0000
0000
0000
,  // measure 84
3003
0000
0000
0000
;

//---------------dance-single - ----------------
#NOTES:
     dance-single:
     :
     Medium:
     7:
     0.431,0.555,0.275,0.031,0.145:
0000
0000
0000
0000
,
0000
0000
0000
0000
,
0000
0000
0000
0000
,
0000
0000
0000
0000
,
0000
0000
0000
0000
,
0000
0000
0000
0000
,
0000
0000
0000
0000
,
0000
0000
0000
0000
,
0100
0000
0010
0000
1000
0000
0001
1000
,
0001
0100
1000
0100
,
0010
0000
1000
0000
0010
0000
0100
0010
,
0100
0001
1000
0100
,
1000
0000
0010
0000
0100
0000
0001
0100
,
0010
0100
0001
1000
,
0100
0000
0100
0000
0000
0010
0000
0001
,
0000
1000
0001
0100
0000
0000
1001
0000
,
0101
0000
0000
0110
,
1001
0000
0000
1100
,
0011
0000
0000
0101
,
1010
0000
0000
1001
,
0110
0010
0100
0000
0010
1000
0001
0000
,
0001
0010
0100
0000
0100
1000
0010
0000
,
0101
1100
0101
1100
,
0001
1000
0001
1000
0001
0100
0010
1000
,
0100
0000
0000
0000
,
0100
0000
0000
1000
0000
0000
0010
0000
0100
0000
0000
0001
0000
0000
1000
0000
,
0001
1000
0010
1000
,
0100
0000
0000
0010
0000
0000
0100
0000
1000
0000
0000
0001
0000
0000
0100
0000
,
0001
0000
0100
0000
0010
1000
0010
0000
,
0100
0000
0000
0010
0000
0000
1000
0000
0001
0000
0000
0010
0000
0000
0100
0000
,
1000
1100
0001
0101
,
0001
0000
0000
0100
0000
0000
0010
0000
1000
0000
0000
0010
0000
0000
0100
0000
,
0010
0000
1000
0000
0001
0010
0100
1000
,
0001
0000
0000
1000
0000
0000
0010
0000
1000
0000
0000
0010
0000
0000
0100
0000
,
0001
0000
0010
0000
0010
0100
1000
0000
,
0001
0000
0000
1000
0000
0000
0010
0000
0100
0000
0000
0001
0000
0000
0010
0000
,
0001
0000
1100
0000
1000
0001
0100
0001
,
0010
0000
0000
0100
0000
0000
0010
0000
0001
0000
0000
0100
0000
0000
0010
0000
,
1000
0000
0000
0010
0000
0000
0100
0000
0010
0000
1000
0000
0001
0000
0010
0000
,
0100
0000
0000
0010
0000
0000
0100
0000
1000
0000
0000
0001
0000
0000
0100
0000
,
0101
0000
0000
1100
0000
0000
0010
0000
2002
0000
0000
0000
0000
0000
3003
0000
,
0001
0000
0100
0000
0010
0000
0100
0010
,
1000
0000
0010
0100
0000
0100
0000
0100
,
0010
1000
0001
1000
,
0001
0010
0100
1000
0000
1000
0000
1000
,
0100
0000
1000
0000
0010
0000
0100
0001
,
0100
0000
0100
0010
0000
1000
0000
0001
,
0010
0100
0010
0001
,
1000
0001
1000
0001
0000
0001
0000
0001
,
0100
0010
1000
0100
,
0010
0000
0100
1000
0000
0100
0000
1000
,
0010
0100
0001
1000
,
0010
0100
0001
0100
0000
0100
0000
0100
,
1000
0000
0100
0000
0010
0000
1000
0001
,
0010
0000
0100
1000
0000
0100
0000
1000
,
0100
0010
0100
1000
,
0010
0100
0001
1000
0010
0100
0001
1000
,
0010
0000
0000
0000
,
0000
0000
0000
0000
,
0100
0000
0000
0000
,
0001
0000
0000
0000
,
1001
0000
0000
0000
0000
0000
0000
0010
,
0110
0000
0000
0000
0000
0000
0000
1000
,
1001
0000
0000
0010
0110
0000
0000
0001
,
1001
0110
1001
0110
,
1000
0000
0000
0001
0000
0000
0100
0000
0010
0000
0000
1000
0000
0000
0001
0000
,
1000
0001
0100
0001
,
0010
0000
0000
0100
0000
0000
0010
0000
0001
0000
0000
1000
0000
0000
0010
0000
,
1000
0000
0010
0000
0100
0001
0100
0000
,
0010
0000
0000
0100
0000
0000
0001
0000
1000
0000
0000
0100
0000
0000
0010
0000
,
0001
0011
1000
1010
,
1000
0000
0000
0010
0000
0000
0100
0000
0001
0000
0000
0100
0000
0000
0010
0000
,
0100
0000
0001
0000
1000
0100
0010
0001
,
1000
0000
0000
0001
0000
0000
0100
0000
0001
0000
0000
0100
0000
0000
0010
0000
,
1000
0000
0100
0000
0100
0010
0001
0000
,
1000
0000
0000
0001
0000
0000
0100
0000
0010
0000
0000
1000
0000
0000
0100
0000
,
1000
0000
0011
0000
0001
1000
0010
1000
,
0100
0000
0000
0010
0000
0000
0100
0000
1000
0000
0000
0010
0000
0000
0100
0000
,
0001
0000
0000
0100
0000
0000
0010
0000
0100
0000
0001
0000
1000
0000
0100
0000
,
0010
0000
0000
0100
0000
0000
0010
0000
0001
0000
0000
1000
0000
0000
0010
0000
,
1010
0000
0000
0011
0000
0000
0100
0000
0110
0000
0000
0010
0000
0000
0001
0000
,
2002
0000
0000
0000
,
0000
0000
0000
0000
,
3003
0000
0000
0000
;

//---------------dance-single - ----------------
#NOTES:
     dance-single:
     :
     Easy:
     5:
     0.324,0.573,0.212,0.031,0.000:
0000
0000
0000
0000
,
0000
0000
0000
0000
,
0000
0000
0000
0000
,
0000
0000
0000
0000
,
0000
0000
0000
0000
,
0000
0000
0000
0000
,
0000
0000
0000
0000
,
0000
0000
0000
0000
,
0100
0100
0010
1000
,
0001
0010
0100
0100
,
0010
0010
0100
1000
,
0001
0100
0100
0100
,
0001
0100
0010
1000
,
0001
1000
1000
0001
,
0100
0100
0000
0010
,
1000
0001
0010
0100
,
1001
0000
0000
1001
,
0110
0000
0000
0101
,
1100
0000
0000
1010
,
0011
0000
0000
0011
,
1001
0000
0110
0000
,
1001
0000
0110
0000
,
1001
1001
1001
1001
,
0110
0110
0110
0110
,
1001
0000
0000
0000
,
0001
0100
1000
0100
,
0010
0010
0100
0100
,
0010
1000
0001
0010
,
0100
0100
0010
0010
,
0100
1000
0001
0100
,
0010
0010
0100
0100
,
0001
1000
0100
0010
,
0100
1000
0002
2003
,
3010
1000
0010
0100
,
0001
0001
1000
0100
,
1000
0010
0100
0001
,
1000
1000
0100
1000
,
0100
0010
0001
0010
,
1000
1000
0100
1000
,
0010
0100
0001
0010
,
0110
0010
1001
0100
,
1001
0001
1000
1000
,
0001
0001
1000
1000
,
0001
1000
0001
1000
,
0001
0001
0001
0000
,
0100
0010
0100
0010
,
0100
0100
0010
0010
,
0100
0010
0100
0010
,
0100
0100
0100
0100
,
0010
1000
0001
0010
,
0100
0100
0100
0100
,
0010
0001
1000
0010
,
0100
0100
0100
0100
,
0001
1000
0100
0010
,
0100
0100
1000
0010
,
0100
0100
0010
0010
,
1000
0001
0010
0100
,
1000
0000
0000
0000
,
0000
0000
0000
0000
,
0000
0000
0000
0000
,
0000
0000
0000
0000
,
1000
0000
0000
0000
0000
0000
0000
0001
,
1000
0000
0000
0000
0000
0000
0000
0001
,
1000
0000
0000
0001
1000
0000
0000
0001
,
1000
1000
1000
1000
,
0100
1000
0010
0100
,
0001
0001
1000
1000
,
0001
0100
0010
1000
,
0100
0010
0100
0100
,
1000
0010
0100
0001
,
0010
1000
0010
0100
,
0010
0001
0100
1000
,
0100
0010
2000
3020
,
0130
0010
1000
0001
,
0010
0010
0001
1000
,
0001
0100
0010
0100
,
0001
0001
1000
1000
,
0001
0100
0010
1000
,
0010
0010
0100
0010
,
1000
0001
1000
0100
,
0011
0100
1010
0100
,
1001
0000
0000
0000
;

//---------------dance-single - ----------------
#NOTES:
     dance-single:
     :
     Beginner:
     1:
     0.117,0.255,0.008,0.000,0.000:
0000
0000
0000
0000
,
0000
0000
0000
0000
,
0000
0000
0000
0000
,
0000
0000
0000
0000
,
0000
0000
0000
0000
,
0000
0000
0000
0000
,
0000
0000
0000
0000
,
0000
0000
0000
0000
,
0100
0000
0000
0000
,
0001
0000
0001
0000
,
1000
0000
0000
0000
,
0100
0000
0100
0000
,
0010
0000
0000
0000
,
0001
0000
0001
0000
,
1000
0000
0000
0000
,
0000
0000
0000
0000
,
0010
0000
0000
0000
,
0010
0000
0000
0000
,
0010
0000
0000
0000
,
0010
0000
0000
0000
,
0010
0000
0010
0000
,
0010
0000
0010
0000
,
0010
0010
0010
0010
,
0100
0100
0100
0100
,
0000
0000
0000
0000
,
0001
0000
0000
0000
,
1000
0000
0000
0000
,
0010
0000
0000
0000
,
1000
0000
0001
0000
,
0100
0000
0000
0000
,
0010
0000
0000
0000
,
1000
0000
0000
0000
,
0001
0000
1000
1000
,
1000
0000
0000
0000
,
0001
0000
0000
0000
,
0010
0000
0000
0000
,
0001
0000
0100
0000
,
0010
0000
0000
0000
,
0100
0000
0000
0000
,
0001
0000
0000
0000
,
1000
0000
0001
0000
,
0100
0000
0000
0000
,
0010
0000
0000
0000
,
1000
0000
0000
0000
,
0001
0000
0000
0000
,
0001
0000
0000
0000
,
0100
0000
0000
0000
,
0001
0000
0000
0000
,
1000
0000
0010
0010
,
0010
0000
0000
0000
,
0100
0000
0000
0000
,
0001
0000
0000
0000
,
0100
0000
0000
0000
,
0010
0000
0000
0000
,
1000
0000
0000
0000
,
0001
0000
1000
0000
,
0010
0010
0010
0010
,
0100
0000
0000
0000
,
0000
0000
0000
0000
,
0000
0000
0000
0000
,
0000
0000
0000
0000
,
0001
0000
0000
0000
,
1000
0000
0000
0000
,
0001
0000
1000
0000
,
0001
1000
0001
1000
,
0010
0000
0000
0000
,
0100
0000
0000
0000
,
0001
0000
0000
0000
,
1000
0000
0001
0000
,
0100
0000
0000
0000
,
0001
0000
0000
0000
,
1000
0000
0000
0000
,
0010
0000
0100
0100
,
0100
0000
0000
0000
,
0010
0000
0000
0000
,
1000
0000
0000
0000
,
0010
0000
0100
0000
,
0010
0000
0000
0000
,
0100
0000
0000
0000
,
0001
0000
1000
0000
,
0001
0100
0010
1000
,
1001
0000
0000
0000
;
