#TITLE:ULTRA BUTTERFLY (坤剛力);
#SUBTITLE:;
#ARTIST:Des-ROW・組 スペシアル;
#TITLETRANSLIT:;
#SUBTITLETRANSLIT:;
#ARTISTTRANSLIT:;
#CREDIT:;
#BANNER:bn.png;
#BACKGROUND:bg.png;
#LYRICSPATH:;
#CDTITLE:;
#MUSIC:ULTRA BUTTERFLY.mp3;
#OFFSET:-0.960;
#SAMPLESTART:16.300;
#SAMPLELENGTH:12.000;
#SELECTABLE:YES;
#BPMS:0.000=140.560,132.000=175.000;
#STOPS:132.000=0.360
;
#BGCHANGES:;

//---------------dance-single - ----------------
#NOTES:
     dance-single:
     :
     Hard:
     8:
     0.442,0.507,0.217,0.101,0.000:
0000
0000
0000
0000
,
0000
0000
0000
0000
,
0000
0000
0000
0000
,
0000
0000
0000
0000
,
0000
0000
0000
0000
,
1000
0000
0001
0100
0000
0001
0000
0000
,
0100
0000
0010
1000
0000
0010
0000
0000
,
1000
0000
0100
1000
0000
0100
0000
0000
,
1000
0000
0001
1001
0000
1001
0000
0000
,
0001
0000
0010
0001
0000
0010
0000
0000
,
0001
0000
0001
0100
0000
0010
0100
0010
,
0100
0000
0010
1000
0000
0010
0000
0000
,
1000
0000
0001
1000
0000
1000
0100
0001
,
0000
0000
0001
0000
0100
0010
0100
0000
,
0100
0000
0010
0000
0001
0010
0001
0000
,
0001
0000
0100
0000
1000
0100
0010
0000
,
0110
0010
1001
0010
,
0100
0000
0010
0000
0010
1000
0010
1000
,
0000
0100
0000
0020
0000
0000
0030
0000
,
0100
0000
1000
0000
0001
0100
0001
0100
,
0000
0100
0000
0002
0000
0000
0003
0000
,
0000
0000
0100
0000
0010
1000
0010
1000
,
0000
0010
0000
0200
0000
0000
0000
0300
,
0000
0000
0001
0000
1000
0100
1000
0100
,
0000
1000
0010
0100
0000
0100
0010
1000
,
0001
0000
1000
0000
0001
0100
1000
0100
,
0000
0010
0000
2000
0000
0000
3000
0000
,
0000
0000
1000
0000
1000
0001
0010
0001
,
0000
0010
0000
0200
0000
0000
0000
0000
,
0300
0000
0010
0000
0001
0010
0100
0010
,
0000
0100
0000
0200
0000
0000
0000
0000
,
0300
0000
0000
0000
1000
0000
0001
0100
,
0000
1000
0000
0100
0000
0020
0000
0000
,
0030
0100
0000
0010
,
0000
0001
0000
0001
,
0000
1000
0000
0001
,
0000
0100
0000
0010
,
0000
0100
0000
0010
,
0000
1000
0000
0001
,
0000
1000
0000
0100
,
0000
1000
0000
0010
,
0000
0100
0100
0100
,
0100
0001
0001
0001
,
0001
1000
1000
1000
,
1000
0010
0010
0010
,
0010
1002
1000
1000
,
1003
2001
0001
0001
,
3001
0120
0100
0100
,
0130
0210
0010
0010
,
0310
0000
0100
0010
0100
0000
0010
0000
,
1010
0000
0010
1000
0001
0000
0010
0000
,
0110
0000
0100
1000
0010
0000
0100
0000
,
0101
0000
0001
0100
0010
0000
0100
0000
,
0110
0000
0010
1000
0001
1000
0001
1000
,
0001
1000
0001
1000
0001
1000
0001
0100
,
0000
0000
0010
1000
0010
1000
0010
1000
,
0010
1000
0010
1000
0010
1000
0010
0100
,
0000
0000
0010
1000
0001
0000
0011
0000
,
1100
0000
0001
0010
0100
1000
0100
1000
,
0000
0000
0100
1000
0100
0000
0010
0000
,
0011
0000
0001
0100
0010
0100
0010
0010
,
0000
0000
0010
1000
0001
0000
1000
0000
,
1001
0000
0001
0100
1000
0100
0010
0100
,
0000
0000
0010
1000
0010
0000
0100
0000
,
0110
0000
0010
1000
0001
0010
0100
1000
,
0000
0000
0100
0010
0001
0010
0100
0001
,
0100
0010
1000
0001
0010
1000
0010
0000
,
1001
0000
0001
0100
0010
0100
0010
0100
,
0001
0010
0100
1000
0100
1000
0100
0000
,
1100
0000
1000
0100
0010
0100
0010
1000
,
0001
0010
1000
0010
0001
0010
0100
0000
,
0110
0000
0010
1000
0001
0010
0100
1000
,
0100
1000
0010
0100
0001
1000
0010
0000
,
0110
0000
0010
0000
1000
0100
0000
1000
,
0100
0010
0100
0000
0010
0100
0000
0000
,
1010
0000
0010
0000
0100
0010
0000
1000
,
0001
0010
0100
0000
1100
0000
0010
0000
,
0101
0000
1001
0000
0001
0100
0000
0100
,
0010
1000
0001
0000
0001
1000
0000
1000
,
1100
0000
1100
0000
1000
0100
0000
1000
,
0100
0010
0001
0010
0010
0001
0001
0100
,
0100
0010
2002
0000
0000
0000
3003
0000
;

//---------------dance-single - ----------------
#NOTES:
     dance-single:
     :
     Medium:
     5:
     0.342,0.444,0.140,0.078,0.000:
0000
0000
0000
0000
,
0000
0000
0000
0000
,
0000
0000
0000
0000
,
0000
0000
0000
0000
,
0000
0000
0000
0000
,
1000
0000
0000
0001
0000
0000
0000
0000
,
0100
0000
0000
0001
0000
0100
0000
0000
,
0010
0000
0000
0100
0000
0000
0000
0000
,
0010
0100
0000
0110
0000
0110
0000
0000
,
0010
1000
0010
0100
,
0010
1000
0001
1000
,
0001
1000
0100
1000
,
0010
0000
0100
0000
0001
0000
0100
0001
,
0100
0000
0001
0000
0100
0010
0100
0000
,
0010
0000
1000
0000
0001
0000
1000
0001
,
0020
0000
0030
0000
,
0100
0100
0100
0100
,
1000
0000
0010
0000
0100
0000
0001
1000
,
0000
0001
0000
2000
0000
0000
0000
0000
,
3000
0000
0001
0000
0100
0000
0010
1000
,
0000
0010
0000
2000
0000
0000
0000
0000
,
3000
0000
0010
0000
0100
0000
0001
0100
,
0000
0001
0000
0020
0000
0000
0000
0000
,
0030
0000
0100
0000
1000
0000
0100
1000
,
0000
0001
0000
1000
0000
0002
0000
0000
,
0103
0000
0001
0000
0100
0010
0100
0010
,
0000
0010
0000
0020
0000
0000
0000
0000
,
0030
0000
0100
0000
0010
1000
0010
1000
,
0000
1000
0000
2000
0000
0000
0000
0000
,
3000
0000
0001
0000
1000
0001
1000
0001
,
0000
0001
0000
0002
0000
0000
0000
0000
,
0003
0000
0000
0000
0100
0000
0001
0100
,
0000
0010
0000
1000
0000
0002
0000
0000
,
0003
1000
0000
1000
,
0000
1000
0000
1000
,
0000
0001
0000
0001
,
0000
0001
0000
0001
,
0000
0100
0000
0100
,
0000
0010
0000
0010
,
0000
0100
0000
0010
,
0000
1000
0000
0010
,
0000
1000
1000
1000
,
1000
0001
0001
0001
,
0001
0100
0100
0100
,
0100
0010
0010
0010
,
0010
1000
0010
1000
,
0010
0100
0010
0100
,
0010
0100
0001
0100
,
0001
0100
0100
0001
,
0001
1000
1001
0001
,
1001
1000
1001
0001
,
1001
1000
1001
0001
,
1001
1000
1001
0001
,
1001
0000
0001
0100
0001
0000
0100
0000
,
0010
0000
1000
0000
0010
0000
0100
0010
,
0100
0010
1000
0001
,
0010
0000
1000
0000
0010
0000
0100
1000
,
0010
0000
0100
0100
0010
0000
0100
0000
,
0010
1000
0001
0010
,
0100
0000
1000
1000
0100
0000
1000
0000
,
0010
0100
0001
1000
,
0000
0000
0001
0001
0100
0000
0001
0000
,
0100
0010
1000
0010
,
0000
0000
0100
0100
0010
0000
0100
0000
,
0010
0000
1000
0001
1000
0001
1000
0001
,
0000
1000
0100
0010
,
0001
0010
0100
1000
,
1001
0001
0010
0100
,
1000
0001
0010
0100
,
0011
0001
0100
0010
,
1000
0001
0100
0010
,
0101
0001
0001
0100
,
0100
0010
1000
0010
,
0110
0000
0010
0000
0000
1000
0000
0000
,
0001
0000
1000
0000
0000
0100
0000
0000
,
0110
0000
0010
0000
0000
0001
0000
0000
,
0001
0010
0100
0000
0110
0000
0010
0000
,
1001
0000
0001
0000
0000
0100
0000
0000
,
0010
0000
1000
0000
0000
1000
0000
0000
,
0101
0000
0001
0000
0100
0010
0000
0100
,
0010
1000
0001
0000
0001
0010
0000
0001
,
0010
0100
2000
0000
0000
0000
0000
3000
;

//---------------dance-single - ----------------
#NOTES:
     dance-single:
     :
     Easy:
     3:
     0.235,0.315,0.070,0.062,0.000:
0000
0000
0000
0000
,
0000
0000
0000
0000
,
0000
0000
0000
0000
,
0000
0000
0000
0000
,
0000
0000
0000
0000
,
0000
0000
0000
0000
,
0000
0000
0000
0000
,
0000
0000
0000
0000
,
0000
0000
0000
0000
,
0001
0000
0000
0000
,
1000
0000
0000
0010
0000
0000
0000
0000
,
1000
0000
0000
0000
,
0001
0000
0000
0100
0000
0000
0000
0000
,
0010
0000
0000
0000
,
0100
0000
0000
0100
0000
0000
0000
0000
,
0001
0000
0000
0000
,
1000
1000
0001
0001
,
0100
0001
0100
0000
,
0010
1000
0020
0000
,
0030
0100
0010
0010
,
0100
0001
1000
0000
,
0001
1000
0100
0000
,
0100
0010
0002
0000
,
0003
0000
0010
0000
0001
0000
0000
0100
,
0000
0010
0000
0100
0000
0010
0000
0000
,
0100
0100
0100
0000
,
0010
0010
0020
0000
,
1030
0000
0001
0000
1000
0000
0000
0001
,
0000
1000
0000
0002
0000
0000
0000
0000
,
0003
0100
0001
0100
,
0000
0010
1000
0010
,
0100
0100
0010
0010
,
1000
0100
0010
0001
,
0000
0002
0000
0000
,
0000
0000
0000
0000
,
0003
2000
0000
0000
,
0000
0000
0000
0000
,
3000
0020
0000
0000
,
0000
0000
0000
0000
,
0030
0200
0000
0000
,
0000
0000
0000
0000
,
0300
0010
0000
0000
,
0000
0100
0000
0000
,
0000
0010
0000
0000
,
0000
1000
0000
0000
,
0000
0001
0000
1000
,
0000
0001
0000
1000
,
0000
0010
0010
0010
,
0010
0010
0100
0010
,
0100
0010
0000
1001
,
0000
0001
0000
1010
,
0000
0010
0000
1001
,
0000
1000
0000
0011
,
0000
0001
1000
0010
,
1000
0001
0010
0100
,
0000
0100
0010
0001
,
1000
0010
1000
0010
,
0000
0100
0100
0001
,
0001
1000
0001
1000
,
0000
0100
0100
1000
,
1000
0010
0100
0010
,
0000
0100
0100
0001
,
0001
1000
0001
0010
,
0000
0100
0100
1000
,
1000
0100
1000
0010
,
0000
0100
0001
0100
,
0001
0100
0001
0100
,
0101
0010
1000
0010
,
1000
0010
1000
0010
,
1010
0010
0100
0010
,
0100
0010
0100
0010
,
0110
0001
1000
0001
,
1000
0001
1000
1001
,
0000
0001
1000
0100
,
1000
0001
0100
0001
,
1000
0100
1000
0001
,
0100
0001
0000
0000
,
0000
0001
1000
0010
,
1000
0001
0010
0001
,
1000
0010
1000
0001
,
0010
0100
1000
0100
,
0010
0011
0000
0000
;

//---------------dance-single - ----------------
#NOTES:
     dance-single:
     :
     Beginner:
     2:
     0.136,0.189,0.031,0.000,0.000: // measure 1
0000
0000
0000
0000
,  // measure 2
0000
0000
0000
0000
,  // measure 3
0000
0000
0000
0000
,  // measure 4
0000
0000
0000
0000
,  // measure 5
0000
0000
0000
0000
,  // measure 6
0000
0000
0000
0000
,  // measure 7
0000
0000
0000
0000
,  // measure 8
0000
0000
0000
0000
,  // measure 9
0000
0000
0000
0000
,  // measure 10
0010
0000
0000
0000
,  // measure 11
1000
0000
0000
0000
,  // measure 12
0001
0000
0000
0000
,  // measure 13
0100
0000
0000
0000
,  // measure 14
0001
0000
0000
0000
,  // measure 15
1000
0000
0000
0000
,  // measure 16
0001
0000
0000
0000
,  // measure 17
0100
0000
0010
0000
,  // measure 18
1000
1000
1000
0000
,  // measure 19
0001
0000
0000
0000
,  // measure 20
0100
0100
0100
0000
,  // measure 21
0010
0000
0000
0000
,  // measure 22
0100
0100
0100
0000
,  // measure 23
0001
0000
0000
0000
,  // measure 24
1000
1000
1000
0000
,  // measure 25
0100
0000
1000
0000
,  // measure 26
0010
0010
0010
0000
,  // measure 27
0100
0000
0100
0000
,  // measure 28
0001
0001
0001
0000
,  // measure 29
1000
0000
1000
0000
,  // measure 30
0001
0001
0001
0000
,  // measure 31
0100
0000
0100
0000
,  // measure 32
0010
0010
0010
0000
,  // measure 33
1000
0000
0001
0000
,  // measure 34
0000
0100
0000
0000
,  // measure 35
0000
0000
0000
0000
,  // measure 36
0000
0010
0000
0000
,  // measure 37
0000
0000
0000
0000
,  // measure 38
0000
1000
0000
0000
,  // measure 39
0000
0000
0000
0000
,  // measure 40
0000
0001
0000
0000
,  // measure 41
0000
0000
0000
0000
,  // measure 42
0000
1000
0000
0000
,  // measure 43
0000
0000
0000
0000
,  // measure 44
0000
0001
0000
0000
,  // measure 45
0000
0100
0000
0000
,  // measure 46
0000
0010
0000
0000
,  // measure 47
0000
0100
0000
0000
,  // measure 48
0000
0010
0000
1000
,  // measure 49
0000
0001
0000
1000
,  // measure 50
0000
0001
0000
0000
,  // measure 51
0000
0100
0000
0000
,  // measure 52
0000
0010
0000
0000
,  // measure 53
0000
1000
0000
0000
,  // measure 54
0000
0100
0000
0000
,  // measure 55
0000
1000
0000
0000
,  // measure 56
0000
0001
0000
0000
,  // measure 57
0000
0100
0000
0000
,  // measure 58
0000
0010
0000
0100
,  // measure 59
0000
0001
0001
0001
,  // measure 60
0000
0100
0000
0010
,  // measure 61
0000
1000
1000
1000
,  // measure 62
0000
0010
0000
0100
,  // measure 63
0000
0001
0001
0001
,  // measure 64
0000
0100
0000
0010
,  // measure 65
0000
1000
1000
1000
,  // measure 66
0000
0010
0000
0010
,  // measure 67
0000
0010
0000
0010
,  // measure 68
0110
0100
0000
0100
,  // measure 69
0000
0100
0000
0100
,  // measure 70
0110
0001
0000
0001
,  // measure 71
0000
0001
0000
0001
,  // measure 72
1001
1000
0000
1000
,  // measure 73
0000
1000
1000
1000
,  // measure 74
0000
0001
0000
0000
,  // measure 75
0000
0100
0000
0000
,  // measure 76
0010
0100
0000
0000
,  // measure 77
0010
0010
0000
0000
,  // measure 78
0000
1000
0000
0000
,  // measure 79
0000
0001
0000
0000
,  // measure 80
0000
0100
0000
0000
,  // measure 81
0000
0010
0000
1000
,  // measure 82
0000
1001
0000
0000
;
