#TITLE:Twilight Speedster;
#SUBTITLE:;
#ARTIST:Joshua Morse;
#TITLETRANSLIT:;
#SUBTITLETRANSLIT:;
#ARTISTTRANSLIT:;
#GENRE:Fusion;
#CREDIT:;
#BANNER:bn.png;
#BACKGROUND:bg.png;
#LYRICSPATH:;
#CDTITLE:;
#MUSIC:Joshua Morse Twilight Speedster.mp3;
#OFFSET:-1.337;
#SAMPLESTART:15.364;
#SAMPLELENGTH:12.000;
#SELECTABLE:YES;
#BPMS:0.000=132.000
;
#STOPS:62.000=0.227
,62.500=0.227
;
#BGCHANGES:;
#KEYSOUNDS:;
#ATTACKS:;

//---------------dance-single - ----------------
#NOTES:
     dance-single:
     :
     Hard:
     7:
     0.363,0.370,0.051,0.286,0.061,216.000,5.000,28.000,0.000,0.000,0.000,0.363,0.370,0.051,0.286,0.061,216.000,5.000,28.000,0.000,0.000,0.000:
0000
0000
0000
0000
,
0000
0000
0000
0000
,
0000
0000
0000
0000
,
0000
0000
0000
0000
,
0001
0001
0001
0001
,
0001
0000
0001
0000
0001
0000
0001
0010
,
0001
0000
0001
0000
0001
0000
0001
0100
,
0001
0000
0100
0000
1000
0000
0100
0010
,
2000
0000
0000
0100
,
0010
0000
3001
0000
0001
0100
0001
0100
,
0020
0000
0000
0000
0030
0000
0100
0001
,
0010
0000
0100
0000
0010
1000
0010
0001
,
0020
0000
0000
0130
,
0010
0000
0010
0000
0001
1000
0100
1000
,
0020
1000
1000
1000
,
0200
0000
0000
0000
0030
0300
0101
0000
,
1000
0000
0000
0000
0000
0000
0010
0000
1000
0000
0001
0000
0010
0001
0000
0100
,
0000
0100
0000
0000
0000
0000
0000
0000
0000
0000
0010
0000
1000
0000
0100
0000
,
0010
0000
0100
0010
0001
0000
0100
1000
,
0001
0100
0001
0010
0100
0000
0011
0000
,
0100
0000
0000
0000
0000
0000
0010
0000
1000
0000
0001
0000
0100
0010
0000
1000
,
0000
1000
0000
0000
0000
0000
0000
0000
0000
0000
0100
0000
0001
0000
0010
0000
,
0001
0000
0001
0100
0010
0000
0100
0010
,
1000
0001
0010
0100
1000
0000
2001
0000
,
3100
0000
0000
0000
0000
0000
0100
0000
1000
0000
0010
0000
0100
0001
0000
0010
,
0000
0010
0000
0000
0000
0000
0000
0000
0000
0000
0100
0000
0010
0000
0001
0000
,
0100
0000
0010
1000
0100
0000
1000
0001
,
0100
0001
0010
0001
1000
0000
0102
0000
,
0013
0000
0000
0000
0000
0000
0010
0000
0100
0000
1000
0000
0100
1000
0000
0100
,
0000
1000
0000
0000
0000
0000
0000
0000
0000
0000
0100
0000
0010
0000
0001
0000
,
0001
0000
0001
0100
0100
0000
0010
0100
,
0001
0100
0001
0010
0100
1000
0002
0000
,
0100
0010
2003
3002
,
0203
0000
0301
1000
0100
0010
0002
0000
,
0000
0000
0003
0000
0001
0100
0020
0000
,
0130
0000
0010
1000
0010
1000
0020
0000
,
0000
0000
0100
1000
,
0100
0000
1030
0001
0010
0100
2000
0000
,
0000
0000
0100
0020
,
0000
0000
3030
1002
,
0000
0000
2003
3200
,
2300
0000
3100
0010
0001
0010
0200
0000
,
0000
0000
0300
0000
0010
0001
0200
0000
,
0310
0000
0100
0010
1000
0010
0200
0000
,
0000
0300
0020
2030
,
3002
0000
0013
0001
0010
0100
2000
0000
,
0000
0000
0000
0002
,
0000
0000
0000
0000
0000
3003
0001
0000
,
0000
1000
0001
0000
0000
0001
0010
0000
,
0000
0010
0100
0000
0100
0000
0010
0000
,
0000
0010
0001
0000
0000
0001
0100
0000
,
0000
0100
0010
0000
1000
0000
0001
0000
;

//---------------dance-single - ----------------
#NOTES:
     dance-single:
     :
     Medium:
     5:
     0.270,0.290,0.082,0.235,0.000,154.000,8.000,23.000,0.000,0.000,0.000,0.270,0.290,0.082,0.235,0.000,154.000,8.000,23.000,0.000,0.000,0.000:
0000
0000
0000
0000
,
0000
0000
0000
0000
,
0000
0000
0000
0000
,
0000
0000
0000
0000
,
0100
0100
0100
0100
,
0100
0000
0100
0000
0100
0000
0100
0010
,
0100
0000
0100
0000
0100
0000
0100
0010
,
0100
0000
0100
0000
0100
0000
0100
0010
,
0200
0000
0000
0310
,
1000
0001
1000
0100
,
0020
0000
0000
0000
0030
0000
0100
1000
,
0020
0130
0020
1030
,
2002
0000
3003
0001
,
0100
0010
1000
0010
,
0200
0000
0000
0000
,
0002
0000
0000
0000
0300
0003
1000
0000
,
0101
0000
0000
0001
0100
0010
0100
0000
,
0010
0000
1000
0000
0001
0100
1000
0000
,
0100
0010
0010
0100
,
0001
1000
0100
0010
,
1100
0000
0000
0100
,
0100
0000
0000
0010
,
0001
0100
0001
1000
,
1000
0010
0100
0010
,
0101
0000
0001
1000
,
0010
0000
0000
1000
,
1000
0001
0001
0010
,
0100
1000
0010
0100
,
0001
0000
0000
0001
1000
0000
0100
0000
,
0010
0000
0000
0000
0000
0100
1000
0000
,
1000
0001
0001
0100
,
0010
1000
0001
0220
,
0000
0330
0010
0001
,
0100
0000
0010
1000
0010
1000
0020
0000
,
0000
0000
0030
0000
1000
0001
1000
0000
,
0100
0010
0001
0022
,
0000
0033
0001
0100
,
0010
0000
0100
0000
0010
2000
0002
0000
,
0000
0000
3000
0200
,
0000
0000
0000
0000
0000
0303
0202
0000
,
0000
0303
0001
0100
,
1000
0100
0010
2000
,
0000
0000
3000
0000
0100
1000
0010
0000
,
0010
0100
0100
2002
,
0000
3003
0001
1000
,
0010
0100
0010
2000
,
0000
0000
0000
0200
,
0000
0000
3300
1000
,
0000
0001
0000
0010
,
0000
0100
0100
0010
,
0000
0001
0000
1000
,
0000
0010
0010
1000
;

//---------------dance-single - ----------------
#NOTES:
     dance-single:
     :
     Easy:
     3:
     0.224,0.305,0.092,0.153,0.000,130.000,9.000,15.000,0.000,0.000,0.000,0.224,0.305,0.092,0.153,0.000,130.000,9.000,15.000,0.000,0.000,0.000:
0000
0000
0000
0000
,
0000
0000
0000
0000
,
0000
0000
0000
0000
,
0000
0000
0000
0000
,
0001
1000
0001
1000
,
0001
1000
1000
0001
,
1000
0001
1000
0001
,
1000
0001
0011
1100
,
0020
0000
0000
0130
,
0001
0010
0001
1000
,
0200
0000
0300
0010
,
0001
1000
0001
0100
,
0020
0000
0000
0130
,
0001
1000
0100
0020
,
0002
0000
0000
0000
,
0000
0000
0000
0000
0003
0030
0001
0000
,
0101
0000
0100
0010
,
1000
0010
1000
0100
,
0000
0010
0000
0100
,
0100
0010
0010
0001
,
1001
0000
0001
0100
,
1000
0000
0000
0100
,
0000
0010
0000
0100
,
0010
1000
0001
0010
,
0011
0000
0001
0100
,
0010
0000
0000
0100
,
0010
1000
0001
0010
,
0001
1000
1000
0001
,
0010
0000
0000
0010
,
0100
0000
0000
0100
,
0010
0001
1000
0001
,
0100
0110
1001
1200
,
0000
0000
1000
1000
,
1300
0001
0100
0020
,
0000
0000
0130
0001
,
1000
0100
0010
0021
,
0000
0000
0001
0001
,
0031
0010
0100
0002
,
0000
0000
0000
0200
,
0000
0000
0303
0200
,
0000
0000
0010
0310
,
1000
0010
0100
0002
,
0000
0000
1000
1003
,
0001
0010
0001
0200
,
0000
0000
0010
0310
,
1000
0100
0010
0002
,
0000
0000
0000
2000
,
0000
0000
3003
1000
,
0000
0001
0000
0100
,
0000
0010
0010
0100
;

//---------------dance-single - ----------------
#NOTES:
     dance-single:
     :
     Beginner:
     1:
     0.067,0.102,0.020,0.000,0.000,44.000,2.000,0.000,0.000,0.000,0.000,0.067,0.102,0.020,0.000,0.000,44.000,2.000,0.000,0.000,0.000,0.000: // measure 0
0000
0000
0000
0000
,  // measure 1
0000
0000
0000
0000
,  // measure 2
0000
0000
0000
0000
,  // measure 3
0000
0000
0000
0000
,  // measure 4
1000
0000
0000
0000
,  // measure 5
0000
0000
0000
0000
,  // measure 6
0001
0000
0000
0000
,  // measure 7
0000
0000
0000
0000
,  // measure 8
0100
0000
0000
0000
,  // measure 9
0010
0000
0000
0000
,  // measure 10
0100
0000
0000
0000
,  // measure 11
0001
0000
0000
0000
,  // measure 12
1000
0000
0000
0000
,  // measure 13
0001
0000
0000
0000
,  // measure 14
0100
0000
0000
0000
,  // measure 15
0010
0000
0000
0100
,  // measure 16
0000
0000
0000
0010
,  // measure 17
0000
0000
0000
0000
,  // measure 18
0000
0000
0000
0000
,  // measure 19
0000
0000
0000
1000
,  // measure 20
0000
0000
0000
0001
,  // measure 21
0000
0000
0000
0010
,  // measure 22
0000
0000
0000
0000
,  // measure 23
0000
0000
0000
0001
,  // measure 24
0000
0000
0000
1000
,  // measure 25
0000
0000
0000
0100
,  // measure 26
0000
0000
0000
0000
,  // measure 27
0000
0000
0000
1000
,  // measure 28
0000
0000
0000
0010
,  // measure 29
0000
0000
0000
0100
,  // measure 30
0000
0000
0000
0001
,  // measure 31
0000
1000
0000
0110
,  // measure 32
0000
0000
0000
0010
,  // measure 33
0000
0000
0000
1000
,  // measure 34
0000
0000
0000
0001
,  // measure 35
0000
0000
0000
0100
,  // measure 36
0000
0000
0000
0010
,  // measure 37
0000
0000
0000
1000
,  // measure 38
0000
0000
0000
0001
,  // measure 39
0000
0000
0000
1000
,  // measure 40
0000
0000
0000
0001
,  // measure 41
0000
0000
0000
0100
,  // measure 42
0000
0000
0000
0010
,  // measure 43
0000
0010
0000
0010
,  // measure 44
0000
0000
0000
0010
,  // measure 45
0000
1000
1000
1000
,  // measure 46
0000
0000
0000
1001
,  // measure 47
0000
0000
0000
0001
,  // measure 48
0000
0000
0000
0000
,  // measure 49
0000
0000
0000
1000
;
