#TITLE:The Zoo Zone;
#SUBTITLE:;
#ARTIST:Mystic Moon;
#TITLETRANSLIT:;
#SUBTITLETRANSLIT:;
#ARTISTTRANSLIT:;
#GENRE:;
#CREDIT:;
#BANNER:bn.png;
#BACKGROUND:bg2.png;
#LYRICSPATH:;
#CDTITLE:;
#MUSIC:04 - Mystic Moon - The Zoo Zone.mp3;
#OFFSET:-0.959;
#SAMPLESTART:15.020;
#SAMPLELENGTH:12.000;
#SELECTABLE:YES;
#BPMS:0.000=160.000
;
#STOPS:95.500=0.187,
96.000=0.188,
96.500=0.188,
97.000=0.188,
229.500=0.188,
230.000=0.188,
230.500=0.188,
231.000=0.188
;
#BGCHANGES:;
#KEYSOUNDS:;
#ATTACKS:;

//---------------dance-single - ----------------
#NOTES:
     dance-single:
     :
     Hard:
     8:
     0.446,0.520,0.037,0.083,0.139,324.000,4.000,9.000,0.000,0.000,0.000,0.446,0.520,0.037,0.083,0.139,324.000,4.000,9.000,0.000,0.000,0.000: // measure 0
0000
0000
0000
0000
,  // measure 1
0000
0000
0000
0000
,  // measure 2
0000
0000
0000
0000
,  // measure 3
0000
0000
0000
0000
,  // measure 4
1000
0100
1000
0010
,  // measure 5
0100
0001
0010
0001
,  // measure 6
0100
0010
1000
0100
,  // measure 7
1000
0001
0100
0001
0010
0100
1000
0100
,  // measure 8
0000
0000
0000
0000
,  // measure 9
0000
0000
0100
0000
0010
0000
0001
0000
1000
0000
0000
1000
0000
0000
1000
0000
,  // measure 10
0000
0010
0100
0000
0010
0000
1000
0000
,  // measure 11
0000
0100
0010
0000
0001
0000
0010
0000
,  // measure 12
0000
0001
0100
0000
0100
0000
0010
0000
,  // measure 13
0000
0000
0100
0000
0010
0000
0100
0000
0001
0000
0000
0001
0000
0000
0001
0000
,  // measure 14
0000
1000
0100
0000
1000
0000
0100
0000
,  // measure 15
0000
0010
0100
0000
0010
0000
0001
0000
,  // measure 16
0000
0001
0100
0000
0010
0000
1000
0000
,  // measure 17
1000
0000
0001
0000
0001
0100
1000
0100
,  // measure 18
0000
0100
0010
0000
1000
0000
0001
0000
,  // measure 19
0000
0001
0010
0000
0001
0000
0100
0000
,  // measure 20
0000
0010
1000
0000
0001
0000
0010
0000
,  // measure 21
0001
0000
0100
0000
0100
1000
0100
0010
,  // measure 22
0000
0010
1000
0000
0001
0000
0010
0000
,  // measure 23
0000
0001
0010
0000
0100
0000
1000
0001
,  // measure 24
1000
0001
1000
0010
0100
0000
0010
0000
,  // measure 25
1000
0001
0010
0001
0000
0001
0100
0000
,  // measure 26
0010
1000
0010
0100
0000
0010
1000
0000
,  // measure 27
0100
1000
0100
0010
0000
0010
0001
0000
,  // measure 28
0001
0010
0100
1000
0001
0100
0010
0000
,  // measure 29
0100
0000
0000
0100
0000
0000
0010
0000
0000
0000
0100
0000
0001
0000
0000
0000
,  // measure 30
1000
0000
0000
1000
0000
0000
1000
0000
0001
0000
0000
0001
0000
0000
0001
0000
,  // measure 31
1000
0000
0000
1000
0000
0000
1000
0000
0100
0000
1000
0000
0010
0000
0100
0000
,  // measure 32
0001
0010
0100
1000
2002
0000
0000
0000
,  // measure 33
0000
0000
0000
0000
3003
0000
0001
0100
,  // measure 34
0010
0000
0000
0010
0000
0000
0100
0000
0100
0000
0000
0000
0020
0000
0000
0000
,  // measure 35
1030
0001
1000
0000
1000
0000
1000
0100
,  // measure 36
0000
0010
0001
0000
0101
0000
0100
0020
,  // measure 37
0000
0000
1000
0000
1030
0000
0010
0000
1000
0000
0000
0001
0000
0000
1000
0000
,  // measure 38
0001
0000
0000
0000
0100
0100
0000
0000
0010
0000
1000
0000
0010
0000
0200
0000
,  // measure 39
0000
0000
0301
0000
1000
0000
0100
0000
1000
0000
0000
0010
0000
0000
0100
0000
,  // measure 40
0202
0000
0000
0000
0000
0000
0303
0000
0000
0020
0000
0000
0000
0000
0000
0100
0000
0000
0130
0000
0010
0000
0100
0000
,  // measure 41
0010
0000
0000
1000
0000
0000
0000
0000
0000
0100
0000
0000
0000
0000
0000
0100
0000
0000
0010
0000
0001
0000
0010
0000
,  // measure 42
0001
0000
0000
0010
0000
0000
0000
0000
0000
0100
0000
0000
0000
0000
0000
1000
0000
0000
0010
0000
0100
0000
0010
0000
,  // measure 43
0100
0000
0000
0010
0000
0000
0000
0000
0000
1000
0000
0000
0000
0000
0000
1000
0000
0000
0001
0000
0100
0000
0001
0000
,  // measure 44
0100
0010
0000
0010
0100
0001
0010
0000
,  // measure 45
0010
0100
0000
0100
1000
0000
1000
0010
,  // measure 46
0000
0100
0001
0000
0100
0010
1000
0000
,  // measure 47
1000
0100
0010
0000
0010
0001
0100
1000
,  // measure 48
0100
0010
1000
0001
0020
0000
0000
0000
,  // measure 49
0000
0000
0000
0000
,  // measure 50
0030
0000
0000
0000
0001
0100
1000
0100
,  // measure 51
0010
0000
0000
1000
0000
0000
0100
0000
0000
0000
0100
0000
0010
0000
0010
0000
,  // measure 52
0010
0000
0000
0001
0000
0000
0100
0000
0010
0000
0000
0000
0010
0000
0000
0000
,  // measure 53
0100
0100
0001
0001
,  // measure 54
1000
0000
1000
0000
0000
0001
0100
0001
,  // measure 55
0010
0000
0000
0010
0000
0000
0100
0000
0000
0000
0100
0000
1000
0000
1000
0000
,  // measure 56
1000
0000
0000
0100
0000
0000
1000
0000
0010
0000
0000
0000
0010
0000
0000
0000
,  // measure 57
0100
0000
0100
0001
0001
0001
0001
0000
,  // measure 58
1000
0000
1000
0000
0001
0000
0010
0000
0100
0000
0000
0100
0000
0000
0100
0000
,  // measure 59
0000
0000
1000
0000
0001
0000
0001
0000
0001
0000
0000
0100
0000
0000
0010
0000
,  // measure 60
0000
0000
1000
0000
0010
0000
1000
0000
0010
0100
0000
0001
0000
0000
1000
0000
,  // measure 61
0000
0100
0100
0100
,  // measure 62
0100
0000
0010
0000
0001
0000
1000
0000
0001
0000
0000
0001
0000
0000
0001
0000
,  // measure 63
0000
0000
0001
0000
0100
0000
0100
0000
0010
0000
0000
1000
0000
0000
0010
0000
,  // measure 64
0000
0000
0100
0000
0010
0000
1000
0000
0001
0000
0000
1000
0000
0000
0100
0000
,  // measure 65
0000
0000
0000
0000
0010
0000
0000
0000
0001
0000
0000
0100
0000
0000
0010
0000
,  // measure 66
1001
0000
0000
0000
;

//---------------dance-single - ----------------
#NOTES:
     dance-single:
     :
     Medium:
     5:
     0.343,0.398,0.037,0.056,0.000,249.000,4.000,6.000,0.000,0.000,0.000,0.343,0.398,0.037,0.056,0.000,249.000,4.000,6.000,0.000,0.000,0.000:
0000
0000
0000
0000
,
0000
0000
0000
0000
,
0000
0000
0000
0000
,
0000
0000
0000
0000
,
0001
0001
1000
1000
,
0010
0100
0001
1000
,
0100
0010
0001
0010
,
0100
1000
0010
0000
0100
0001
1000
0000
,
0100
0000
0000
0000
,
0100
0010
0001
1000
,
0000
0001
0100
0000
0010
0000
1000
0000
,
0000
0010
0100
0000
0010
0000
1000
0000
,
0000
1000
0100
0000
0010
0000
0001
0000
,
0100
1000
0100
0010
,
0000
0010
1000
0000
0100
0000
0010
0000
,
0000
0100
1000
0000
0001
0000
0100
0000
,
0000
0001
0100
0000
0010
0000
1000
0000
,
0001
0001
1000
0010
,
0000
0100
0010
0000
1000
0000
0100
0000
,
0000
0100
0010
0000
0010
0000
0001
0000
,
0000
0001
0100
0000
0010
0000
1000
0000
,
0001
0010
0001
0100
,
0000
0100
0010
0000
1000
0000
0100
0000
,
0000
0100
0010
0000
0001
0000
1000
0001
,
1000
0001
1000
0000
0000
1000
0000
0100
,
0000
0100
0010
0100
0000
0010
0000
0001
,
0000
0001
0100
1000
0000
0100
0000
0010
,
0000
0010
1000
0100
0000
0100
0010
0001
,
0000
0001
0010
1000
0000
0010
0000
0001
,
0000
0100
0010
1000
0000
0001
0000
0100
,
0000
0100
0010
1000
1100
0000
0100
0000
,
0110
0000
0001
0000
0001
0100
0010
1000
,
0001
0100
0010
1000
0200
0000
0000
0000
,
0000
0000
0000
0000
,
1300
0000
1000
0002
,
0000
0000
0103
0000
,
0100
0000
0010
0200
,
0020
0000
0000
0000
,
0330
0000
0001
1000
,
0000
0001
0100
0000
,
0100
0000
0010
1000
,
0010
0000
0100
0001
0000
0001
1000
0000
,
0100
0000
0010
0001
0000
0001
0100
0000
,
0010
0000
1000
0010
0000
0100
0001
0000
,
0010
0000
0010
0100
0000
0100
1000
0000
,
1000
0100
0000
0100
0010
0000
0010
0001
,
0000
0001
0100
0010
0100
0000
0010
0000
,
1000
0001
0001
0010
,
0100
1000
2002
0000
,
0000
0000
0000
0000
,
3003
0000
0001
1000
,
0010
0000
0100
0000
0000
0001
0100
0001
,
0100
0010
1000
1000
,
0001
0001
0010
0010
,
0100
0100
0010
0001
,
0100
0000
0010
0000
0000
1000
0100
1000
,
0100
0100
0010
0001
,
1000
0000
0001
1000
0001
1000
0001
0000
,
0001
0100
0010
0010
,
0100
0010
1000
0001
,
1000
0100
0010
0100
,
1000
0001
0100
0010
,
1000
0010
0100
0001
1000
0000
1000
0000
,
0001
0100
1000
0100
,
0100
0010
0010
0100
,
0001
1000
0100
0010
,
0011
0000
0000
0000
;

//---------------dance-single - ----------------
#NOTES:
     dance-single:
     :
     Easy:
     3:
     0.216,0.245,0.037,0.074,0.000,151.000,4.000,8.000,0.000,0.000,0.000,0.216,0.245,0.037,0.074,0.000,151.000,4.000,8.000,0.000,0.000,0.000:
0000
0000
0000
0000
,
0000
0000
0000
0000
,
0000
0000
0000
0000
,
0000
0000
0000
0000
,
0001
0000
1000
0000
,
0010
0000
1000
0000
,
0010
0100
0010
1000
,
0001
0001
1000
1000
,
0000
0000
0000
0000
,
0000
0001
0100
0100
,
0000
0010
0000
0100
,
0000
0010
0000
0100
,
0000
0010
0000
0100
,
0001
1000
0100
0100
,
1000
0000
1000
0000
,
0001
0000
0001
0000
,
0100
0000
0010
0000
,
0100
0010
1000
0000
,
0001
0000
0001
0000
,
1000
0000
1000
0000
,
0010
0000
0100
0000
,
0010
0010
1000
0000
,
0001
0000
1000
0000
,
0100
0000
0010
0000
,
0000
0000
0001
1000
,
0100
0000
0100
1000
,
0010
0000
0100
0001
,
0010
0000
0010
0001
,
0100
0010
1000
0001
,
0100
0000
0001
0010
,
0001
0000
0100
0000
,
0010
0000
1000
0001
,
1000
0001
2002
0000
,
0000
0000
0000
0000
,
3000
0003
0000
0200
,
0010
0310
0010
0000
,
0100
0000
0220
0000
,
0000
0000
0300
0000
,
0030
0000
0010
0000
,
1000
0000
0001
0000
,
1000
0000
0001
0100
,
0010
0000
0000
0010
,
0010
0000
0000
1000
,
1000
0000
0000
0100
,
0100
0000
0010
0000
,
0001
0000
0100
0000
,
0010
0000
1000
1000
,
0001
0001
0100
0010
,
1000
0001
0220
0000
,
0000
0000
0000
0000
,
0330
0000
0001
1000
,
0100
0100
1000
0000
,
0000
0000
0001
1000
,
0001
1000
0010
0100
,
0010
0100
0001
0010
,
0100
0100
0000
0000
,
0000
0000
0010
0001
,
1000
0001
0000
0000
,
1000
0001
0100
0100
,
0000
0001
1000
1000
,
0000
0100
1000
1000
,
0000
0100
1000
0010
,
0200
0000
0310
0000
,
0100
0001
1000
0000
,
0001
0000
1000
0000
,
0010
1000
0010
0100
,
0101
0000
0000
0000
;

//---------------dance-single - ----------------
#NOTES:
     dance-single:
     :
     Beginner:
     1:
     0.122,0.184,0.028,0.037,0.000,85.000,3.000,4.000,0.000,0.000,0.000,0.122,0.184,0.028,0.037,0.000,85.000,3.000,4.000,0.000,0.000,0.000:
0000
0000
0000
0000
,
0000
0000
0000
0000
,
0000
0000
0000
0000
,
0000
0000
0000
0000
,
1000
0000
0000
0000
,
0001
0000
0000
0000
,
1000
0000
0000
0000
,
0010
0000
0000
0000
,
0000
0000
0000
0000
,
0100
0000
0000
0000
,
0010
0000
0000
0000
,
0010
0000
0000
0000
,
0010
0000
0000
0000
,
1000
0000
0000
0000
,
0001
0000
0000
0000
,
0001
0000
0000
0000
,
0001
0000
0001
0000
,
0001
0000
0000
0000
,
0100
0000
0000
0000
,
0100
0000
0000
0000
,
0100
0000
0000
0000
,
0010
0010
0010
0000
,
1000
0000
0000
0000
,
1000
0000
0000
0000
,
0000
0000
1000
0000
,
0000
0000
0001
0000
,
0000
0000
0100
0000
,
0000
0000
0010
0000
,
0010
0000
0010
0000
,
0000
0000
1000
0000
,
0000
0000
0001
0000
,
1000
0000
0001
1000
,
0001
1000
2002
0000
,
0000
0000
0000
0000
,
0003
3000
0000
0010
,
0000
0000
0100
0000
,
0100
0000
1001
0000
,
0000
0000
0010
0000
,
0010
0000
0100
0000
,
0000
0000
0001
0000
,
2000
0000
3000
0001
,
0000
0000
0000
1000
,
0000
0000
0000
0010
,
0000
0000
0000
0100
,
0000
0000
0000
0010
,
0000
0000
1000
0000
,
0000
0001
0000
1000
,
0000
1000
0001
0001
,
0001
0001
2000
0000
,
0000
0000
0000
0000
,
3000
0000
0001
0000
,
0000
0000
0100
0000
,
0100
0000
0010
0000
,
0000
0000
1000
0000
,
0000
0000
0100
0000
,
0100
0000
0000
0010
,
0000
0000
0001
0000
,
0000
0000
0000
0000
,
1000
1000
1000
0000
,
0000
0001
0001
0001
,
0000
0100
0100
0100
,
0000
0000
0000
0000
,
0010
0010
0010
0000
,
1000
0000
0000
0000
,
0001
0000
0000
0000
,
0010
0000
0001
0000
,
0110
0000
0000
0000
;
