#TITLE:The Wind of Gold;
#SUBTITLE:;
#ARTIST:kors k;
#TITLETRANSLIT:;
#SUBTITLETRANSLIT:;
#ARTISTTRANSLIT:;
#CREDIT:;
#BANNER:bn.png;
#BACKGROUND:bg.png;
#LYRICSPATH:;
#CDTITLE:;
#MUSIC:09 - The Wind of Gold.mp3;
#OFFSET:-5.967;
#SAMPLESTART:11.580;
#SAMPLELENGTH:12.000;
#SELECTABLE:YES;
#BPMS:0.000=170.000;
#STOPS:;
#BGCHANGES:;

//---------------dance-single - Pandemonium X----------------
#NOTES:
     dance-single:
     Pandemonium X:
     Hard:
     8:
     0.503,0.598,0.306,0.194,0.380:
1000
0100
0010
0001
,
1000
0001
0100
0010
,
1000
0010
1000
0010
1000
0001
0010
0100
,
1000
0100
0020
0000
0130
1000
0002
0000
,
0103
0000
0000
0100
0000
0000
0100
0000
0000
0000
0001
0000
0000
0000
0000
0000
,
1000
0000
0000
0100
0000
0000
1000
0000
0000
0010
0000
0000
0100
0000
0000
0000
,
0001
0000
0000
0100
0000
0000
0010
0000
0000
0100
0000
0000
0101
0000
0000
0000
,
0010
0000
0000
1000
0000
0000
0100
0000
0000
1000
0000
0000
1010
0000
0000
0000
,
0100
0000
0000
0100
0000
0000
0010
0000
0000
0000
1000
0000
0000
0000
0000
0000
,
0001
0000
0000
0100
0000
0000
1000
0000
0000
0100
0000
0000
0010
0000
0000
0000
,
0010
0000
0000
1000
0000
0000
0100
0000
0000
1000
0000
0000
1010
0000
0000
0000
,
1000
0000
0000
0001
0000
0000
0010
0000
0000
0100
0000
0000
0110
0000
0000
0000
,
0010
0000
0000
0001
0000
0000
0100
0000
0000
0000
0010
0000
0000
0000
0000
0000
,
0100
0000
0000
0001
0000
0000
1000
0000
0000
0100
0000
0000
0010
0000
0000
0000
,
2100
0000
0000
0100
0000
0000
0100
0000
0000
3100
0000
0000
1100
0000
0000
0000
,
1002
0000
0000
1000
0000
0000
1000
0000
0000
1003
0000
0000
1001
0000
0000
0000
,
0101
0000
0000
0101
0000
0000
0101
0000
0000
0000
0010
0000
0200
0000
0300
0000
,
0110
0000
0000
1001
0000
0000
0110
0000
0000
0000
0010
0000
0200
0000
0000
0000
,
0301
0000
0000
1000
0000
0000
0100
0000
0000
0010
0000
0000
0100
0000
0000
0000
,
1000
0000
0000
0100
0000
0000
0001
0000
0000
0100
0000
0000
0010
0000
0000
0000
,
1001
0000
0000
0000
,
0000
0000
0000
0000
,
0100
0000
0100
0010
0000
0000
0000
0000
,
0000
0100
0001
0100
1000
0000
0100
0000
,
0010
0000
0000
0000
,
0000
0000
0000
0000
,
0010
0000
0100
0001
0000
0000
0000
0000
,
0000
0000
0000
1000
0000
0001
0000
0001
,
1000
1000
0001
0001
,
1000
1000
0001
0001
,
1000
0001
1000
0001
,
1000
0001
1000
0001
,
0100
0100
0010
0010
,
0100
0100
0010
0010
,
0100
0010
1000
0001
,
0002
0103
0020
0130
,
1002
0000
0000
0000
0013
0000
0000
0001
0000
0100
0000
0000
0010
0000
1000
0000
,
2100
0000
0000
0000
3100
0000
0000
0010
0000
0001
0000
0000
1000
0000
0001
0000
,
0201
0000
0000
0000
0310
0000
0000
0100
0000
0100
0000
0000
0010
0000
1000
0000
,
0000
0000
1000
0000
0000
0001
0000
0000
0010
0000
0001
0000
0100
0000
0010
0000
,
0010
2000
0000
0000
0000
0000
0000
0000
0000
0000
0000
0000
0000
0000
0000
0000
0000
0000
0000
0000
0000
0000
0000
0000
0000
0000
0000
0000
0000
0000
0000
0000
0000
0000
0000
0000
0000
0000
0000
0000
0000
0000
0000
0000
0000
0000
0000
0000
3010
0000
0000
0000
0000
0000
0000
0000
0000
0000
0000
0000
0000
0000
0000
0000
0000
0000
0000
0000
0000
0000
0000
0000
0000
0000
0000
0000
0000
0000
0000
0000
0000
0000
0000
0000
0010
0000
0000
0000
0000
0000
0000
0000
0000
0000
0000
0000
0000
0000
0000
0000
0000
0000
0000
0000
0000
0000
0000
0000
1000
0000
0000
0000
0000
0000
0000
0000
0000
0000
0000
0000
0000
0000
0000
0000
0000
0000
0000
0000
0000
0000
0000
0000
0000
0000
0000
0000
0000
0000
0000
0000
0000
0000
0000
0000
0100
0000
0000
0000
0000
0000
0000
0000
0000
0000
0000
0000
0000
0000
0000
0000
0000
0000
0000
0000
0000
0000
0000
0000
0010
0000
0000
0000
0000
0000
0000
0000
0000
0000
0000
0000
0000
0000
0000
0000
0000
0000
0000
0000
0000
0000
0000
0000
,
0012
0000
0000
0000
0013
0000
0000
0001
0000
0100
0000
0000
0010
0000
1000
0000
,
2010
0000
0000
0000
3010
0000
0000
0100
0000
0001
0000
0000
1000
0000
0001
0000
,
0000
0000
0010
0000
0100
0000
0000
0010
0000
0001
0000
1000
0001
0000
0100
0000
,
0201
0000
0000
0000
0310
0000
0000
0100
0000
0001
0000
0000
1000
0000
0100
0000
,
0210
0000
0000
0000
0310
0000
0000
0010
0000
0010
0000
0000
0100
0000
0010
0000
,
0021
0000
0000
0000
0130
0000
0000
0010
0000
0001
0000
0000
0100
0000
0001
0000
,
0000
0000
0001
0000
0000
0100
0000
0000
0010
0000
1000
0000
0001
0000
1000
0000
,
2100
0000
0000
0000
3001
0000
0000
1000
0000
0010
0000
0000
0100
0000
0001
0000
,
0021
0000
0000
0000
0130
0000
0000
0100
0000
1000
0000
0000
0100
0000
0010
0000
,
1002
0000
0000
0000
0103
0000
0000
0001
0000
1000
0000
0000
0100
0000
0010
0000
,
0000
0000
0001
0000
0010
0000
0000
0001
1000
0000
0100
0000
0010
0000
0001
0000
,
1000
0001
1000
0001
0000
0100
0000
0000
,
0010
0000
0000
1000
0000
0000
0010
0000
0000
0100
0000
0000
0001
0000
0000
0000
,
0001
0000
0000
0100
0000
0000
0010
0000
0000
0100
0000
0000
0101
0000
0000
0000
,
0001
0000
0000
1000
0000
0000
0100
0000
0000
1000
0000
0000
1010
0000
0000
0000
,
0010
1000
0010
0100
0000
0010
0000
0000
,
1000
0000
0000
0001
0000
0000
0010
0000
0000
0100
0000
0000
1000
0000
0000
0000
,
0100
0000
0000
1000
0000
0000
0010
0000
0000
0100
0000
0000
0101
0000
0000
0000
,
0001
0000
0000
0100
0000
0000
1000
0000
0000
0100
0000
0000
0110
0000
0000
0000
,
0010
1000
0001
1000
0000
1000
0000
0000
,
1000
0000
0000
0100
0000
0000
0010
0000
0000
0001
0000
0000
0010
0000
0000
0000
,
0001
0000
0000
0100
0000
0000
0010
0000
0000
1000
0000
0000
1001
0000
0000
0000
,
0001
0000
0000
0100
0000
0000
1000
0000
0000
0100
0000
0000
0110
0000
0000
0000
,
0010
1000
0010
1000
0000
0001
0000
0000
,
1000
0000
0000
1000
0000
0000
0001
0000
0000
0001
0000
0000
0100
0000
0000
0000
,
0001
0000
0000
0100
0000
0000
1000
0000
0000
0100
0000
0000
0110
0000
0000
0000
,
0010
0000
0000
0001
0000
0000
0010
0000
0000
1000
0000
0000
0020
0000
0000
0000
,
0030
0000
0000
0000
;

//---------------dance-single - Pandemonium X----------------
#NOTES:
     dance-single:
     Pandemonium X:
     Medium:
     6:
     0.403,0.378,0.065,0.111,0.130:
1000
0100
0010
0100
,
1000
0001
0100
1000
,
0100
0010
1000
0001
,
0020
0130
0200
0310
,
0010
0001
0100
1000
,
0100
0110
0010
0110
,
0020
1000
1000
1030
,
2000
0100
0100
3100
,
1000
0001
0010
0100
,
0110
0100
0110
0010
,
0002
0100
0100
0103
,
0200
0010
0010
0310
,
0010
1000
0001
0010
,
0110
0100
0110
0010
,
0200
1000
1000
1300
,
2000
0001
0001
3001
,
0001
0000
0000
1000
0000
0000
0001
0000
0000
0000
0100
0000
0000
0000
0000
0000
,
0010
0000
0000
0100
0000
0000
0010
0000
0000
0000
0100
0000
0000
0000
0000
0000
,
0010
0000
0000
1000
0000
0000
0001
0000
0000
0010
0000
0000
0100
0000
0000
0000
,
0100
0000
0000
0010
0000
0000
0001
0000
0000
1000
0000
0000
0010
0000
0000
0000
,
0220
0000
0000
0000
,
0330
0000
0000
0000
,
0100
0000
0100
0001
0000
0000
0000
0000
,
0000
0001
0100
0001
0100
0000
0010
0000
,
1000
0000
0000
0000
,
0000
0000
0000
0000
,
1000
0000
1000
0100
0000
0000
0000
0000
,
0000
0000
0000
0100
0000
0010
0000
0001
,
1000
0001
1000
0001
,
1000
0010
1000
0010
,
0100
0010
0100
0010
,
0100
0001
0100
0001
,
0001
0100
1000
0100
,
0001
0010
1000
0010
,
0001
0100
1000
0100
,
0020
0000
0000
0030
,
0100
0000
0010
0000
1000
0000
0010
1000
,
0010
0000
1000
0000
0001
0000
0010
0100
,
0010
0000
0001
0000
0100
0000
1000
0100
,
1000
0000
0010
0000
0100
0010
0100
0010
,
0100
0000
0010
0000
1000
0000
0001
1000
,
0001
0000
0100
0000
0010
0000
1000
0100
,
1000
0100
0010
0001
,
0001
0000
0100
0000
0010
0100
0010
0100
,
0001
0000
1000
0000
0001
0000
0001
0100
,
0010
0000
0100
0000
0010
0000
1000
0010
,
0100
0000
0010
0000
1000
0000
0001
0010
,
0100
0000
1000
0000
0100
1000
0100
0010
,
0001
0000
1000
0000
0010
0000
0100
0001
,
0010
0000
0100
0000
1000
0000
0100
1000
,
0010
0000
0100
0000
0001
0000
1000
0001
,
0000
0100
0001
0000
0001
0010
0100
1000
,
0001
1000
0000
1000
0000
1000
0000
0000
,
0001
0000
0000
0100
0000
0000
0001
0000
0000
0100
0000
0000
0001
0000
0000
0000
,
0100
0000
0000
0010
0000
0000
0100
0000
0000
0010
0000
0000
0100
0000
0000
0000
,
0010
0000
0000
1000
0000
0000
0010
0000
0000
1000
0000
0000
0010
0000
0000
0000
,
0100
0001
0000
0001
0000
0001
0000
0000
,
1000
0000
0000
0001
0000
0000
1000
0000
0000
0001
0000
0000
1000
0000
0000
0000
,
0010
0000
0000
1000
0000
0000
0010
0000
0000
1000
0000
0000
0010
0000
0000
0000
,
0100
0000
0000
0010
0000
0000
0100
0000
0000
0010
0000
0000
0100
0000
0000
0000
,
0010
1000
0000
1000
0000
1000
0000
0000
,
0001
0000
0000
1000
0000
0000
0001
0000
0000
1000
0000
0000
0001
0000
0000
0000
,
0100
0000
0000
0001
0000
0000
0000
0100
0000
0000
0001
0000
0100
0000
0000
0000
,
0100
0000
0000
0010
0000
0000
0100
0000
0000
0010
0000
0000
0100
0000
0000
0000
,
0010
1000
0000
1000
0000
1000
0000
0000
,
0001
0000
0000
1000
0000
0000
0001
0000
0000
1000
0000
0000
0001
0000
0000
0000
,
1000
0000
0000
0100
0000
0000
0010
0000
0000
0000
0001
0000
0010
0000
0000
0000
,
0001
0000
0000
0010
0000
0000
0100
0000
0000
0000
1000
0000
0002
0000
0000
0000
,
0003
0000
0000
0000
;

//---------------dance-single - Pandemonium X----------------
#NOTES:
     dance-single:
     Pandemonium X:
     Easy:
     3:
     0.249,0.315,0.074,0.046,0.000:
1000
0000
0000
0000
,
0001
0000
0000
0000
,
0100
0000
0001
0000
,
0020
0000
0000
0000
,
0130
0000
0010
0000
,
0001
0000
1000
0000
,
0010
1000
0010
1000
,
0010
0100
0010
0100
,
0010
0000
1000
0000
,
0001
0000
0010
0000
,
0100
1000
0100
1000
,
0001
1000
0001
1000
,
0001
0000
0100
0000
,
0010
0000
0100
0000
,
0001
0100
0001
0100
,
0010
0100
0010
0100
,
0110
0000
0000
0000
,
1001
0000
0000
0000
,
0110
0000
0101
0000
,
1010
0000
0101
0000
,
2002
0000
0000
0000
,
0000
0000
0000
0000
,
3000
0000
0000
0003
0000
0000
0000
0000
,
0000
0000
0000
0000
,
0100
0000
0000
0000
,
0000
0000
0000
0000
,
0010
0000
0000
0000
,
0000
0000
0000
0000
,
1000
0000
0000
0000
,
0001
0000
0000
0000
,
0100
0000
0000
0000
,
0001
0000
0000
0000
,
1000
0000
0100
0000
,
1000
0000
0010
0000
,
0100
0001
0010
0100
,
2000
0000
0000
3000
,
0001
1000
0010
0010
,
1000
0001
0010
0010
,
0001
1000
0001
1000
,
0001
0001
1000
1000
,
0001
1000
0100
0100
,
1000
0001
0100
0100
,
0001
1000
0001
1000
,
0001
0100
0010
1000
,
0100
0010
0100
1000
,
0100
0010
0100
1000
,
0100
1000
0010
0100
,
0001
0001
1000
1000
,
0001
0100
0010
0100
,
0001
0010
0100
0010
,
0001
1000
0001
0100
,
0010
0100
0002
0000
,
1003
0000
0001
0000
,
0100
0000
0001
0000
,
0010
0100
0010
0100
,
1000
0100
1000
0100
,
1000
0000
0001
0000
,
0100
0000
0001
0000
,
0010
0100
0010
0100
,
1000
0100
1000
0100
,
1100
0000
1000
0000
,
0001
0000
0100
0000
,
0001
0100
0010
1000
,
0010
0100
0001
1000
,
0100
0000
1000
0000
,
0010
0000
0100
0000
,
0001
0001
1000
1000
,
0010
0010
0100
0100
,
0001
0000
0000
0000
;

//---------------dance-single - Pandemonium X----------------
#NOTES:
     dance-single:
     Pandemonium X:
     Beginner:
     1:
     0.106,0.189,0.093,0.000,0.000:
0000
0000
0000
0000
,
0000
0000
0000
0000
,
0000
0000
0000
0000
,
0000
0000
0000
0000
,
0010
0000
0000
0000
,
1000
0000
0000
0000
,
0001
0000
0001
0000
,
1000
0000
1000
0000
,
0010
0000
0000
0000
,
0100
0000
0000
0000
,
0001
0000
0001
0000
,
0100
0000
0100
0000
,
0010
0000
0000
0000
,
1000
0000
0000
0000
,
0100
0000
0100
0000
,
0010
0000
0010
0000
,
1001
0000
0000
0000
,
0110
0000
0000
0000
,
1001
0000
0000
0000
,
0110
0000
0000
0000
,
1001
0000
0000
0000
,
0000
0000
0000
0000
,
0000
0000
0000
0000
,
0000
0000
0000
0000
,
0000
0000
0000
0000
,
0000
0000
0000
0000
,
0000
0000
0000
0000
,
0000
0000
0000
0000
,
0010
0000
0000
0000
,
1000
0000
0000
0000
,
0001
0000
0000
0000
,
0100
0000
0100
0000
,
0001
0000
0000
0000
,
1000
0000
0000
0000
,
0100
0000
0000
0000
,
1001
0000
0000
0000
,
0010
0000
0000
0000
,
0100
0000
0000
0000
,
0001
0000
0000
0000
,
1000
0000
1000
0000
,
1000
0000
0000
0000
,
0001
0000
0000
0000
,
0010
0000
0000
0000
,
0001
0000
0001
0000
,
0100
0000
0000
0000
,
0001
0000
0000
0000
,
1000
0000
0000
0000
,
0100
0000
0100
0000
,
1000
0000
0000
0000
,
0010
0000
0000
0000
,
0100
0000
0100
0000
,
0010
0000
1001
0000
,
0010
0000
0000
0000
,
0100
0000
0000
0000
,
0001
0000
0000
0000
,
1000
0000
0000
0000
,
0100
0000
0000
0000
,
1000
0000
0000
0000
,
0001
0000
0000
0000
,
0100
0000
0000
0000
,
0110
0000
0000
0000
,
0010
0000
0000
0000
,
1000
0000
0000
0000
,
0001
0000
0000
0000
,
1001
0000
0000
0000
,
0100
0000
0000
0000
,
0010
0000
0000
0000
,
0010
0000
0000
0000
,
1001
0000
0000
0000
;

//---------------dance-single - ----------------
#NOTES:
     dance-single:
     :
     Challenge:
     9:
     0.753,0.724,1.000,0.056,0.380: // measure 1
1000
0001
0100
0010
0000
0100
0001
0010
,  // measure 2
0100
0010
0001
1000
0000
0000
0000
0000
,  // measure 3
0001
0100
1000
0100
0010
1000
0010
1000
,  // measure 4
0200
0310
0002
0103
1000
0200
0020
0330
,  // measure 5
0110
0000
0000
1001
0000
0000
0110
0000
0000
0000
1001
0000
0000
0000
0000
0000
,  // measure 6
0101
0000
0000
0101
0000
0000
1010
0000
0000
0101
0000
0000
1010
0000
0000
0000
,  // measure 7
1100
0000
0000
0110
0000
0000
0011
0000
0000
0110
0000
0000
1100
0000
0000
0000
,  // measure 8
1100
0000
0000
0110
0000
0000
0011
0000
0000
0110
0000
0000
1100
0000
0000
0000
,  // measure 9
1001
0000
0000
1001
0000
0000
0101
0000
0000
0000
1001
0000
0000
0000
0000
0000
,  // measure 10
1010
0000
0000
0101
0000
0000
1010
0000
0000
1001
0000
0000
1001
0000
0000
0000
,  // measure 11
1100
0000
0000
0110
0000
0000
0011
0000
0000
0110
0000
0000
1100
0000
0000
0000
,  // measure 12
1100
0000
0000
0110
0000
0000
0011
0000
0000
0110
0000
0000
1001
0000
0000
0000
,  // measure 13
0101
0000
0000
1010
0000
0000
1100
0000
0000
0000
0011
0000
0000
0000
0000
0000
,  // measure 14
1001
0000
0000
1001
0000
0000
0101
0000
0000
0101
0000
0000
0101
0000
0000
0000
,  // measure 15
1010
0000
0000
0101
0000
0000
1010
0000
0000
1100
0000
0000
0110
0000
0000
0000
,  // measure 16
0110
0000
0000
1100
0000
0000
0011
0000
0000
0110
0000
0000
1001
0000
0000
0000
,  // measure 17
1002
0000
0000
1000
0000
0000
1003
0000
0000
0000
0010
0000
1001
0000
0000
0000
,  // measure 18
0201
0000
0000
0001
0000
0000
0301
0000
0000
0000
0001
0000
0100
0000
0000
0000
,  // measure 19
0110
0000
0000
1001
0000
0000
0110
0000
0000
1010
0000
0000
0101
0000
0000
0000
,  // measure 20
1100
0000
0000
1100
0000
0000
0101
0000
0000
0101
0000
0000
1100
0000
0000
0000
,  // measure 21
1001
0000
0000
0000
,  // measure 22
0000
0000
0000
0000
,  // measure 23
0001
0100
1000
0100
0000
0000
0000
0000
,  // measure 24
0000
0100
0100
0010
1000
0000
0001
0000
,  // measure 25
1000
0000
0000
0000
,  // measure 26
0000
0000
0000
0000
,  // measure 27
0010
0010
0001
0010
0000
0000
0000
0000
,  // measure 28
0000
0000
0000
0001
0000
0100
0000
0010
,  // measure 29
0100
0001
0100
0001
0100
0001
0100
0001
,  // measure 30
0100
0010
0100
0010
0100
0010
0100
0010
,  // measure 31
1000
0010
1000
0010
1000
0010
1000
0010
,  // measure 32
0000
0000
0000
0000
,  // measure 33
1000
1000
0100
1000
0100
1000
0100
0010
,  // measure 34
0001
0001
0010
0001
0010
0100
0010
1000
,  // measure 35
0001
0001
1000
1000
0010
0010
0100
0100
,  // measure 36
0001
0000
0100
0000
1010
0000
1000
0010
0000
0100
0010
0000
0101
0000
0000
0000
,  // measure 37
1001
0000
0000
0000
0110
0000
0000
1001
0000
1001
0000
0000
0100
0000
0001
0000
,  // measure 38
0101
0000
0000
0000
0110
0000
0000
0110
0000
0110
0000
0000
0010
0000
1000
0000
,  // measure 39
1010
0000
0000
0000
0101
0000
0000
1100
0000
1100
0000
0000
1001
0000
0110
0000
,  // measure 40
0000
0000
0101
0000
0000
1010
0000
0000
1000
0000
0100
0000
0010
0000
0001
0000
,  // measure 41
0011
0000
0000
0000
1100
0000
0000
0110
0000
0110
0000
0000
0110
0000
0100
0000
,  // measure 42
0010
0000
0000
0000
0011
0000
0000
0001
0000
0100
0010
0000
0100
0000
0001
0000
,  // measure 43
0101
0000
0000
0000
1001
0000
0000
0001
0000
0001
0000
0000
0100
0000
0010
0000
,  // measure 44
1000
0010
0001
0010
1000
0010
0001
1000
,  // measure 45
1001
0000
0000
0000
1001
0000
0000
0101
0000
0101
0000
0000
0001
0000
1000
0000
,  // measure 46
1001
0000
0000
0000
1010
0000
0000
0110
0000
0110
0000
0000
1010
0000
0010
0000
,  // measure 47
1010
0000
0000
0000
0110
0000
0000
0110
0000
0110
0000
0000
1001
0000
1001
0000
,  // measure 48
0000
0000
0101
0000
0000
1100
0000
0000
1000
0000
0100
0000
0010
0000
0001
0000
,  // measure 49
0011
0000
0000
0000
1100
0000
0000
0011
0000
0011
0000
0000
0101
0000
1010
0000
,  // measure 50
0010
0000
0000
0000
0110
0000
0000
1001
0000
1000
0001
0000
0001
0000
0100
0000
,  // measure 51
0110
0000
0000
0000
0110
0000
0000
1001
0000
1001
0000
0000
0101
0000
0101
0000
,  // measure 52
0000
0000
0001
0000
0100
0000
0010
1000
0001
0000
0010
0000
1000
0000
0010
0000
,  // measure 53
0110
0001
0010
0001
0010
0010
0100
0000
,  // measure 54
1100
0000
0000
0011
0000
0000
1100
0000
0000
0101
0000
0000
1001
0000
0000
0000
,  // measure 55
0011
0000
0000
0110
0000
0000
1100
0000
0000
0110
0000
0000
0011
0000
0000
0000
,  // measure 56
0011
0000
0000
1100
0000
0000
1010
0000
0000
0101
0000
0000
1001
0000
0000
0000
,  // measure 57
0001
0100
1000
0100
0010
0100
0000
0000
,  // measure 58
0110
0000
0000
1010
0000
0000
0011
0000
0000
1010
0000
0000
1001
0000
0000
0000
,  // measure 59
1100
0000
0000
0110
0000
0000
0011
0000
0000
0110
0000
0000
1001
0000
0000
0000
,  // measure 60
1001
0000
0000
0011
0000
0000
0101
0000
0000
1010
0000
0000
0110
0000
0000
0000
,  // measure 61
1001
0000
0001
1000
1001
0000
1001
0000
0000
0000
1001
0000
0000
0000
0000
0000
,  // measure 62
0101
0000
0000
1010
0000
0000
1100
0000
0000
0110
0000
0000
0011
0000
0000
0000
,  // measure 63
0011
0000
0000
1100
0000
0000
0101
0000
0000
1010
0000
0000
0110
0000
0000
0000
,  // measure 64
0110
0000
0000
1010
0000
0000
0101
0000
0000
1100
0000
0000
0011
0000
0000
0000
,  // measure 65
0110
0000
0010
0100
0101
0000
0101
0000
0000
0000
0101
0000
0000
0000
0000
0000
,  // measure 66
1100
0000
0000
0011
0000
0000
0101
0000
0000
1010
0000
0000
0110
0000
0000
0000
,  // measure 67
0101
0000
0000
1010
0000
0000
1100
0000
0000
0011
0000
0000
1100
0000
0000
0000
,  // measure 68
1100
0000
0000
0110
0000
0000
0011
0000
0000
0110
0000
0000
1100
0000
0000
0000
,  // measure 69
1001
0000
0000
0000
;
