#TITLE:The Rain Maker;
#SUBTITLE:;
#ARTIST:Paul Bazooka;
#TITLETRANSLIT:;
#SUBTITLETRANSLIT:;
#ARTISTTRANSLIT:;
#CREDIT:Pandemonium X & Telperion;
#BANNER:n2ze3m.png;
#BACKGROUND:2s97taf.png;
#LYRICSPATH:;
#CDTITLE:;
#MUSIC:The Rain Maker.ogg;
#OFFSET:-0.098;
#SAMPLESTART:20.948;
#SAMPLELENGTH:13.913;
#SELECTABLE:YES;
#DISPLAYBPM:138.000;
#BPMS:0.000=138.000;
#STOPS:;
#BGCHANGES:0.000=RMBGA.avi=1.000=1=0=1,
260.000=2s97taf.png=1.000=1=0=1,
99999=-nosongbg-=1.000=0=0=0 // don't automatically add -songbackground-
;

//---------------dance-single - ----------------
#NOTES:
     dance-single:
     :
     Hard:
     8:
     0.422,0.693,0.077,0.179,0.226:
0000
0000
0000
0000
,
0000
0000
0000
0000
,
0000
0000
0000
0000
,
0000
0000
0000
0000
,
0011
0000
0000
0100
0000
0000
0010
0000
,
1001
0000
0000
0100
0000
0000
0010
0000
,
2020
0000
0000
0000
,
3030
0100
0100
0100
,
0010
0000
1000
0000
0001
0000
0001
0100
,
0010
0000
0100
0000
0001
0000
1000
0001
,
1000
0000
0010
0000
0100
0000
0001
0100
,
0001
0000
0100
0000
0010
0000
0100
0010
,
1000
0000
0001
0000
0010
0000
0100
1000
,
0100
0000
1000
0000
0010
0000
0100
0001
,
0010
0000
0100
0000
0010
0000
0001
1000
,
0001
0100
1000
0200
,
0310
0000
0100
0002
0000
1000
1003
0000
,
0100
0000
0010
0000
0100
0020
0000
0100
,
0130
0000
1000
0002
0000
0100
0103
0000
,
0100
0000
0010
0000
1000
0200
0000
1000
,
1300
0000
0100
0020
0000
0001
0031
0000
,
0001
0000
0100
0000
0010
0200
0000
0010
,
0310
0000
0010
2000
0000
0010
3010
0000
,
1000
0000
0001
0000
0010
0002
0000
0100
,
0103
0000
0000
0001
0000
0010
0100
0000
0000
0010
0000
0001
0000
1000
0001
0000
,
0100
0000
0000
0010
0000
1000
0010
0000
0000
0100
0000
0001
0000
1000
0001
0000
,
0010
0000
0000
0100
0000
0100
0010
0000
0000
0001
0000
0100
0000
0010
1000
0000
,
0010
0000
0000
0010
0000
0100
0010
0000
0000
0100
0000
0001
0000
1000
0001
0000
,
0010
0000
0000
0010
0000
0010
0100
0000
0000
0100
0000
0100
0000
0100
1000
0000
,
1000
0000
0000
0001
0000
0001
0100
0000
0000
0010
0000
0010
0000
0100
0010
0000
,
1000
0000
0000
0001
0000
0010
0100
0000
0000
0100
0000
0010
0000
0010
0001
0000
,
1000
0100
0010
0001
1000
0100
0010
0001
,
2000
0000
0000
0000
,
0000
0000
0000
0000
,
0020
0000
0000
0000
,
0000
0000
0000
3000
0200
0000
0000
0030
,
0002
0000
0000
0000
,
0000
0000
0000
0000
0000
0000
0000
0300
,
0200
0000
0000
0000
0000
0000
0000
0003
,
2000
0000
0000
3300
,
0101
0100
0000
0100
0000
0100
0000
0100
,
0000
0010
0000
0010
0000
0010
0000
0010
,
0000
1000
0000
1000
0000
1000
0000
1000
,
0000
0001
0000
0001
0000
0001
0000
0001
,
1000
1000
0001
0001
1000
1000
0010
0010
,
1000
1000
0001
0001
1000
1000
0100
0100
,
0010
0010
0001
0001
0100
0100
0010
0010
,
1000
0100
1000
0100
1000
0100
1000
0100
2000
0000
0000
0000
3000
0000
0000
0000
,
0010
0000
0000
1000
0000
0000
0001
0000
0000
0010
0000
0000
0001
0000
0001
0000
,
0010
0100
0000
0010
0001
0000
1000
1000
,
0010
0100
0000
0001
0000
1000
0000
0100
,
0000
0110
0000
0011
0000
1001
0000
0101
,
0001
0100
1000
0100
0010
1000
0001
0010
,
0200
0310
0200
1300
,
0001
0100
0001
0010
0001
1000
0010
0000
,
0100
0100
0010
1000
0001
1000
0100
1000
,
0001
1000
0000
0100
0000
1000
0000
0100
,
0000
0010
0000
0010
0000
0001
0000
0001
,
0000
1000
0000
0010
0000
0010
0000
0010
,
0100
0001
1000
0001
0010
0001
1000
0010
,
0100
0000
0000
0000
0001
0100
0000
0000
0100
0001
0000
0000
0101
0000
0000
0000
,
0010
0000
0000
0000
0010
1000
0000
0000
1000
0010
0000
0000
1000
0000
0010
0000
,
0100
0010
1000
1000
1000
1000
0001
0001
,
1000
0100
1000
0100
0010
0100
0010
0001
0010
0001
1000
0001
1000
0100
0010
0001
,
0200
0000
0000
0000
,
0300
0000
0000
0000
;

//---------------dance-single - Telperion----------------
#NOTES:
     dance-single:
     Telperion:
     Challenge:
     9:
     0.492,0.693,0.154,0.333,0.444:
0000
0000
0000
0000
,
0000
0000
0000
0000
,
0000
0000
0000
0000
,
0000
0000
0000
0000
,
1002
0003
0000
0010
0000
0000
0010
0000
,
2001
3000
0000
0010
0000
0000
0010
0000
,
0200
0000
0000
0000
,
0300
0000
0000
0000
0100
0000
0000
0000
0001
1000
0000
1000
0010
0000
0100
0000
,
0010
0000
0000
0000
0000
0010
0000
0000
0010
0000
0000
0100
0000
1000
0000
0100
,
0000
0002
0000
0003
0000
0001
1000
0000
1000
0001
0000
1000
0000
0100
0000
0100
,
0000
0020
0000
0030
0000
0010
0000
0000
0010
0000
0000
0100
0000
0001
0000
0100
,
0000
2000
0000
3000
0000
0010
1000
0000
1000
0001
0000
0010
0000
0001
0000
0010
,
0100
0000
0000
1000
0000
0100
0010
0000
0000
0001
0000
1000
0000
0001
0200
0000
,
0300
0000
0000
0100
0000
0010
1000
0000
0000
1000
0000
0001
0000
0010
0002
0000
,
0003
0000
0000
0100
0000
0001
0010
0000
0000
0100
0000
1000
0000
0100
0020
0000
,
0031
0000
0000
0001
0000
1000
0010
0000
0200
0000
0000
0000
0010
0000
0300
0000
,
1001
0000
0001
0010
0001
1000
1020
0000
,
0230
0000
0301
0000
0001
0011
0000
0010
,
1001
0000
1000
1000
0000
0100
0100
0000
,
0110
0000
0011
0000
0001
1001
0000
1000
,
0110
0000
0100
0100
0000
0001
0001
0000
,
1100
0000
0011
0000
1000
1010
0000
0010
,
0110
0000
0100
0100
0000
0010
0100
0000
,
0002
0000
1000
0000
0013
0010
0000
0100
,
0110
0000
0000
0001
0000
0000
1000
0000
0010
0000
0000
0100
0000
0000
0010
0000
,
1000
0000
0000
0100
0000
0000
0001
0000
0100
0000
0000
0010
0000
0000
0001
0000
,
1000
0000
0000
0010
0000
0000
0001
0000
0010
0000
0000
0100
0000
0000
0010
0000
,
1000
0000
0000
0010
0000
1000
0010
0000
0100
0000
0001
0000
0010
0000
0000
0000
,
0100
0010
0000
0100
0000
0000
1000
0000
0001
0000
0000
0100
0000
0010
0100
0000
,
0001
1000
0000
0001
0000
0000
0010
0000
0100
0000
0000
1000
0000
0100
0010
0000
,
0001
0010
0001
0010
1000
0010
1000
0010
,
0001
0100
1000
0100
0010
0100
1000
0100
,
0002
0000
0000
0000
,
0000
0000
0000
0000
,
2003
0000
0000
0000
,
0000
0000
3200
0000
,
0320
0000
0000
0000
,
0000
0000
0000
0000
,
0230
0000
0000
0000
,
0300
0000
0000
0000
,
1002
0000
0010
0000
,
0203
0000
0320
0000
,
2030
0000
0001
0000
,
0100
0000
3020
0000
,
0130
0100
0100
0100
0010
0100
0100
0100
,
0001
0100
0010
0100
0001
1000
0001
0100
,
0001
0000
1000
0000
0100
1000
0000
0100
0010
0000
0001
0000
1000
0001
0000
0100
,
0010
0100
0010
0100
0001
0100
0001
1000
0002
0000
0000
0000
0003
0000
0000
0000
,
0010
0000
0000
0010
0100
0000
1000
0001
0000
1000
0000
1000
0020
0000
0030
0000
,
0100
0000
0001
0000
0100
0000
0010
0000
1000
0001
1000
0001
0020
0000
0000
0000
,
0030
0000
0210
0000
0300
0000
0010
0100
0000
0000
1002
0000
0003
0000
1000
0001
,
0100
0000
0100
0000
0010
0000
0100
0000
0001
0000
0001
0010
0001
0000
1000
0010
,
0000
0020
0000
0230
0300
0200
0000
0302
,
0003
0000
0010
0001
0000
0000
0001
0010
0000
0100
0000
1000
0000
0001
1000
0000
,
0020
0000
0000
0000
0230
0000
0000
0000
0301
0100
0000
0010
0000
0010
0100
0000
,
0002
0000
0000
0000
2003
0000
0000
0000
3100
0010
0000
0100
0000
0100
1000
0000
,
0001
0100
0001
1000
0001
0010
0001
1000
,
0010
0100
0010
0001
0010
0100
0010
1000
,
0100
0001
0100
0010
0100
0001
0100
0010
,
0001
0000
0000
1000
0010
1000
0000
0001
0010
0001
0000
1000
0100
1000
0000
0001
,
0200
0000
0300
0000
0010
0100
0000
0000
0010
0100
0000
0000
0010
0000
0000
0000
,
2000
0000
3000
0000
0001
1000
0000
0000
0001
1000
0000
0000
0001
0000
0001
0000
,
0010
0100
0010
0001
1000
1000
0001
0001
,
0100
0010
0100
0010
1000
0001
1000
0001
0010
0100
0010
0001
1000
0001
1000
0010
,
0200
0000
0000
0000
,
0300
0000
0000
0000
;

//---------------dance-single - ----------------
#NOTES:
     dance-single:
     :
     Medium:
     6:
     0.324,0.471,0.102,0.247,0.000:
0000
0000
0000
0000
,
0000
0000
0000
0000
,
0000
0000
0000
0000
,
0000
0000
0000
0000
,
1001
0000
0000
0101
0000
0000
0010
0000
,
1010
0000
0000
1100
0000
0000
0011
0000
,
0220
0000
0000
0000
,
0330
0000
0000
0000
,
0001
0000
0100
0000
0010
0000
1000
0010
,
0100
0000
0010
0000
1000
0000
0001
1000
,
0001
0000
1000
0000
0100
0000
0010
0001
,
0100
0000
1000
0000
0100
0000
0010
1000
,
0001
0000
0010
0000
1000
0000
0010
0001
,
0100
0000
0010
0000
1000
0000
0001
1000
,
0100
0000
1000
0000
0001
0000
0100
0001
,
0010
0100
1000
0200
,
1300
0000
1000
0100
0000
0100
0010
0000
,
0001
0000
0100
0000
0010
1000
0000
1000
,
0001
0000
0001
0010
0000
0010
0100
0000
,
0010
0000
0001
0000
1000
0001
0000
0001
,
0100
0000
0010
0100
0000
0010
1000
0000
,
0001
0000
1000
0000
1000
0100
0000
0100
,
0010
0000
0010
0001
0000
0001
0010
0000
,
0100
0000
0010
0000
0001
0100
0000
0010
,
0200
1000
0010
0001
,
0320
0001
0100
1000
,
0230
1000
0010
0001
,
0320
0001
0100
1000
,
0230
1000
0010
0001
,
0320
0001
0100
1000
,
0230
1000
0010
0001
,
0310
0110
0001
1100
,
2002
0000
0000
0000
,
0000
0000
0000
0000
,
3000
0000
0000
0000
,
0000
0000
0203
0000
,
0020
0000
0000
0000
,
0000
0000
0000
0000
,
0300
0000
0000
0000
,
0030
0000
0000
0000
,
0000
1000
0000
1000
0000
0001
0000
0001
,
0000
1000
0000
0001
0000
0100
0000
0010
,
0000
1000
0000
0100
0000
1000
0000
0100
,
0000
0010
0000
0001
0000
0010
0000
0001
,
0200
0320
2030
3002
,
0023
0230
2300
3200
,
0320
0032
0203
2300
,
0200
0000
0000
3300
,
0100
0000
0010
0000
1000
0000
0001
0001
,
1000
1000
0000
0000
0000
0000
0000
0000
,
0000
0001
0000
1000
0000
0001
0000
0100
,
0010
1000
0000
1000
0000
0010
0000
0100
,
0010
0000
1000
0000
0001
0010
0001
0000
,
0010
0000
0100
0000
0100
0100
0010
0000
,
0001
0000
1000
0000
0100
1000
0010
0000
,
0100
0000
0110
0000
0010
1000
0001
0000
,
0000
1000
0000
0001
0000
0100
0000
0100
,
0000
0010
0000
1000
0000
0001
0000
0010
,
0000
0010
0000
0010
0000
0100
0000
0100
,
1000
0000
0001
0000
0100
0010
1000
0000
,
1001
0001
0001
1000
,
0001
0000
0100
0000
0010
0000
1000
0010
,
1000
0010
0100
0001
,
0001
0010
0100
1000
0001
0010
0100
1000
,
2002
0000
0000
0000
,
3003
0000
0000
0000
;

//---------------dance-single - ----------------
#NOTES:
     dance-single:
     :
     Easy:
     4:
     0.244,0.388,0.222,0.128,0.000:
0000
0000
0000
0000
,
0000
0000
0000
0000
,
0000
0000
0000
0000
,
0000
0000
0000
0000
,
0001
0000
0000
1000
0000
0000
0010
0000
,
0100
0000
0000
0010
0000
0000
1000
0000
,
2002
0000
0000
0000
,
0000
3000
0003
0000
,
0001
1000
0100
0100
,
1000
0001
0010
0010
,
0001
1000
0010
0010
,
0100
0010
1000
1000
,
0001
0010
0100
0100
,
0010
0001
1000
0010
,
0100
0010
1000
0001
,
0010
0100
1000
0200
,
1300
0100
0010
0001
,
0101
1010
1001
0000
,
0001
0100
0010
1000
,
1100
0110
0011
0000
,
0001
0100
0010
1000
,
1001
0101
1001
0000
,
1000
0001
0100
0010
,
1010
0101
1001
0000
,
1000
0100
1000
1010
,
0010
0100
0001
0011
,
0001
0100
0010
1010
,
0010
0100
0010
1000
,
0001
0010
0100
1100
,
0100
1000
0010
0110
,
0010
1000
0001
0010
,
0100
0100
0100
0100
,
0020
0000
0000
0000
,
0000
0000
0000
0000
,
0032
0000
0000
0000
,
0000
0000
1000
0000
,
2003
0000
0000
0000
,
0000
0000
0000
0000
,
0020
0000
0000
0000
,
0000
0000
0000
3030
,
0101
0000
0000
0000
,
0000
0000
0200
0000
,
0020
0000
0000
0000
,
0330
0000
0020
0000
,
2000
0000
0000
0000
,
3030
0000
2000
0000
,
0002
0000
0000
0000
,
3003
0000
0000
0000
,
0110
0010
1000
0001
,
0010
0000
0000
0000
,
0100
0000
1000
0000
,
0100
0100
0010
0010
,
0001
1000
1000
0001
,
0100
0100
0010
1000
,
0010
0100
0001
0010
,
0100
0010
0001
1000
,
0001
0000
1000
0000
,
0010
0000
0100
0000
,
0001
0000
1000
0000
,
0100
0000
1000
0000
,
1010
0000
0010
0000
,
0100
0000
0001
0000
,
1000
0001
1000
0001
,
1001
1001
0110
0110
,
2002
0000
0000
0000
,
3003
0000
0000
0000
;

//---------------dance-single - ----------------
#NOTES:
     dance-single:
     :
     Beginner:
     1:
     0.082,0.164,0.043,0.026,0.000: // measure 1
0000
0000
0000
0000
,  // measure 2
0000
0000
0000
0000
,  // measure 3
0000
0000
0000
0000
,  // measure 4
0000
0000
0000
0000
,  // measure 5
1000
0000
0000
0000
,  // measure 6
0001
0000
0000
0000
,  // measure 7
0200
0000
0000
0000
,  // measure 8
0300
0000
0000
0000
,  // measure 9
0010
0000
0000
0000
,  // measure 10
1000
0000
0000
0000
,  // measure 11
0001
0000
0000
0000
,  // measure 12
0010
0000
0000
0000
,  // measure 13
0001
0000
0000
0000
,  // measure 14
0100
0000
0000
0000
,  // measure 15
0010
0000
0000
0000
,  // measure 16
1000
0000
0000
0001
,  // measure 17
1001
0000
0000
0000
,  // measure 18
0100
0000
0000
0000
,  // measure 19
0010
0000
0000
0000
,  // measure 20
1000
0000
0000
0000
,  // measure 21
0001
0000
0000
0000
,  // measure 22
0100
0000
0000
0000
,  // measure 23
0010
0000
0000
0000
,  // measure 24
0100
0000
0000
0000
,  // measure 25
0001
0000
0000
0000
,  // measure 26
0000
0000
0000
0000
,  // measure 27
1000
0000
0000
0000
,  // measure 28
0010
0000
0100
0000
,  // measure 29
0001
0000
0000
0000
,  // measure 30
1000
0000
0000
0000
,  // measure 31
0010
0000
0000
0000
,  // measure 32
0100
0000
0000
0000
,  // measure 33
1001
0000
0000
0000
,  // measure 34
0000
0000
0000
0000
,  // measure 35
0001
0000
0000
0000
,  // measure 36
0000
0000
0100
0000
,  // measure 37
0100
0000
0000
0000
,  // measure 38
0000
0000
0000
0000
,  // measure 39
0010
0000
0000
0000
,  // measure 40
1000
0000
0000
0000
,  // measure 41
0110
0000
0000
0000
,  // measure 42
0000
0000
0010
0000
,  // measure 43
0001
0000
0000
0000
,  // measure 44
0000
0000
1000
0000
,  // measure 45
1000
0000
0000
0000
,  // measure 46
0000
0000
0010
0000
,  // measure 47
0100
0000
0100
0000
,  // measure 48
0200
0000
0000
0300
,  // measure 49
0110
0000
0000
0000
,  // measure 50
0010
0000
0000
0000
,  // measure 51
1000
0000
0000
0000
,  // measure 52
0001
0000
0000
0000
,  // measure 53
1000
0000
0000
0000
,  // measure 54
0010
0000
0000
0000
,  // measure 55
0100
0000
0000
0000
,  // measure 56
0100
0000
0000
0000
,  // measure 57
0010
0000
0000
0000
,  // measure 58
1000
0000
0000
0000
,  // measure 59
0001
0000
0000
0000
,  // measure 60
0010
0000
0000
0000
,  // measure 61
1001
0000
0000
0000
,  // measure 62
0100
0000
0000
0000
,  // measure 63
0010
0000
0000
0000
,  // measure 64
2000
0000
0000
0000
,  // measure 65
3000
0000
0000
0000
;
