#TITLE:the keel;
#SUBTITLE:;
#ARTIST:Akino;
#TITLETRANSLIT:;
#SUBTITLETRANSLIT:;
#ARTISTTRANSLIT:;
#CREDIT:;
#BANNER:bn.PNG;
#BACKGROUND:bg.PNG;
#LYRICSPATH:;
#CDTITLE:;
#MUSIC:Pop'n 11 - Ele Goth.ogg;
#OFFSET:-0.030;
#SAMPLESTART:16.257;
#SAMPLELENGTH:12.000;
#SELECTABLE:YES;
#BPMS:0.000=133.000,172.000=66.500,184.000=133.000;
#STOPS:;
#BGCHANGES:;

//---------------dance-single - ----------------
#NOTES:
     dance-single:
     :
     Medium:
     6:
     0.351,0.361,0.045,0.419,0.000:
0000
0000
0000
0000
,
0200
0000
0000
0300
,
0020
0000
0000
0000
0000
0000
1030
0020
,
0000
0000
0000
0000
0000
0000
0130
0020
,
0000
0000
0000
0130
,
1001
0000
0001
1000
0000
1000
0100
0000
,
1000
0000
0010
0100
0000
0100
0001
0020
,
0000
0000
0000
0000
0030
0000
0010
0100
,
2000
0000
0000
3000
,
0001
0000
1000
0001
1000
0000
0001
0100
,
0000
0010
0100
0001
1000
0000
1000
0100
,
0000
0100
0010
0001
0010
0000
0010
0100
,
2000
0000
0000
3000
,
0010
0000
1000
0010
0100
0000
0001
0010
,
0000
0010
0100
1000
0100
0000
1000
0100
,
0000
0100
0001
0100
1000
0010
0000
0100
,
0000
0100
0000
0100
0000
0000
0010
2000
,
0000
0000
3010
2000
0000
0000
3010
2000
,
0000
0000
3010
2000
0000
0000
3010
0000
,
0200
0000
0310
0200
0000
0000
0310
0200
,
0000
0000
0310
0200
0000
0000
0000
0000
,
0320
0000
0000
0000
0000
0000
0000
1030
,
0002
0000
0000
0000
0000
0000
0013
0002
,
0000
0000
0013
0200
0000
0300
0100
2000
,
0020
0000
0000
3030
,
0010
0000
0100
0001
1000
0000
1000
0100
,
0000
0100
0001
0100
1000
0000
1000
0010
,
0000
0010
0001
0010
1000
0000
0010
0100
,
0001
1001
0010
0110
,
0100
0001
0010
0100
1000
0000
0100
1000
,
0000
1000
0010
0100
0001
0000
0100
0010
,
0000
0010
1000
0001
0010
0100
0000
1000
,
0000
1000
0000
1000
0000
0000
1000
0200
,
0000
0000
1300
0200
0000
0000
1300
0200
,
0000
0000
1300
0200
0000
0300
0110
0000
,
0020
0000
0031
0020
0000
0000
0031
0020
,
0000
0000
0031
0020
0000
0030
0011
0000
,
0002
0000
0103
0020
0000
0000
1030
0020
,
0000
0000
0130
0020
0000
0000
0000
0000
,
1030
0001
0100
1000
,
0100
0000
0001
0010
0100
0000
0000
0000
,
0100
1000
0010
0001
,
0010
0000
0100
0010
1000
0000
0000
0000
,
0002
2003
3020
0000
,
0230
0000
0000
0000
0002
0000
0000
0303
,
0002
0203
2300
3200
,
0310
0000
1000
0010
0000
0000
0100
0000
,
0001
0000
0010
0100
0000
0000
1000
0000
,
0100
0000
1000
0020
0000
0000
0130
0000
,
0001
0000
1000
0200
0000
0000
0310
0000
,
0100
1000
0100
0010
0001
0010
0100
0001
,
1000
0001
0100
1000
0100
0000
0000
0000
,
0100
0010
1000
0001
0010
1000
0010
0001
,
0100
0010
1000
0100
0010
0000
0000
0000
,
0020
0000
0000
0000
,
0230
0000
0000
0000
,
2000
0000
0000
0000
,
0000
0000
0000
3300
;

//---------------dance-single - ----------------
#NOTES:
     dance-single:
     :
     Hard:
     9:
     0.473,0.515,0.071,0.214,0.210: // measure 1
0000
0000
0000
0000
0000
0000
0000
0000
0000
0000
0000
0000
0000
0000
1000
0001
,  // measure 2
0200
0000
0000
0000
0000
0000
0000
0000
0000
0000
0000
0000
0000
0000
0310
0100
,  // measure 3
0002
0000
0000
0000
0000
0003
0001
0200
,  // measure 4
0000
0000
0000
0000
0000
0000
0301
0200
,  // measure 5
0000
0000
0000
0000
0000
0000
1000
0300
,  // measure 6
0110
0010
1000
0010
0100
0010
0001
0000
,  // measure 7
0001
0100
0010
1000
0100
0010
0100
0000
,  // measure 8
0100
0010
0001
1000
0001
0100
0010
0000
,  // measure 9
0001
0000
0100
0000
0010
0000
1000
0010
0000
0100
0001
0000
0001
0010
0000
0000
,  // measure 10
1100
0000
0100
0010
0001
0000
0001
0100
,  // measure 11
0000
0010
1000
0001
0010
0000
0010
0100
,  // measure 12
0000
0100
1000
0010
0100
0000
0001
1000
,  // measure 13
0010
1000
0010
1000
0010
1000
0010
1000
0010
1000
0010
1000
0010
0000
0000
0000
,  // measure 14
1000
0001
0100
0001
0010
0000
0010
0100
,  // measure 15
0000
0100
1000
0010
0100
0000
0001
0010
,  // measure 16
0000
0001
1000
0100
1000
0001
0000
0100
,  // measure 17
0000
1000
0000
0200
0000
0300
0010
0000
,  // measure 18
1001
0000
0000
0001
0100
0000
0010
0000
1000
0000
0000
0001
0100
0000
0010
0000
,  // measure 19
1000
0000
0000
0001
0100
0000
0010
0000
1000
0000
0000
0000
0100
0000
0000
0000
,  // measure 20
0010
0000
0000
0100
1000
0000
0010
0000
0100
0000
0000
0100
0010
0000
1000
0000
,  // measure 21
0100
0000
0000
1000
0001
0000
0010
0000
0100
0000
0000
0100
0010
0000
0001
1000
,  // measure 22
0002
0000
0000
0000
0000
0000
0000
0000
0000
0000
0000
0000
0000
0000
1003
0001
,  // measure 23
0200
0000
0000
0000
0000
0000
0310
1000
,  // measure 24
0000
0000
1000
0100
0000
0000
0100
1000
,  // measure 25
0100
0000
0010
0000
0001
0000
0010
0001
0000
0001
0010
0000
0001
0010
0000
0000
,  // measure 26
0010
0100
0001
0010
0001
1000
0100
1000
,  // measure 27
0010
0100
0001
0010
0001
1000
0100
1000
,  // measure 28
0010
0100
0001
0010
0100
0000
0010
0001
,  // measure 29
0100
0001
0000
0000
0001
0010
0000
0000
0010
0100
0000
0000
0100
1000
0000
0000
,  // measure 30
0100
0010
0100
1000
0001
0100
1000
0100
,  // measure 31
0010
1000
0001
0010
0001
0100
0001
1000
,  // measure 32
0100
0010
0100
1000
0010
0200
0000
1000
,  // measure 33
0000
0001
0000
0020
0000
0330
0010
0000
,  // measure 34
1001
0000
0000
0010
0100
0000
0001
0000
1000
0000
0000
0010
0100
0000
0001
0000
,  // measure 35
1000
0000
0000
0010
0100
0000
0001
0000
1000
0000
0000
0000
1100
0000
0000
0000
,  // measure 36
0011
0000
0000
0001
0010
0000
0100
0000
1000
0000
0000
0001
0010
0000
0100
0000
,  // measure 37
1000
0000
0000
0001
0010
0000
0100
0000
1000
0000
0000
0000
1010
0000
0000
0000
,  // measure 38
0100
0000
0000
0001
0100
0000
0010
0000
1000
0000
0000
0100
0010
0000
0001
0000
,  // measure 39
0100
0000
0000
0010
0100
0000
0010
0000
1000
0000
0000
0000
0010
0000
0000
0000
,  // measure 40
0001
0100
1000
0100
0010
1000
0001
0010
,  // measure 41
1000
0010
0001
0100
0002
0000
0003
0000
,  // measure 42
0001
1000
0100
1000
0001
0010
0001
0100
,  // measure 43
0010
1000
0100
0010
0001
0000
0000
0000
,  // measure 44
0000
0000
0000
0001
0100
1000
0000
0100
0000
0010
0000
1000
0000
0000
0100
0000
,  // measure 45
0220
0000
0000
0000
0330
0000
0000
0010
,  // measure 46
0002
0023
0230
2300
,  // measure 47
3010
0000
1000
0010
0200
0000
0310
0000
,  // measure 48
0010
0000
1000
0001
0020
0000
0130
0000
,  // measure 49
0010
0000
0001
0100
2000
0000
3100
0000
,  // measure 50
0100
0000
0010
1000
0002
0000
0013
0000
,  // measure 51
0001
1000
0001
0010
0001
0100
0001
0010
,  // measure 52
0001
1000
0100
1000
0010
0000
0000
0000
,  // measure 53
1000
0010
1000
0001
0010
0001
1000
0100
,  // measure 54
1000
0010
0100
0010
1000
0000
0000
0000
,  // measure 55
0002
0000
0000
0000
0000
0000
0000
0000
0000
0000
0000
0000
0000
0000
0000
0000
0000
0000
0000
0000
0000
0000
0000
0000
0003
0000
0000
0000
0000
0000
0000
0000
0000
0000
0000
0000
0000
0000
0000
0000
1000
0000
0001
0000
0000
0100
0000
0000
,  // measure 56
0002
0000
0000
0000
0000
0000
0000
0000
0000
0000
0000
0000
0003
0000
0000
0000
0000
0000
0000
0000
0000
0000
0000
0000
0000
0000
0000
0000
0000
0000
0000
0000
0000
0000
0000
0000
0000
0000
0000
0000
1000
0000
0000
0000
0000
0100
0000
0000
,  // measure 57
0000
0010
0001
0020
0200
0000
0000
0000
0000
0000
0000
0000
0000
0000
0000
0000
,  // measure 58
0000
0000
0000
0330
;

//---------------dance-single - ----------------
#NOTES:
     dance-single:
     :
     Easy:
     2:
     0.161,0.232,0.089,0.071,0.000:
0000
0000
0000
0000
,
0000
0000
0000
0000
,
0000
0000
0000
0000
,
0000
0000
0000
0000
,
0000
0000
0000
0000
,
0001
0100
0001
0001
,
0100
0010
0100
0100
,
0010
1000
1000
0001
,
0020
0000
0000
0000
,
0031
0000
0000
1000
,
0100
0000
0000
0100
,
1000
0000
0001
0000
,
0200
0000
0000
0300
,
0010
0000
0100
0000
,
0001
1000
0001
0000
,
0100
0000
0010
0000
,
1000
1000
1000
0000
,
1001
0000
0000
0000
,
0101
0000
0000
0000
,
1010
0000
0000
0000
,
0110
0000
0000
0000
,
0100
0000
0000
0000
,
0100
0000
0000
0010
,
0000
1000
0000
0001
,
2000
0000
0000
3000
,
0001
0000
1000
0000
,
0010
0010
0100
0000
,
0001
0000
1000
0000
,
0200
0000
0000
0300
,
0010
0000
0100
0000
,
1000
1000
1000
0000
,
0001
0000
0100
0000
,
0010
0010
0010
0000
,
0101
0000
0000
0000
,
1100
0000
0000
0000
,
0011
0000
0000
0000
,
1010
0000
0000
0000
,
0110
0000
0000
0000
,
1001
0000
0000
0000
,
0001
0000
1000
0000
,
0010
0010
0010
0000
,
1000
0000
0001
0000
,
0100
0100
0100
0000
,
0020
0000
0000
0000
,
0030
0000
0000
0000
,
0200
0000
0000
0000
,
0301
0001
0001
1000
,
0001
0001
0001
0100
,
0001
0001
0001
0010
,
0001
0001
0001
1000
,
0100
1000
0010
0100
,
0001
0010
0100
0000
,
0010
0001
0100
0010
,
1000
0100
0010
0000
,
0200
0000
0000
0000
,
2000
0000
0000
0000
,
0000
0000
0000
0000
,
0000
0000
0000
3300
;

//---------------dance-single - ----------------
#NOTES:
     dance-single:
     :
     Beginner:
     1:
     0.084,0.147,0.054,0.018,0.000:
0000
0000
0000
0000
,
0000
0000
0000
0000
,
0000
0000
0000
0000
,
0000
0000
0000
0000
,
0000
0000
0000
0000
,
0100
0000
0000
0000
,
0100
0000
0000
0000
,
0010
0000
0000
0000
,
1000
0000
0000
0000
,
0001
0000
0000
0000
,
0001
0000
0000
0000
,
0001
0000
0000
0000
,
0200
0000
0000
0300
,
0010
0000
0000
0000
,
0010
0000
0000
0000
,
0010
0000
0000
0000
,
0010
0010
0010
0000
,
1001
0000
0000
0000
,
1000
0000
0000
0000
,
0110
0000
0000
0000
,
0100
0000
0000
0000
,
0010
0000
0000
0000
,
0010
0000
0000
1000
,
0000
1000
0000
1000
,
0001
0000
0000
0000
,
0100
0000
0000
0000
,
0010
0000
0000
0000
,
1000
0000
0000
0000
,
0200
0000
0000
0300
,
0010
0000
0000
0000
,
0001
0000
0000
0000
,
0100
0000
0000
0000
,
0010
0000
0000
0000
,
1001
0000
0000
0000
,
0010
0000
0000
0000
,
1001
0000
0000
0000
,
0100
0000
0000
0000
,
0001
0000
1000
0000
,
0010
0000
0100
0000
,
0110
0000
0000
0000
,
0100
0000
0000
0000
,
1001
0000
0000
0000
,
0010
0000
0000
0000
,
0100
0000
0000
0000
,
0010
0000
1000
0000
,
0001
0000
0000
0000
,
1000
0000
0000
0000
,
0001
0000
0000
0000
,
0100
0000
0000
0000
,
0010
0000
0000
0000
,
1000
0000
0000
0000
,
0001
0000
0000
0000
,
0100
0000
0000
0000
,
0010
0000
0000
0000
,
0100
0000
0000
0000
,
0010
0000
0000
0000
;
