#TITLE:The Great Gianna Sisters;
#SUBTITLE:;
#ARTIST:Machinae Supremacy;
#TITLETRANSLIT:;
#SUBTITLETRANSLIT:;
#ARTISTTRANSLIT:;
#CREDIT:;
#BANNER:bn.png;
#BACKGROUND:bg.png;
#LYRICSPATH:;
#CDTITLE:;
#MUSIC:The Great Gianna Sisters.mp3;
#OFFSET:0.048;
#SAMPLESTART:52.980;
#SAMPLELENGTH:12.000;
#SELECTABLE:YES;
#BPMS:0.000=125.240,40.000=170.000,216.000=125.000;
#STOPS:215.500=0.706
,215.750=0.882
;
#BGCHANGES:;

//---------------dance-single - ----------------
#NOTES:
     dance-single:
     :
     Hard:
     7:
     0.340,0.470,0.122,0.191,0.145:
0000
0000
0000
0000
,
0000
0000
0000
0000
,
0000
0000
0000
0000
,
0000
0000
0000
0000
,
1000
0000
0000
0000
,
0001
0000
0000
0000
,
0100
0000
0000
0000
,
0001
0000
0000
0000
,
0100
0001
0100
0001
,
0100
0010
0100
0010
,
1001
0000
0000
0000
,
0101
0000
0000
0000
,
2010
0000
0000
0000
,
0020
0000
0000
3030
,
1000
0001
0000
1001
0000
1001
0000
0100
,
0010
0010
0000
0110
0000
0110
0000
0010
,
1000
0100
1000
0100
,
0010
0001
0010
0001
,
0100
0010
1000
0001
,
0010
0100
0010
0001
,
1000
0001
0100
1000
,
0100
0001
0100
1000
,
0100
0010
0010
1000
,
0001
0010
1000
0010
,
0001
0000
0001
0100
0010
0000
0100
0010
,
1000
0000
0010
0100
0010
0000
1000
0000
,
0001
0000
0010
0100
0010
0000
0100
1000
,
0100
0000
1000
0010
1000
0000
0010
0000
,
0100
0000
0010
1000
0001
0000
0001
0010
,
0100
0000
0100
0010
0001
0000
1000
0000
,
0001
0000
0001
0100
0010
0000
0010
0100
,
0010
0000
0100
0010
1000
0000
0001
0000
,
0000
0000
0000
0000
,
0000
0000
0000
0000
,
0001
0000
0100
0010
0000
1000
0010
0100
,
0000
0010
1000
0100
0000
1000
0100
1000
,
1000
0000
0100
0010
0001
0000
0010
0002
,
0000
0000
0000
0003
,
1001
0000
0000
0000
0000
0001
0100
0010
,
0110
0000
0010
1000
0000
0010
0000
0100
,
0110
0010
1000
0001
,
0001
0010
0001
0010
,
0200
0000
0000
0000
0000
0310
0010
0001
,
1000
0000
1000
0020
0000
0230
0000
0002
,
0000
0000
0000
0000
0000
0000
0000
0303
,
0001
0100
0010
1000
0001
0010
0100
1000
,
0002
0000
0000
0000
0000
1003
1000
0010
,
0100
0100
0010
0010
,
2002
0000
0000
0000
3003
0001
0100
1000
,
0100
0100
0010
0010
,
2020
0000
0000
0000
3030
0010
1000
0001
,
1000
0001
1000
0010
0001
0010
0100
0010
,
2000
0000
0000
0000
,
3000
0000
0000
0000
0000
0000
0100
1000
0100
0000
0000
0100
0000
0000
0100
0010
,
2002
0000
0000
0000
0000
0000
0000
0000
0000
3003
0000
0001
,
0100
0000
0000
0000
0000
0000
0000
0000
0010
0100
0000
0010
,
0100
0000
0000
0000
0000
0000
0000
0000
0000
0000
0000
0010
,
1000
0000
0000
0000
0000
0000
0000
0000
1000
0100
0000
0100
,
0020
0000
0000
0000
0000
0001
0000
0000
0000
0002
0000
0000
0000
0000
0000
0000
0000
0000
0000
0000
0000
0000
0000
0000
,
0003
0000
0000
0000
0000
0000
0000
0000
0000
0030
0000
0000
0000
0000
0000
0000
0100
0000
0010
0000
0000
0000
0000
0000
,
0100
0000
1000
0001
0000
0000
0100
0000
0000
0010
0000
1000
,
0000
0000
0000
0000
0000
0000
0000
0000
0001
0100
0000
0100
,
0010
0000
0000
0100
0000
0000
0010
0000
0000
1000
0000
0001
,
0010
0000
0010
0100
0000
0100
1000
0000
1000
0001
0000
0000
,
1000
0000
0010
0100
0000
0000
0001
0000
0000
1000
0000
0200
,
0000
0000
0000
0000
,
0320
0000
0000
0030
0000
0010
0001
0000
0001
0100
0000
0100
,
0020
0000
0000
0000
0000
0130
0010
0000
0010
1000
0000
1000
,
0002
0000
0000
0000
,
0003
0000
0000
1000
0000
1000
0000
0000
0001
0001
0000
0001
,
0200
0000
0000
0300
0000
0010
1000
0000
1000
0010
0000
0010
,
0100
0000
0000
0000
0000
0010
1000
0000
1000
0001
0000
0001
,
0020
0000
0000
0000
,
0030
0000
0000
0001
0000
0001
0000
0000
1000
1000
0000
0000
,
1001
0000
0000
0110
0000
0000
0000
0000
,
2002
0000
0000
0000
,
0000
0000
0000
0000
,
3003
0000
0000
0000
;

//---------------dance-single - ----------------
#NOTES:
     dance-single:
     :
     Medium:
     5:
     0.264,0.382,0.130,0.099,0.015:
0000
0000
0000
0000
,
0000
0000
0000
0000
,
0000
0000
0000
0000
,
0000
0000
0000
0000
,
0000
0000
0000
0000
,
0000
0000
0000
0000
,
0000
0000
0000
0000
,
0000
0000
0000
0000
,
0001
1000
0001
1000
,
0001
1000
0001
1000
,
0110
0000
0000
0000
0000
0000
0000
0010
,
0010
0000
0000
0000
,
0200
0000
0000
0000
0000
0000
0000
0001
,
0301
0000
0000
0000
,
0001
1000
0000
0010
0000
1000
0000
0010
,
0100
0010
0000
1000
0010
1000
0000
0000
,
0010
1000
0001
0010
,
0100
0010
0001
1000
,
0100
0001
0100
0010
,
1000
1000
0001
0001
,
1000
0001
0010
0001
,
0100
1000
0100
0010
,
1000
0001
0010
0100
,
0010
0001
1000
0010
,
0100
0010
0100
0000
0010
0000
1000
0000
,
0001
0010
0001
0000
0010
0000
0100
0000
,
1000
0100
1000
0000
0010
0000
0100
0000
,
0001
0100
0001
0000
0100
0001
0100
0000
,
0001
0100
0010
0000
1000
0000
0010
0000
,
0100
0010
1000
0000
0001
0000
0010
0000
,
0100
1000
0010
0000
0100
0010
1000
0000
,
0001
0010
0100
0000
0100
1000
0010
0000
,
0000
0000
0000
0000
,
0000
0000
0000
0000
,
1001
0000
0001
0100
0000
0010
0100
0010
,
0000
0010
1000
0000
0010
0000
0100
0000
,
0010
0000
1000
0001
1000
0000
0001
0200
,
0000
0000
0000
0300
,
0110
0000
0000
0000
,
1001
0000
0000
0000
,
0101
0001
0100
1000
,
0100
0010
1000
0001
,
1001
0001
0100
0001
,
0011
0001
0010
0100
,
1100
0100
1000
0010
,
0100
0100
0010
1000
,
1001
0000
0001
0000
0100
0000
0010
1000
,
1010
0010
1000
0100
,
0110
0000
0010
0000
0001
0000
0010
0100
,
0110
0010
0001
1000
,
1010
0000
0010
0000
0100
0000
0010
1000
,
1001
0001
1000
0100
,
0020
0000
0000
0000
,
0000
0000
0130
0000
,
2002
0000
0000
3003
,
0001
0000
0000
1000
,
1000
0000
0000
0000
,
0010
0000
0000
0100
,
0001
0000
0000
1000
0000
1000
0000
0000
0000
0000
0000
0000
,
0000
0000
0000
0010
,
0100
0000
0000
0001
0000
0000
1000
0000
0000
0100
0000
0100
,
0000
0000
0000
0100
,
1000
0000
0000
0010
0000
0010
0000
0000
0000
0000
0000
0000
,
0000
0000
0000
0100
,
0001
0000
0000
1000
0000
0000
0001
0000
0000
0010
0000
0001
,
0000
0000
0000
0000
,
0001
0000
0100
0001
,
0020
0030
0100
1000
,
0020
0000
0000
0000
,
0030
0000
0000
0000
,
0110
0000
0100
0002
,
2000
3003
1000
0020
,
0200
0000
0000
0000
,
0330
0000
0000
0000
,
1000
0000
0000
0001
0000
0000
0000
0000
,
0202
0000
0000
0000
,
0000
0000
0000
0000
,
0303
0000
0000
0000
;

//---------------dance-single - ----------------
#NOTES:
     dance-single:
     :
     Easy:
     3:
     0.180,0.264,0.145,0.107,0.000:
0000
0000
0000
0000
,
0000
0000
0000
0000
,
0000
0000
0000
0000
,
0000
0000
0000
0000
,
0000
0000
0000
0000
,
0000
0000
0000
0000
,
0000
0000
0000
0000
,
0000
0000
0000
0000
,
0010
0000
0100
0000
,
0001
0000
1000
0000
,
1001
0000
0000
0000
,
0110
0000
0000
0000
,
0202
0000
0000
0000
,
0000
0000
0000
0303
,
1001
0000
0010
0000
,
1001
0000
0100
0000
,
0001
0000
1000
0000
,
0010
0000
1000
1000
,
0001
0000
0010
0000
,
0001
0000
0100
0010
,
1000
0000
0100
0000
,
1000
0000
0001
0000
,
0100
0000
0001
0000
,
0010
0000
0100
0000
,
1000
0100
1000
0100
,
1000
0100
1000
1000
,
0001
0100
0001
0100
,
0001
0100
0010
0010
,
0100
0001
0100
0001
,
0100
0001
1000
1000
,
0100
0010
0100
0010
,
0001
0010
0100
1000
,
0001
0000
0000
0000
,
0000
0000
0000
0000
,
0001
0000
1000
0000
,
0010
1000
0010
0100
,
0001
0000
1000
0000
,
0200
0000
0000
0300
,
0110
0000
0000
0000
,
1001
0000
0000
0000
,
0101
0000
0001
0000
,
0100
0000
0010
0000
,
0110
0000
0000
0000
,
1001
0000
0000
0000
,
1100
0000
0100
0000
,
0010
0000
0100
0000
,
1100
0000
0000
0100
,
0010
0000
0000
0001
,
1001
0000
0000
0100
,
0101
0000
0000
0010
,
0110
0000
0000
0010
,
1010
0010
1000
0001
,
0020
0000
0000
0000
,
0000
0000
0030
0000
,
0000
0000
0000
0000
,
0000
0000
0000
0000
,
0000
0000
0000
0000
,
0000
0000
0000
0000
,
0010
0001
2000
0000
,
0000
3000
0000
1000
,
1000
0001
0100
0001
,
0020
0000
0000
0030
,
0100
0100
0020
0000
,
0000
0000
0030
0001
,
1000
0010
1000
0100
,
2000
0000
0000
3000
,
0001
0000
0100
0010
,
2000
0000
0010
0010
,
0020
0000
0000
0000
,
3030
0000
0000
0000
,
0110
0000
0010
1000
,
0002
0000
0010
0010
,
0020
0000
0000
0000
,
0000
0000
0000
0033
,
0110
0000
0000
0000
,
2002
0000
0000
0000
,
0000
0000
0000
0000
,
3003
0000
0000
0000
;

//---------------dance-single - ----------------
#NOTES:
     dance-single:
     :
     Beginner:
     2:
     0.111,0.200,0.023,0.000,0.000: // measure 1
0000
0000
0000
0000
,  // measure 2
0000
0000
0000
0000
,  // measure 3
0000
0000
0000
0000
,  // measure 4
0000
0000
0000
0000
,  // measure 5
0000
0000
0000
0000
,  // measure 6
0000
0000
0000
0000
,  // measure 7
0000
0000
0000
0000
,  // measure 8
0000
0000
0000
0000
,  // measure 9
0000
0000
0000
0000
,  // measure 10
0000
0000
0000
0000
,  // measure 11
1001
0000
0000
0000
,  // measure 12
0100
0000
0000
0000
,  // measure 13
0010
0000
0000
0000
,  // measure 14
0010
0000
0000
0000
,  // measure 15
1000
0000
1000
0000
,  // measure 16
0001
0000
0001
0000
,  // measure 17
0100
0000
0010
0000
,  // measure 18
0010
0000
1000
0000
,  // measure 19
0001
0000
1000
0000
,  // measure 20
0010
0000
1000
0000
,  // measure 21
0001
0000
0100
0000
,  // measure 22
0001
0000
1000
0000
,  // measure 23
0100
0000
1000
0000
,  // measure 24
0010
0010
0010
0010
,  // measure 25
0100
0000
0010
0000
,  // measure 26
0000
0010
1000
0000
,  // measure 27
0001
0000
0001
0000
,  // measure 28
0000
1000
0010
0000
,  // measure 29
0100
0000
0100
0000
,  // measure 30
0000
0010
1000
0000
,  // measure 31
0001
0000
1000
0000
,  // measure 32
0000
0001
0010
0000
,  // measure 33
0000
0000
0000
0000
,  // measure 34
0000
0000
0000
0000
,  // measure 35
0100
0000
0000
0000
,  // measure 36
1000
0000
0000
0000
,  // measure 37
0001
0000
1000
0000
,  // measure 38
0010
0000
0000
0000
,  // measure 39
0100
0000
0000
0000
,  // measure 40
0001
0000
0000
0000
,  // measure 41
1000
0000
1000
0000
,  // measure 42
1000
0000
0001
0000
,  // measure 43
0100
0000
0000
0000
,  // measure 44
0001
0000
0000
0000
,  // measure 45
1000
0000
1000
0000
,  // measure 46
1000
0000
1000
0000
,  // measure 47
0010
0000
0000
0000
,  // measure 48
0100
0000
0000
0000
,  // measure 49
0001
0000
0000
0000
,  // measure 50
1000
0000
0000
0000
,  // measure 51
0100
0000
0000
0000
,  // measure 52
1000
0000
0010
0000
,  // measure 53
0100
0000
0000
0000
,  // measure 54
0000
0000
0000
0000
,  // measure 55
0010
0000
0000
0000
,  // measure 56
0100
0000
0000
0001
,  // measure 57
0001
0000
0000
0000
,  // measure 58
1000
0000
0000
0000
,  // measure 59
0100
0000
0000
0000
,  // measure 60
0000
0000
0000
0010
,  // measure 61
0010
0000
0100
0000
,  // measure 62
1000
0000
0000
0001
,  // measure 63
0001
0000
0100
0000
,  // measure 64
0000
0000
0000
0000
,  // measure 65
0001
0000
1000
0000
,  // measure 66
0100
0000
0000
0000
,  // measure 67
1000
0000
0010
0010
,  // measure 68
0010
0000
0010
0010
,  // measure 69
0010
0000
0000
0000
,  // measure 70
0000
0000
0000
0000
,  // measure 71
0001
0000
0100
0100
,  // measure 72
0100
0000
0100
0100
,  // measure 73
0100
0000
0000
0000
,  // measure 74
0000
0000
0000
0000
,  // measure 75
1001
0000
0000
0000
,  // measure 76
0110
0000
0000
0000
;
