#TITLE:The Great Blizzard Of 9X;
#SUBTITLE:;
#ARTIST:halc;
#TITLETRANSLIT:;
#SUBTITLETRANSLIT:;
#ARTISTTRANSLIT:;
#GENRE:;
#CREDIT:;
#BANNER:bn.png;
#BACKGROUND:bg.png;
#LYRICSPATH:;
#CDTITLE:;
#MUSIC:TheGreatBlizzardOf9X.mp3;
#OFFSET:-0.382;
#SAMPLESTART:16.358;
#SAMPLELENGTH:12.000;
#SELECTABLE:YES;
#BPMS:0.000=180.000
,288.000=90.000
,336.000=180.000
;
#STOPS:
;
#BGCHANGES:;
#KEYSOUNDS:;
#ATTACKS:;

//---------------dance-single - Blank----------------
#NOTES:
     dance-single:
     :
     Hard:
     9:
     0.546,0.893,0.334,0.273,0.159,424.000,44.000,36.000,0.000,0.000,0.000,0.546,0.893,0.334,0.273,0.159,424.000,44.000,36.000,0.000,0.000,0.000:
0000
0000
0000
0000
,
0000
0000
0000
0000
,
0000
0000
0000
0000
,
0000
0000
0000
0000
,
0000
0000
0000
0000
,
0000
0000
0000
0000
,
0000
0000
0000
0000
,
0000
0000
0000
0000
,
0000
0000
0000
0000
,
0000
0000
0000
0000
,
0000
0000
0000
0000
,
0000
0000
0000
0000
0000
1000
0010
0100
,
0002
0000
1003
0002
,
0000
0000
0013
0000
0002
0000
0103
1000
,
0100
0010
1000
0000
0000
0000
0000
0000
,
2000
0000
3010
2000
,
0000
3100
2000
0000
,
3001
0100
0001
0000
0100
0000
1000
0000
,
0100
0010
1000
0100
0010
0001
0000
1000
,
0001
0100
0001
0010
0002
0000
0103
0000
,
0100
0010
1000
0010
0100
0001
0010
0100
,
0010
0001
1000
0010
0100
0010
1000
0001
,
0010
0100
0010
0001
0010
0100
1000
0100
,
0010
1000
0001
0010
0001
0100
1000
0100
,
0010
0000
0000
1000
,
0000
0000
0001
0000
,
0000
0000
0010
0000
0000
0000
0100
1000
,
0100
0000
0000
0010
,
0000
0000
0000
0000
0001
0010
0100
0010
,
0001
0010
0100
1000
0100
0010
0100
1000
,
0001
0000
0000
0100
,
0000
0000
1000
0000
,
0000
0100
0000
0010
,
1000
0000
0000
0100
,
0000
0000
0010
0000
,
0000
0010
0100
1000
,
0001
0100
0001
0000
0001
0010
0001
1000
,
0001
0000
0001
0100
0001
0010
0001
0000
,
0001
0000
0000
0100
0000
0000
0010
0000
1000
0000
0010
0000
1000
0000
0010
0000
1000
0000
0010
0000
1000
0000
0010
0000
,
1000
0000
1000
0010
0100
0000
0010
0000
,
0100
0001
1000
0000
1000
0001
0010
0001
,
0010
0000
0100
1000
0100
1000
0100
0000
1000
0000
0010
0000
0100
0000
1000
0000
,
0100
0000
0010
0000
1000
0000
0001
0000
0010
0000
0100
0010
0001
0000
0000
0000
,
1000
0000
0000
0000
0001
0000
0001
0100
0001
0000
0000
0000
0000
0000
0000
0000
,
0000
0000
0000
0000
0100
0000
0000
0000
0000
0000
0000
0000
0010
0000
0100
0010
,
0100
0010
1000
0001
0010
0001
1000
0000
,
0001
0000
0000
0000
0010
0000
0100
1000
0100
0000
0000
0000
0010
0000
0000
0000
,
0010
0010
0000
0000
,
1001
0001
0100
1010
,
0010
0110
0101
0001
,
1001
1100
0100
1000
,
1010
0110
1010
1001
,
0011
0110
1100
0110
,
1001
0101
0110
1001
,
0101
0001
0000
0100
0010
0100
0000
0000
,
0000
0100
0010
1000
0001
0000
1001
0000
,
0001
0100
0010
1000
0001
0100
0010
1000
,
0001
0100
1000
0100
0001
0010
0100
1000
,
0100
0010
0100
1000
0010
0100
0001
0010
,
0100
1000
0001
0010
0001
1000
0001
1000
,
0002
0000
0100
0200
,
0003
0010
0020
0300
,
1000
0000
0000
0000
2000
0000
0000
0000
0000
0000
0000
0000
3030
0000
0000
0010
,
2000
3002
2003
3200
,
2300
0000
3020
0000
0230
0320
2030
3002
,
0023
0230
0320
0032
0023
0230
2300
3200
,
0320
0000
0000
0002
,
0030
0023
0031
0002
,
0103
0010
1000
0100
1000
0010
0100
0001
,
0010
0001
1000
0100
1000
0001
0100
0001
,
0010
0100
1000
0100
1000
0010
0100
0001
,
0010
1000
0010
0001
0100
0001
1000
0100
,
1000
0100
0010
1001
0001
0010
0110
0010
,
0001
0000
0101
0000
0001
0000
0100
0010
0110
0000
0010
0000
1000
0000
1010
0000
,
0010
0000
0100
0000
0010
1000
0010
1000
0010
1000
0010
0001
0010
0001
0010
0001
,
0011
0010
0100
1001
0001
0100
1010
1000
,
0100
0110
1000
1100
0011
0001
0100
0110
,
0010
1000
0101
0001
0100
0101
1100
0101
,
1001
0001
0100
0110
0010
1000
0110
0010
,
0001
0000
0101
0000
0100
0000
0010
1000
0001
0000
0000
0000
0000
0000
0110
0000
,
0000
0000
0000
0000
0010
0000
0000
0000
0001
0000
0100
0000
0010
0000
0100
0000
0001
0000
1000
0001
1000
0001
1000
0000
0100
0000
0010
0000
0100
0000
1000
0000
,
0010
0000
0001
0000
0010
0000
0100
0000
0010
0000
1000
0010
1000
0000
0000
0000
0001
0000
0000
0000
0010
0000
0100
1000
0001
0000
0000
0000
0000
0000
0000
0000
,
0000
0000
0000
0000
1001
0000
0000
0000
0000
0000
0000
0000
0101
0000
0001
0010
0001
0000
0010
0000
1000
0000
0010
0000
0001
0000
0100
0000
1000
0000
0000
0000
,
0100
0000
0000
0000
0010
0000
0100
0001
0100
0000
0000
0000
0000
0000
0000
0000
0000
0000
0000
0000
1002
0000
0000
0000
0203
0000
0000
0000
0302
0000
0000
0000
,
0013
0000
0000
0000
;

//---------------dance-single - Blank----------------
#NOTES:
     dance-single:
     :
     Medium:
     6:
     0.321,0.606,0.053,0.197,0.057,263.000,7.000,26.000,0.000,0.000,0.000,0.321,0.606,0.053,0.197,0.057,263.000,7.000,26.000,0.000,0.000,0.000:
0000
0000
0000
0000
,
0000
0000
0000
0000
,
0000
0000
0000
0000
,
0000
0000
0000
0000
,
0000
0000
0000
0000
,
0000
0000
0000
0000
,
0000
0000
0000
0000
,
0000
0000
0000
0000
,
0000
0000
0000
0000
,
0000
0000
0000
0000
,
0000
0000
0000
0000
,
0000
0000
0000
0000
,
0002
0000
0103
0002
,
0000
0103
0001
1000
,
0100
0020
0000
0030
,
0200
0000
0310
0200
,
0000
0310
0200
0000
,
0310
0001
1000
0010
,
0100
0000
0000
0000
,
0000
0000
0000
0010
,
0100
0010
1000
0000
0001
0000
0010
0000
,
0100
0010
0001
1000
,
0001
0100
0001
0100
,
1000
0100
0010
1000
,
0002
0000
0003
2000
,
0000
3000
0020
0000
,
0030
0000
0200
0000
0000
0000
0310
1000
,
0020
0000
0030
2000
,
0000
0000
3000
0000
0001
1000
0001
1000
,
0001
1000
0001
1000
0001
1000
0001
1000
,
0002
0000
0003
0200
,
0000
0300
0002
0000
,
0003
0200
0000
0310
,
0200
0000
0300
0020
,
0000
0030
2000
0000
,
3000
1000
0100
0010
,
0001
0010
1000
0010
,
0001
0100
0010
1000
,
0001
0000
0010
0000
0001
0000
0001
0100
,
1000
0100
0010
0110
,
0010
0000
1000
0000
0010
1000
0010
1000
,
0010
1000
0010
1000
0010
1000
0010
1000
,
0001
0000
0000
0000
0000
0001
0010
0000
,
0001
0000
0010
0100
1000
0000
0000
0000
,
0000
0000
0100
0000
0000
0010
0001
1000
,
0000
0000
0000
0001
,
0100
1000
0100
0000
,
0000
0000
0000
0000
,
0010
0000
0000
1000
,
0000
0001
0010
0000
,
0001
0010
0000
0000
,
0001
0100
1000
0100
,
1000
0100
0010
0001
,
0010
1000
0010
0100
,
0001
0000
0010
0100
,
0000
0100
1000
0100
,
1000
0010
0001
0010
,
1000
0010
0001
0100
,
0010
1000
0001
0001
,
1000
1000
0001
0100
,
0002
0000
0103
0002
,
0000
0013
0200
0000
,
1300
0200
0000
0000
,
2300
3010
0100
0010
,
1000
0000
0001
0000
0010
0001
0010
0000
,
0001
0000
0100
0010
1000
0001
0010
0100
,
2000
0000
0000
3200
,
0000
0000
0310
0001
,
0010
0100
1000
0010
,
0100
0001
1000
0001
,
0100
1000
0100
0010
,
1000
0001
0010
0100
,
1000
0000
0000
0001
0000
0000
0100
0000
,
0000
0000
0010
0000
0000
0000
1000
0010
0100
0000
0000
0000
0000
0000
0010
0000
,
0000
0000
0000
0000
0001
1000
0001
1000
0001
1000
0001
1000
0001
1000
0001
1000
,
0001
0000
0000
0100
0000
0000
0010
0000
,
0000
1000
0000
0100
1000
0000
0000
0100
,
0000
0000
0010
0000
0000
0001
0010
0100
,
1100
0000
0000
1001
0000
0000
0101
0000
,
0000
0011
0000
0000
0110
0000
0000
1100
,
0000
0000
0000
0000
0100
0010
0100
0010
0100
0010
0100
0010
0100
0010
0100
0010
,
0001
0000
0000
0000
0000
0001
0100
0000
0010
0000
1000
0010
0100
0000
0000
0000
,
0000
0010
0000
0100
0001
0000
0000
1000
,
0001
0010
0100
0000
0000
0010
0001
1000
,
1000
0000
0000
0000
;

//---------------dance-single - Blank----------------
#NOTES:
     dance-single:
     :
     Easy:
     5:
     0.233,0.351,0.008,0.023,0.000,211.000,1.000,3.000,0.000,0.000,0.000,0.233,0.351,0.008,0.023,0.000,211.000,1.000,3.000,0.000,0.000,0.000:
0000
0000
0000
0000
,
0000
0000
0000
0000
,
0000
0000
0000
0000
,
0000
0000
0000
0000
,
0000
0000
0000
0000
,
0000
0000
0000
0000
,
0000
0000
0000
0000
,
0000
0000
0000
0000
,
0000
0000
0000
0000
,
0000
0000
0000
0000
,
0000
0000
0000
0000
,
0000
0000
0000
0000
,
1000
0000
0010
0100
,
0000
0010
1000
0001
,
0010
0002
0000
0003
,
0100
0000
0010
1000
,
0000
0010
0100
0000
,
0100
0010
1000
0001
,
0020
0000
0030
0000
,
0000
0000
0000
0100
,
1000
0100
0010
0100
,
1000
0001
0100
0001
,
0010
0001
0100
0010
,
1000
0001
0010
0100
,
1000
0000
0000
0001
,
0000
0000
0100
0000
,
0000
0000
0010
0000
0000
0000
0100
0010
,
0100
0000
0000
0010
,
0000
0000
1000
0100
,
0010
0001
0010
0100
,
1000
0000
0000
0100
,
0000
0000
1000
0000
,
0000
0010
0000
0100
,
0001
0000
0000
0010
,
0000
0000
0001
0000
,
0000
0001
0010
0100
,
1000
0100
1000
0010
,
0000
0000
0100
0010
,
1000
0001
0000
1000
,
1000
0000
0000
0101
,
0000
0001
0100
1000
,
0100
0010
1000
0001
,
0010
0000
0000
0010
,
0001
1000
0100
0000
,
0000
1000
0000
0010
,
0100
0000
0000
0010
,
1000
0001
0010
0000
,
0000
0000
0000
0000
,
0001
0000
0000
1000
,
0000
0000
0010
0000
,
0000
0100
0000
0000
,
0010
0100
0010
0100
,
0010
0100
0001
1000
,
0001
1000
1000
1000
,
1000
0000
0000
0000
,
0000
0000
0000
0001
,
0100
0010
1000
0010
,
0001
0010
0100
0010
,
1000
0001
0010
0100
,
1000
0100
1000
0010
,
0100
0000
0010
1000
,
0000
0010
0100
0000
,
0010
0001
0000
0000
,
0001
0100
0010
1000
,
0001
0010
0100
0100
,
0010
0010
0001
1000
,
0002
0000
0000
0003
,
0000
0000
0000
0001
,
0100
0100
0010
1000
,
0010
0001
0010
0100
,
0010
1000
0001
0010
,
0100
1000
0100
1000
,
0010
0000
0000
0100
0000
0000
0001
0000
,
0000
1000
0000
0000
0100
0000
0000
1000
,
0000
0000
1000
0010
0100
0001
0010
0100
,
1000
0000
0000
0100
0000
0000
1000
0000
,
0000
0010
0000
0000
0100
0000
0000
0001
,
0000
0000
0001
0000
0000
0001
0010
0100
,
1000
0000
0000
0010
0000
0000
0100
0000
,
0000
0010
0000
0000
1000
0000
0000
0001
,
0000
0000
0010
0001
0010
0100
0010
0001
,
1000
0000
0000
0010
0100
0001
1000
0000
,
0000
0100
0000
0010
0001
0000
0000
0001
,
0100
0010
0100
0000
0000
0010
1000
0001
,
1000
0000
0000
0000
;

//---------------dance-single - Blank----------------
#NOTES:
     dance-single:
     :
     Beginner:
     2:
     0.108,0.191,0.068,0.000,0.000,91.000,9.000,0.000,0.000,0.000,0.000,0.108,0.191,0.068,0.000,0.000,91.000,9.000,0.000,0.000,0.000,0.000: // measure 0
0000
0000
0000
0000
,  // measure 1
0000
0000
0000
0000
,  // measure 2
0000
0000
0000
0000
,  // measure 3
0000
0000
0000
0000
,  // measure 4
0000
0000
0000
0000
,  // measure 5
0000
0000
0000
0000
,  // measure 6
0000
0000
0000
0000
,  // measure 7
0000
0000
0000
0000
,  // measure 8
0000
0000
0000
0000
,  // measure 9
0000
0000
0000
0000
,  // measure 10
0000
0000
0000
0000
,  // measure 11
0000
0000
0000
0000
,  // measure 12
1000
0000
0000
1000
,  // measure 13
0000
0000
0001
0000
,  // measure 14
0000
0001
0000
0000
,  // measure 15
0100
0000
0000
0010
,  // measure 16
0000
0000
1000
0000
,  // measure 17
0000
0001
1000
0001
,  // measure 18
1000
0000
0000
0000
,  // measure 19
0000
0000
0000
0010
,  // measure 20
0000
0000
0000
0000
,  // measure 21
0100
0000
0000
0000
,  // measure 22
0000
0000
1000
0000
,  // measure 23
0000
0001
0000
0000
,  // measure 24
0010
0000
0000
0001
,  // measure 25
0000
0000
0001
0000
,  // measure 26
0000
1000
0000
0000
,  // measure 27
0001
0000
0000
0100
,  // measure 28
0000
0000
0010
0000
,  // measure 29
0000
0000
0000
0000
,  // measure 30
0100
0000
0000
0100
,  // measure 31
0000
0000
0010
0000
,  // measure 32
0000
0010
0000
0000
,  // measure 33
1000
0000
0000
1000
,  // measure 34
0000
0000
0001
0000
,  // measure 35
0000
0001
0000
0000
,  // measure 36
1000
0000
0000
0001
,  // measure 37
0000
0000
1000
0000
,  // measure 38
0000
0010
0000
0000
,  // measure 39
0100
0000
0000
0001
,  // measure 40
0000
0000
1000
0000
,  // measure 41
0000
0001
0000
0000
,  // measure 42
1000
0000
0000
0010
,  // measure 43
0010
0010
0010
0000
,  // measure 44
0000
0100
0000
0000
,  // measure 45
0010
0000
0000
1000
,  // measure 46
0000
0001
0001
0000
,  // measure 47
0000
0000
0000
0000
,  // measure 48
1000
0000
0000
0001
,  // measure 49
0000
0000
1000
0000
,  // measure 50
0000
0010
0000
0000
,  // measure 51
0100
0000
0000
0000
,  // measure 52
0000
0000
0010
0000
,  // measure 53
0000
0010
0000
0000
,  // measure 54
0100
0000
0000
0000
,  // measure 55
0000
0000
0001
0000
,  // measure 56
0000
0000
0000
0000
,  // measure 57
1000
0000
0000
0000
,  // measure 58
0000
0000
0100
0000
,  // measure 59
0000
0100
0000
0000
,  // measure 60
0010
0000
0000
0000
,  // measure 61
0000
0000
0001
0000
,  // measure 62
0000
0001
0000
0000
,  // measure 63
1000
0000
0000
0010
,  // measure 64
0000
0000
0100
0000
,  // measure 65
0000
0010
1000
0010
,  // measure 66
0100
0000
0000
0000
,  // measure 67
0000
0000
0100
0000
,  // measure 68
0000
0000
0000
0000
,  // measure 69
0001
0000
0000
0000
,  // measure 70
0000
0000
1000
0000
,  // measure 71
0000
1000
0000
0000
,  // measure 72
1000
0000
0000
0001
,  // measure 73
0000
0000
0100
0000
,  // measure 74
0000
0010
0000
0000
,  // measure 75
0110
0000
0000
1000
,  // measure 76
0000
0000
0001
0000
,  // measure 77
0000
0010
0000
0000
,  // measure 78
1001
0000
0000
0110
,  // measure 79
0000
0000
0110
0000
,  // measure 80
0000
1001
0000
0000
,  // measure 81
0110
0000
0000
0110
,  // measure 82
0000
0000
1001
0000
,  // measure 83
0000
1001
0000
0000
,  // measure 84
0010
0000
0000
0000
;
