#TITLE:THE BLACK KNIGHT;
#SUBTITLE:;
#ARTIST:L.E.D.;
#TITLETRANSLIT:;
#SUBTITLETRANSLIT:;
#ARTISTTRANSLIT:;
#GENRE:GOA TRANCE;
#CREDIT:;
#BANNER:theblackknightbn.png;
#BACKGROUND:theblackknightbg.png;
#LYRICSPATH:;
#CDTITLE:;
#MUSIC:THE BLACK KNIGHT.mp3;
#OFFSET:-0.055;
#SAMPLESTART:57.704;
#SAMPLELENGTH:12.000;
#SELECTABLE:YES;
#BPMS:0.000=154.000
;
#STOPS:;
#BGCHANGES:;
#KEYSOUNDS:;
#ATTACKS:;

//---------------dance-single - ----------------
#NOTES:
     dance-single:
     :
     Hard:
     7:
     0.413,0.497,0.183,0.127,0.100,324.000,23.000,16.000,0.000,0.000,0.000,0.413,0.497,0.183,0.127,0.100,324.000,23.000,16.000,0.000,0.000,0.000:
0000
0000
0000
0000
,
0000
0000
0000
0000
,
0000
0000
0000
0000
,
0000
0000
0000
0000
,
0000
0000
0000
0000
,
0010
0000
0000
0000
0000
0000
0000
0100
,
0010
0000
0000
0000
0000
0000
0000
0100
,
0010
0000
0000
0100
0010
0000
0000
0100
,
0010
1001
0100
0000
,
0100
0010
0100
0001
,
0001
0000
1000
0000
1000
0001
0010
0000
,
0001
0100
1000
0100
,
0001
0000
0010
0000
0001
1000
0100
0000
,
1000
0000
1010
0000
1000
0001
0010
0000
,
0001
0000
0100
0000
0010
1000
0100
0000
,
1000
0000
0100
0000
1000
0010
0100
0000
,
0001
0000
0010
0000
0010
0100
0010
0001
,
0100
0000
0000
0100
0000
0000
0010
0000
0000
1000
0000
0000
0001
0000
0100
0000
,
0010
0000
0000
1000
0000
0000
0001
0000
0000
0010
0000
0000
0001
0000
0100
0000
,
0002
0103
2000
3010
,
1100
0100
0011
0000
,
1001
0000
0000
0100
0000
0000
0010
0000
0000
1000
0000
0000
1000
0000
0001
0000
,
0010
0000
0000
0100
0000
0000
0010
0000
0000
0001
0000
0000
0100
0000
0010
0000
,
1000
0000
0000
1000
0000
0000
0001
0000
0000
0010
0000
0000
0001
0000
1000
0000
,
0010
0100
0001
0000
0001
1000
0100
0000
,
1100
0000
0000
1000
0000
0000
0010
0000
0000
0100
0000
0000
0010
0000
1000
0000
,
0001
0000
0000
0010
0000
0000
0001
0000
0000
0100
0000
0000
0010
0000
1000
0000
,
0200
1000
0010
0301
,
0020
1000
0100
0031
,
1000
0001
0010
0000
0001
0000
0010
0000
,
0001
0100
0010
0000
0100
0000
0010
0000
,
0100
1000
0001
0000
0010
0000
0001
0000
,
0010
0001
0100
0000
0010
1000
0100
0010
,
0100
0000
1000
0000
0100
1000
0010
0000
,
0100
0000
0001
0000
0010
0100
0010
0000
,
0100
0000
1000
0000
0001
0100
0001
0000
,
0010
1000
0100
0000
0100
0010
0001
0010
,
0220
0000
0000
0000
0000
0000
0000
0330
,
1000
0000
0000
0001
0000
0000
0010
0000
0000
0001
0000
0000
0100
0000
0010
0000
,
2000
0000
0000
0000
,
3100
0000
1000
0010
0000
0100
1000
0000
,
0022
0000
0000
0033
,
0001
0000
0000
0010
0000
0000
0001
0000
0100
0000
0000
0010
0000
0000
1000
0000
,
0200
0000
0000
0000
,
1300
0000
0001
0010
0000
0010
0100
0000
,
1000
0000
0000
0010
0000
0000
0100
0000
0001
0000
0000
0010
0000
0000
1000
0000
,
0010
0000
0000
0001
0000
0000
0100
0000
0020
0000
0000
0000
0000
0000
0000
0000
,
0130
0000
0000
0010
0000
0000
1000
0000
0100
0000
0000
0010
0000
0000
0100
0000
,
1000
0000
0000
0001
0000
0000
0010
0000
0100
0000
0000
1000
0000
0000
0010
0000
,
0200
0000
0000
0000
,
0301
1000
0010
0100
,
1001
0010
1100
0100
,
0011
1100
0101
1010
,
2002
0000
0000
0000
,
0000
0000
0000
0000
,
3003
0000
0000
0000
,
0000
0000
0000
0000
,
0100
0000
0000
0000
0000
0000
0000
0010
,
0100
0000
0000
0000
0000
0000
0000
0010
,
0100
0000
0000
0010
0100
0000
0000
0010
,
0110
1001
0110
1001
,
0000
0000
0000
0000
,
1000
0001
0010
0100
1000
0000
0100
0000
,
0100
1000
0100
1000
0010
0000
0010
0000
,
0010
0001
0010
0001
0100
0000
0010
0000
,
0010
1000
0001
0000
0001
0100
0010
0000
,
0100
0010
0100
0010
1000
0000
0001
0000
,
0001
0010
0001
0010
0100
0000
0100
0000
,
0100
1000
0100
1000
0010
0000
0100
0000
,
0001
1000
0100
0000
1000
0001
0100
0000
,
1000
0000
0001
0010
0000
0001
0100
0010
,
1000
0000
1000
0100
0000
1000
0100
0001
,
0100
1000
0010
0100
0000
0100
0010
1000
,
0001
0001
1000
1000
,
0001
0100
0010
1000
0000
0000
0001
1000
,
0100
0010
0100
1000
0000
0000
0001
0010
,
0001
0100
0010
1000
0000
0000
1000
0001
,
0011
1010
1100
0022
,
0033
0000
0000
0000
;

//---------------dance-single - ----------------
#NOTES:
     dance-single:
     :
     Medium:
     6:
     0.346,0.435,0.191,0.239,0.000,250.000,24.000,30.000,0.000,0.000,0.000,0.346,0.435,0.191,0.239,0.000,250.000,24.000,30.000,0.000,0.000,0.000:
0000
0000
0000
0000
,
0000
0000
0000
0000
,
0000
0000
0000
0000
,
0000
0000
0000
0000
,
0000
0000
0000
0000
,
1001
0000
0000
0000
0000
0000
0000
0001
,
0100
0000
0000
0000
0000
0000
0000
0010
,
1000
0000
0000
1000
0100
0000
0000
0100
,
0010
0001
1000
0000
,
0001
0001
1000
1000
,
0001
0100
0001
0100
,
0010
0010
0100
0100
,
0010
1000
0100
0000
,
1100
0100
1000
0100
,
0010
0000
0100
0000
0010
0000
1000
0001
,
0100
0100
0010
1000
,
1001
0001
0100
1000
,
0100
0000
0100
0000
0010
0000
0100
0010
,
0100
0000
0010
0000
1000
0000
0001
1000
,
0001
0100
0010
1000
,
0100
0010
0100
0000
,
0110
0010
0001
0100
,
0001
0000
0100
0000
0010
0000
1000
0010
,
1000
0010
0100
0001
,
1000
0001
0100
0000
0001
0100
0010
0000
,
0100
0010
1000
0001
,
0010
0000
0001
0000
0100
0000
0001
0100
,
0001
0100
0010
1000
,
1100
0100
1000
0010
,
0200
0010
0000
0310
,
0020
1000
0000
1030
,
2000
0001
0000
3001
,
0002
0100
0000
0013
,
0100
2000
0100
3100
,
1000
0020
0100
0130
,
0010
1000
0001
0100
,
1000
0100
0001
0010
,
0220
0000
0000
0330
,
0010
0001
1000
0100
,
0020
0000
0000
0000
,
0030
0000
0000
0000
,
2200
0000
0000
3300
,
1000
0001
0100
0001
,
0020
0000
0000
0000
,
0030
0000
0000
0000
,
0102
1003
0102
0013
,
1002
1000
2000
3003
,
2001
3100
2001
3010
,
2001
0100
0002
3003
,
0001
0100
1000
0100
,
0001
0010
1000
0010
,
0001
0100
0010
0000
0100
0010
1000
0000
,
0010
0100
0010
0100
0010
0100
0010
0100
,
0020
0000
0000
0000
,
0030
0000
0000
0000
,
0000
0000
0000
0000
,
0000
0000
0000
0000
,
1001
0000
0000
0000
0000
0000
0000
0010
,
0100
0000
0000
0000
0000
0000
0000
0010
,
0100
0000
0000
0010
0100
0000
0000
0010
,
0100
0100
0100
0100
,
0000
0000
0000
0000
,
0010
1000
0010
1000
,
0001
1000
0001
1000
,
0100
0010
0100
0010
,
0001
0100
0010
1000
,
0001
0010
0001
0010
,
0001
0100
0010
1000
,
0100
1000
0010
0100
,
0001
0001
1000
1000
,
1002
1000
1000
1003
,
2001
0001
0001
3001
,
0210
0010
0010
0310
,
0120
0100
0100
0130
,
0102
0100
0100
0103
,
0021
0001
0001
0031
,
0210
0010
0010
0310
,
2100
3010
0102
0013
,
1001
0000
0000
0000
;

//---------------dance-single - ----------------
#NOTES:
     dance-single:
     :
     Easy:
     4:
     0.244,0.373,0.167,0.406,0.000,142.000,21.000,51.000,0.000,0.000,0.000,0.244,0.373,0.167,0.406,0.000,142.000,21.000,51.000,0.000,0.000,0.000:
0000
0000
0000
0000
,
0000
0000
0000
0000
,
0000
0000
0000
0000
,
0000
0000
0000
0000
,
0000
0000
0000
0000
,
0001
0000
0000
0000
,
1000
0000
0000
0000
,
0001
0000
1000
0000
,
0001
1000
0001
0000
,
0100
0000
0010
0000
,
1000
0000
0010
0000
,
0100
0000
0001
0000
,
0010
0000
0100
0000
,
0210
0000
0000
0000
,
0300
0000
0000
0010
,
0001
0000
0000
0000
,
0101
0000
0000
0000
,
1002
0000
0000
0000
,
0100
0000
0000
0010
,
0020
0000
0000
0003
,
0200
0000
0000
0330
,
2200
0000
0000
0000
,
0000
0000
3300
1000
,
2020
0000
0000
3030
,
0100
0010
1000
0001
,
0022
0000
0000
0000
,
0000
0000
0030
0013
,
2200
0000
0000
0300
,
0010
0010
0010
3010
,
0100
0010
1000
1000
,
0001
0010
0100
0100
,
0010
0001
0100
0100
,
0010
1000
0001
0001
,
1000
0100
0010
0010
,
0001
0100
0010
0010
,
0100
0001
1000
1000
,
0001
0100
0010
1000
,
0220
0000
0000
0030
,
0010
0010
0010
0010
,
0020
0000
0000
0000
,
0330
0000
0000
0000
,
2002
0000
0000
3000
,
1000
1000
1000
1000
,
2000
0000
0000
0000
,
3003
0000
0000
0000
,
0002
0103
0002
1003
,
0002
0013
0011
0000
,
2000
3010
2000
3100
,
2000
3001
1100
0000
,
0020
0000
0000
0000
,
0230
0000
0000
0000
,
0302
0000
2003
0000
,
3020
2030
3200
0320
,
0002
0000
0000
0000
,
0000
0000
0000
0000
,
0033
0000
0000
0000
,
0000
0000
0000
0000
,
0001
0000
0000
0000
,
1000
0000
0000
0000
,
0001
0000
1000
0000
,
0001
1000
0001
1000
,
0000
0000
0000
0000
,
0001
0000
0100
0000
,
0010
0010
0100
0000
,
0010
0000
1000
0000
,
0100
0010
0001
0010
,
1000
0000
0100
0000
,
1000
0000
0010
0000
,
0100
0000
0010
0000
,
1000
0000
0001
0000
,
0220
0000
0000
0330
,
2002
0000
0000
3003
,
0202
0000
0000
0303
,
0022
0000
0000
0033
,
2002
0000
0000
3003
,
2200
0000
0000
3300
,
2020
0000
0000
3030
,
0220
0330
2002
3003
,
0101
0000
0000
0000
;

//---------------dance-single - ----------------
#NOTES:
     dance-single:
     :
     Beginner:
     1:
     0.109,0.155,0.040,0.000,0.000,91.000,5.000,0.000,0.000,0.000,0.000,0.109,0.155,0.040,0.000,0.000,91.000,5.000,0.000,0.000,0.000,0.000: // measure 0
0000
0000
0000
0000
,  // measure 1
0000
0000
0000
0000
,  // measure 2
0000
0000
0000
0000
,  // measure 3
0000
0000
0000
0000
,  // measure 4
0000
0000
0000
0000
,  // measure 5
1000
0000
0000
0000
,  // measure 6
0001
0000
0000
0000
,  // measure 7
1000
0000
0001
0000
,  // measure 8
0100
0100
0100
0000
,  // measure 9
0010
0000
0000
0000
,  // measure 10
0100
0000
0000
0000
,  // measure 11
0001
0000
0000
0000
,  // measure 12
1000
0000
0000
0000
,  // measure 13
0110
0000
0000
0000
,  // measure 14
0000
0000
0000
0010
,  // measure 15
0010
0000
0000
0000
,  // measure 16
1000
0000
0000
0000
,  // measure 17
0001
0000
0000
0000
,  // measure 18
0000
0000
0000
0100
,  // measure 19
0100
0000
0000
0000
,  // measure 20
0010
0000
0000
0000
,  // measure 21
1000
0000
0000
0000
,  // measure 22
0000
0000
0000
0001
,  // measure 23
0001
0000
0000
0000
,  // measure 24
1000
0000
0010
0000
,  // measure 25
0110
0000
0000
0000
,  // measure 26
0100
0000
0000
0000
,  // measure 27
0010
0000
0000
1000
,  // measure 28
1000
0000
0001
0000
,  // measure 29
1000
0000
0000
0000
,  // measure 30
0100
0000
0000
0000
,  // measure 31
1000
0000
0000
0000
,  // measure 32
0010
0000
0000
0000
,  // measure 33
1000
0000
0000
0000
,  // measure 34
0001
0000
0000
0000
,  // measure 35
1000
0000
0000
0000
,  // measure 36
1000
0000
0000
0000
,  // measure 37
1001
0000
0000
0000
,  // measure 38
0100
0000
0100
0000
,  // measure 39
0100
0000
0000
0000
,  // measure 40
0000
0000
0000
0000
,  // measure 41
0110
0000
0000
0000
,  // measure 42
0001
0000
0001
0000
,  // measure 43
0001
0000
0000
0000
,  // measure 44
0000
0000
0000
0000
,  // measure 45
1000
0000
1000
0000
,  // measure 46
1000
1000
1000
0000
,  // measure 47
0001
0000
0001
0000
,  // measure 48
0001
0000
0001
0001
,  // measure 49
0001
0000
0000
0000
,  // measure 50
0100
0000
0000
0000
,  // measure 51
0010
0000
0100
0000
,  // measure 52
0010
0010
0010
0010
,  // measure 53
0010
0000
0000
0000
,  // measure 54
0000
0000
0000
0000
,  // measure 55
0000
0000
0000
0000
,  // measure 56
0000
0000
0000
0000
,  // measure 57
1000
0000
0000
0000
,  // measure 58
1000
0000
0000
0000
,  // measure 59
1000
0000
1000
0000
,  // measure 60
0001
0001
0001
0001
,  // measure 61
0000
0000
0000
0000
,  // measure 62
0100
0000
0000
0000
,  // measure 63
0010
0000
0000
0000
,  // measure 64
1000
0000
0000
0000
,  // measure 65
0100
0000
0000
0000
,  // measure 66
0010
0000
0000
0000
,  // measure 67
0001
0000
0000
0000
,  // measure 68
0001
0000
0000
0000
,  // measure 69
1000
0000
0000
0000
,  // measure 70
0010
0000
0000
0000
,  // measure 71
0100
0000
0000
0000
,  // measure 72
0001
0000
0000
0000
,  // measure 73
1000
0000
0000
0000
,  // measure 74
0100
0000
0000
0000
,  // measure 75
0010
0000
0000
0000
,  // measure 76
0001
0000
0000
0000
,  // measure 77
1000
0000
0010
0000
,  // measure 78
0110
0000
0000
0000
;
