#TITLE:Tepris;
#SUBTITLE:;
#ARTIST:Doin;
#TITLETRANSLIT:;
#SUBTITLETRANSLIT:;
#ARTISTTRANSLIT:;
#CREDIT:;
#BANNER:Tepris-banner.png;
#BACKGROUND:Tepris-bg.png;
#LYRICSPATH:;
#CDTITLE:;
#MUSIC:Tepris.ogg;
#OFFSET:-0.035;
#SAMPLESTART:6.660;
#SAMPLELENGTH:12.000;
#SELECTABLE:YES;
#BPMS:0.000=144.900,112.000=72.500,128.000=144.920,224.000=72.500,239.000=145.000;
#STOPS:;
#BGCHANGES:;

//---------------dance-single - ----------------
#NOTES:
     dance-single:
     :
     Hard:
     8:
     0.462,0.647,0.113,0.199,0.195:
0000
0000
0000
0000
,
0000
0000
0000
0000
,
0000
0000
0000
0000
,
0000
0000
0000
0000
,
1001
0000
0001
0100
0010
0000
0100
0010
,
0100
0000
0010
0100
0010
0000
0010
1000
,
0100
0000
0010
0100
1000
0000
0001
0000
,
0100
0010
2000
0000
,
3000
0001
0000
1000
0010
0000
0100
0001
,
0010
0000
0000
0100
1000
0000
1000
0010
,
0100
0000
0100
0010
1000
0000
0001
0000
,
0011
1100
2002
3003
,
0020
0000
0000
0000
0130
1000
0100
0001
,
0020
0000
0000
0130
0020
0000
0031
0000
,
1000
0000
0010
0000
0100
0000
0001
1000
,
0200
0010
2000
3300
,
2000
0000
0010
0000
3010
1000
0001
0010
,
0200
0000
0310
0001
0100
0000
0010
0100
,
1000
0000
1000
0100
0001
0010
0100
0010
,
0002
1003
2000
3001
,
1001
0000
0000
0001
0000
0000
0100
0000
0010
0000
0000
0100
0000
0000
0010
0000
,
0100
0010
1000
0001
0010
0100
0010
0000
,
0100
0000
0000
1000
0000
0000
0001
0000
0010
0000
0000
0010
0000
0000
0001
0000
,
0100
1000
0100
0010
1000
0001
0010
0000
,
0100
0000
0000
0010
0000
0000
0001
0000
0100
0000
0000
1000
0000
0000
0100
0000
,
0010
1000
0001
0010
0100
0010
0001
0000
,
0100
0000
0000
0010
0000
0000
0100
0000
0001
0000
0000
0010
0000
0000
0100
0000
,
1000
0001
0100
0001
0010
0100
1000
0010
,
1000
0000
1000
0010
0100
0000
0100
0010
1000
0000
1000
0010
1000
0000
0010
0100
,
0010
0000
0100
0001
0010
0000
0100
0000
1000
0000
0100
0000
0010
0000
0000
0000
,
0110
0000
0010
0001
0100
0000
0100
0010
1000
0000
0010
1000
0001
0000
1000
0001
,
0100
0000
0010
1000
0100
0000
0010
0000
0011
0000
1100
0000
1001
0000
0000
0000
,
0002
0000
0203
0000
,
0320
0000
2030
0000
,
3100
0010
0100
1000
0001
0100
0001
0010
,
0002
0000
0000
0000
2000
0000
0000
3003
,
0020
0000
0000
0000
0030
1000
0100
1000
,
0200
0000
0000
0000
0300
1000
0100
0010
,
0002
0000
0023
0000
,
0200
0000
0000
0330
,
0010
0000
0000
0001
0000
0000
0100
0000
0010
0000
0000
0100
0000
0000
0100
0000
,
0010
1000
0001
0010
0001
1000
0001
0000
,
0100
0000
0000
0001
0000
0000
0010
0000
0100
0000
0000
0010
0000
0000
0001
0000
,
1000
0010
1000
0100
0010
0100
1000
0001
,
0100
0000
0000
0100
0000
0000
0010
0000
0100
0000
0000
0001
0000
0000
0010
0000
,
0100
1000
0100
1000
0010
1000
0001
0010
,
0100
0000
0000
0010
0000
0000
0001
0000
0100
0000
0000
0100
0000
0000
0010
0000
,
0100
0001
0010
0001
1000
0010
1000
0100
,
0010
0000
0000
0010
0000
0000
0100
0000
1000
0000
0000
0010
0000
0000
0100
0000
,
0001
1000
0100
0000
0010
0001
1000
0000
,
0001
0000
0000
0100
0000
0000
1000
0000
0100
0000
0000
0010
0000
0000
0100
0000
,
0010
1000
0001
0000
0010
0100
1000
0000
,
0001
0000
0000
0100
0000
0000
1000
0000
0100
0000
0000
0010
0000
0000
0100
0000
,
0001
0010
0001
0000
0100
0010
1000
0000
,
0001
0000
0000
0010
0000
0000
0010
0000
0001
0000
0000
1000
0000
0000
0010
0000
,
0100
0001
0010
0000
0100
1000
0010
0000
,
0100
0000
0010
1000
0010
0000
1000
0100
0100
0000
1000
0100
0010
0000
0010
0001
,
0100
0000
0010
1000
0001
0000
0010
0000
0110
0000
0010
0000
0011
0000
0000
0000
,
0000
0001
0000
0001
0100
0000
0100
1000
0100
0000
0000
0100
0010
0000
0100
0010
,
1000
0000
0001
0010
0100
0000
1000
0000
1100
0000
0010
0000
0011
0000
0000
0000
;

//---------------dance-single - ----------------
#NOTES:
     dance-single:
     :
     Medium:
     5:
     0.334,0.440,0.147,0.113,0.000:
0000
0000
0000
0000
,
0000
0000
0000
0000
,
0000
0000
0000
0000
,
0000
0000
0000
0000
,
0001
0000
0100
0010
0100
0000
0010
1000
,
0010
0000
1000
0100
1000
0000
0100
0010
,
0001
0000
0001
0010
0100
0000
1000
0000
,
0010
0100
0001
0000
,
0000
1000
0000
0010
0100
0000
0010
1000
,
0010
0000
0000
0100
0100
0000
0010
1000
,
0001
0000
0001
0010
0100
0000
1000
0000
,
0100
0010
0001
0000
,
1000
0000
0001
0100
,
0010
0000
0000
0100
0010
0000
1000
0000
,
0001
0010
0100
1000
,
0010
0010
0020
0000
,
0130
0000
0010
0000
1000
0010
0010
0000
,
1000
0100
0010
0001
,
0010
0000
0001
0000
0100
1000
0100
0010
,
2000
0000
0000
3000
,
0001
0100
0001
0010
,
0001
1000
0010
0000
0010
0100
0001
0000
,
0100
0010
1000
0100
,
1000
0010
1000
0000
0010
1000
0010
0000
,
0100
0010
1000
0001
,
0010
0100
0010
0000
0100
0010
0100
0000
,
0010
0001
0100
0010
,
1000
0010
1000
0000
0010
0100
0010
0000
,
0110
0010
1000
0100
,
0010
0000
0100
0000
1000
0001
0100
0000
,
0101
1001
1100
0110
,
0011
0101
0110
1001
,
0002
0000
2003
0000
,
3002
0000
2003
0000
,
3001
0100
1000
0100
,
0020
0000
0230
0000
,
0320
0000
0000
1030
,
0200
0000
0000
1300
,
0020
0000
0230
0000
,
0002
0000
0000
0303
,
0001
1000
0010
1000
,
0100
1000
0100
0000
1000
0100
1000
0000
,
0100
0010
0010
0100
,
1000
0001
1000
0000
0001
0100
0001
0000
,
0100
0010
1000
0010
,
0100
0001
0100
0000
0001
0100
0001
0000
,
0100
0010
1000
0001
,
0010
0100
1000
0000
0100
1000
0010
0000
,
0100
0010
1000
0001
,
0010
0100
1000
0000
1000
0100
0001
0000
,
0001
0100
0010
0001
,
0001
0100
0010
0000
0100
1000
0001
0000
,
0100
1000
0100
0010
,
1000
0010
0001
0000
0001
0010
0100
0000
,
0010
1000
0001
0010
,
0100
1000
0010
0000
0100
0001
1000
0000
,
0001
1000
0010
1000
,
0100
0000
0010
0000
0001
0010
0100
0000
,
0110
0011
1010
0110
,
1001
0000
0101
0000
0101
0001
1001
0000
;

//---------------dance-single - ----------------
#NOTES:
     dance-single:
     :
     Easy:
     4:
     0.261,0.259,0.009,0.078,0.000:
0000
0000
0000
0000
,
0000
0000
0000
0000
,
0000
0000
0000
0000
,
0000
0000
0000
0000
,
0001
1000
0001
1000
,
0001
1000
0001
1000
,
0010
0100
0010
0100
,
0010
0010
0010
0000
,
0100
0001
0100
1000
,
0100
0010
1000
0001
,
0010
0100
0010
0001
,
1000
0001
0100
0000
,
0010
0000
0100
0001
,
0010
0000
0100
0010
,
0001
1000
0010
0100
,
0002
0000
0000
0003
,
1001
0000
0001
1000
,
0010
0000
1000
0010
,
0100
0000
0010
1000
,
0200
0000
0000
0300
,
1000
0100
1000
0001
,
0100
0001
1000
0100
,
1000
0010
1000
0001
,
0010
0001
1000
0010
,
0100
0010
1000
0100
,
1000
0010
0100
0010
,
0100
0001
0010
0100
,
0010
0001
0100
0010
,
1000
0001
1000
0001
,
1000
0000
0010
0000
0100
0010
0100
0000
,
0010
1000
0100
0010
,
0100
0000
1000
0000
0001
1000
0001
0000
,
0200
0000
0010
0000
,
0010
0000
0010
0000
,
0310
1000
0001
0010
,
0200
0000
0020
0330
,
0020
0000
0000
0100
,
0100
0000
0000
0130
,
0020
0000
0032
0000
,
2000
0000
0000
3003
,
0001
1000
0010
1000
,
0001
0010
0010
0010
,
0001
1000
0100
1000
,
0001
0001
1000
1000
,
0001
0100
0010
0100
,
0001
0010
0100
0010
,
0100
1000
0010
0100
,
0010
1000
0010
0100
,
0010
1000
0001
0010
,
0100
0010
0001
1000
,
0010
0100
0001
0010
,
0001
0100
1000
0100
,
0010
1000
0010
1000
,
0001
0010
0100
0010
,
0001
1000
0010
0100
,
0010
1000
0001
0010
,
0100
0010
0001
0100
,
0010
0000
1000
0000
0001
1000
0001
0000
,
0100
0000
0010
0000
0100
0000
0010
1000
,
0100
0000
0010
0000
0001
0010
0100
0000
;

//---------------dance-single - ----------------
#NOTES:
     dance-single:
     :
     Beginner:
     1:
     0.100,0.155,0.000,0.000,0.000: // measure 1
0000
0000
0000
0000
,  // measure 2
0000
0000
0000
0000
,  // measure 3
0000
0000
0000
0000
,  // measure 4
0000
0000
0000
0000
,  // measure 5
0010
0000
0000
0000
,  // measure 6
1000
0000
1000
0000
,  // measure 7
0001
0000
0000
0000
,  // measure 8
0100
0000
0100
0000
,  // measure 9
0010
0000
0000
0000
,  // measure 10
0100
0000
0000
0000
,  // measure 11
0001
0000
1000
0000
,  // measure 12
0010
0010
0010
0000
,  // measure 13
0100
0000
0000
0000
,  // measure 14
0010
0000
0000
0000
,  // measure 15
1000
0000
0001
0000
,  // measure 16
0100
0000
0000
0000
,  // measure 17
0010
0000
0000
0000
,  // measure 18
0100
0000
0000
0000
,  // measure 19
0001
0000
1000
1000
,  // measure 20
1000
0000
0000
0000
,  // measure 21
0010
0000
0000
0000
,  // measure 22
0100
0000
0000
0000
,  // measure 23
0001
0000
0000
0000
,  // measure 24
0100
0000
0000
0000
,  // measure 25
0010
0000
0000
0000
,  // measure 26
1000
0000
0000
0000
,  // measure 27
1000
0000
0000
0000
,  // measure 28
0100
0000
0000
0000
,  // measure 29
1000
0000
0000
0000
,  // measure 30
0010
0000
0100
0000
,  // measure 31
0100
0000
0000
0000
,  // measure 32
0010
0000
1000
0000
,  // measure 33
0001
0000
1000
0000
,  // measure 34
0001
0000
0000
0000
,  // measure 35
0100
0000
0010
0000
,  // measure 36
0100
0000
0000
0000
,  // measure 37
0010
0000
0000
0000
,  // measure 38
1000
0000
0000
0000
,  // measure 39
0100
0000
0000
0000
,  // measure 40
1000
0000
0000
0000
,  // measure 41
0001
0000
0000
0000
,  // measure 42
0100
0000
0010
0000
,  // measure 43
0100
0000
0000
0000
,  // measure 44
0010
0000
1000
0000
,  // measure 45
0100
0000
0000
0000
,  // measure 46
0010
0000
0001
0000
,  // measure 47
0100
0000
0000
0000
,  // measure 48
0010
0000
0010
0000
,  // measure 49
0100
0000
0000
0000
,  // measure 50
0010
0010
0010
0000
,  // measure 51
1000
0000
0000
0000
,  // measure 52
0001
0001
0001
0000
,  // measure 53
0100
0000
0000
0000
,  // measure 54
0010
0010
0010
0000
,  // measure 55
0100
0000
0000
0000
,  // measure 56
0010
0010
0010
0000
,  // measure 57
1000
0000
0000
0000
,  // measure 58
0001
0000
0000
0000
,  // measure 59
0100
0000
0000
0000
,  // measure 60
0010
0000
0000
0100
;
