#TITLE:TRIP MACHINE CT;
#SUBTITLE:;
#ARTIST:ONLY;
#TITLETRANSLIT:;
#SUBTITLETRANSLIT:;
#ARTISTTRANSLIT:;
#CREDIT:;
#BANNER:bn.png;
#BACKGROUND:bg.png;
#LYRICSPATH:;
#CDTITLE:;
#MUSIC:Trip Machine [CT Mix].mp3;
#OFFSET:-0.030;
#SAMPLESTART:25.514;
#SAMPLELENGTH:12.000;
#SELECTABLE:YES;
#BPMS:0.000=80.000,32.000=40.000,33.000=80.000,80.000=40.000,88.000=80.480,89.000=80.000;
#STOPS:;
#BGCHANGES:;

//---------------dance-single - ----------------
#NOTES:
     dance-single:
     :
     Hard:
     9:
     0.483,0.648,0.451,0.009,0.600:
0000
0000
0000
0000
,
0000
0000
0000
0000
,
0000
0000
0000
0000
,
0000
0000
0000
0000
,
1001
0001
1000
0100
1000
0000
0000
0000
0000
0000
0000
0100
0010
0001
0010
1000
,
0100
0000
1000
0000
0100
0000
0001
0000
0000
0000
0100
0000
0000
0000
0000
0000
0000
0000
0000
0000
0000
0000
0010
0001
0010
0000
0001
0000
0100
0000
1000
0000
,
0100
0010
0001
0010
1000
0000
0000
0000
0000
0000
0000
0010
0100
0001
1000
0100
,
1000
0001
0100
1000
0100
0100
0000
0000
0000
0000
0000
0100
0010
0010
1000
0001
,
0010
0000
0000
0000
0011
0000
0001
0100
1000
0100
0000
0000
0000
0000
0100
0100
,
0100
0010
1000
0001
0010
0000
0100
1000
0100
0001
0000
0000
0000
0000
0001
0001
,
0001
0100
0010
1000
0001
0000
0001
0100
1000
0100
0000
0000
0000
0000
0010
0010
,
0010
1000
0010
0001
0010
0000
0100
0010
1000
0100
0000
0000
0000
0100
0100
0010
,
0001
1000
0001
0100
0110
0000
1001
0000
0101
0100
0000
0010
0000
1000
0000
1000
,
0100
0001
0100
1000
0000
0010
0010
0000
0100
0000
0001
0000
1000
0000
0100
0010
,
1000
0100
0001
0100
0110
0000
1001
0000
0001
0100
1000
0100
0000
0010
0000
0010
,
0001
0010
1000
0100
0000
0100
0100
0010
0001
1000
0100
0010
0001
1000
0001
0100
,
0001
0010
0100
1000
1001
0000
0101
0000
0001
0100
0000
1010
0000
0101
0000
0001
,
0100
1000
0100
0010
1000
1100
0011
0000
0000
0101
0000
1100
0000
1010
0000
0010
,
0001
0010
1000
0100
1100
0000
0101
0000
0001
0100
0000
0110
0000
1001
0000
0001
,
0010
1000
0010
0001
0100
0101
1001
0000
0110
0000
0010
1000
1100
0000
1000
0000
,
0101
0000
0001
0100
1001
0000
0000
0010
1001
0000
0010
1000
1100
0010
0001
0010
,
1010
0000
0000
0000
0000
0000
0000
0000
0100
0000
0000
0000
0010
0000
0000
0000
1001
0000
0000
0000
0000
0000
0000
0000
0000
0000
0000
0000
0001
0000
0000
0000
1010
0000
0000
0000
0000
0000
0000
0000
0100
0000
0001
0000
0100
0000
0010
0000
1000
0000
0100
0000
0010
0000
0001
0000
1000
0001
1000
0001
1000
0001
1000
0001
,
1000
0000
0000
0000
0101
0000
0100
0000
0010
0000
1000
0001
0010
0000
0010
0001
,
0001
0000
0001
0100
0010
0000
1000
0000
0001
0000
0001
0100
1000
0000
0100
0010
,
1000
0000
1000
0001
0010
0000
0001
0000
0100
0000
0010
0010
1000
0000
1000
1000
,
0100
0000
0100
0100
1000
0000
0100
0000
0001
0000
0001
0100
0010
0000
0010
0001
,
1000
0000
0010
0001
0110
0000
0100
0000
1001
0000
0001
0000
1000
0000
0100
0000
,
0001
0100
0110
0011
1001
0011
0100
0110
,
1001
0000
0110
0010
1001
1000
0001
0010
,
1000
0010
0110
1100
1001
1100
0010
0110
,
1001
0001
1000
0000
0100
0000
0010
0000
0001
0001
0000
0000
0000
0000
0001
0100
,
0010
0010
0000
0000
0110
0000
0010
1000
0100
0100
0000
0000
1100
1000
0100
0010
,
0001
0001
0000
0000
0001
0000
0100
0000
0010
0010
0000
0000
0100
0000
0010
0000
,
1000
1000
0000
0000
1000
0000
0100
0000
0001
0001
0100
0000
0010
0000
0001
0000
,
0200
0300
0000
0000
;

//---------------dance-single - ----------------
#NOTES:
     dance-single:
     :
     Medium:
     7:
     0.330,0.399,0.117,0.000,0.370:
0000
0000
0000
0000
,
0000
0000
0000
0000
,
0000
0000
0000
0000
,
0000
0000
0000
0000
,
1000
0001
0100
0001
0010
0000
0000
0000
0000
0000
0000
0100
0100
0010
0001
1000
,
0100
1000
0010
0100
0001
0010
0000
0000
0000
0000
0000
0000
0001
1000
0001
0100
,
0010
1000
0100
0010
0001
0000
0000
0000
0000
0000
0000
1000
0010
0100
0001
1000
,
0100
1000
0100
0001
0100
1000
0100
0001
0000
0000
0000
0001
0100
1000
0010
1000
,
0000
0000
0000
0000
1001
0000
0001
1000
0001
0000
0000
0000
0000
0000
0001
0100
,
0001
0000
0100
0000
0010
0000
1000
0010
0100
0000
0000
0000
0000
0000
0100
0010
,
1000
0000
0001
0000
0010
0000
0100
1000
0010
0000
0000
0000
0000
0000
0100
1000
,
0100
0000
0010
0000
1000
0000
0010
0001
1000
0000
0000
0000
0000
0000
0100
1000
,
0100
0010
0001
0010
0001
0000
0100
0000
0000
0010
0000
1000
0000
0001
0000
1000
,
0100
0001
0100
1000
0100
1000
0100
0000
0000
0000
0000
0000
0000
0000
0000
0000
,
0000
0000
0000
0000
0110
0000
1001
0000
0000
0001
0000
0100
0000
0010
0000
0100
,
0010
1000
0001
0010
0000
0100
0100
0000
0000
0000
0000
0000
0000
0000
0000
0000
,
0000
0000
0000
0000
1001
0000
0101
0000
0000
0001
0000
0100
0000
0010
0000
0100
,
0010
1000
0001
0010
0100
1000
1000
0000
1100
0000
1100
0000
0110
0000
0001
0000
,
1001
0001
1000
0000
0001
0000
0100
0000
0010
0100
0000
0010
0000
1000
0100
0010
,
0001
0010
0100
1000
0001
0100
0100
0000
0110
0000
1001
0000
0001
0000
0100
0000
,
0010
0000
1000
0001
1000
0000
0000
0001
1001
0000
0010
0100
0010
0010
0000
0010
,
0110
0000
0010
0001
1000
0000
0000
0001
0100
0000
0010
1000
0010
1000
0010
0100
,
0000
0000
0010
0000
1000
0000
0001
1000
,
0100
0000
0100
0000
1000
0000
0010
0100
,
0001
0000
0001
0000
0100
0000
0010
1000
,
0001
0000
1000
0000
0001
0000
0010
0010
,
0001
0000
0001
0100
0010
1000
0010
0100
,
0001
0000
0010
0100
1000
0000
0100
0000
1000
0000
0010
0100
0001
0000
0001
1000
,
0100
0000
0100
1000
0010
0100
0001
1000
,
0100
0000
0000
0000
0100
0000
0010
0000
0001
0000
0001
0010
1000
0000
1000
0010
,
0001
0000
0001
0000
0100
0000
0010
0000
1000
1000
0000
0000
0000
0000
0000
0000
,
0001
0001
0000
0000
0001
0000
0100
0000
0010
0010
0000
0000
0000
0000
0000
0000
,
0100
0100
0000
0000
0010
0000
1000
0000
0001
0001
0000
0000
0000
0000
0000
0000
,
1000
1000
0000
0000
0010
0000
1000
0000
0100
0000
0000
0000
0010
0000
0001
0000
,
0100
0000
0000
0000
;

//---------------dance-single - ----------------
#NOTES:
     dance-single:
     :
     Easy:
     3:
     0.204,0.230,0.045,0.000,0.000:
0000
0000
0000
0000
,
0000
0000
0000
0000
,
0000
0000
0000
0000
,
0000
0000
0000
0000
,
0100
0010
1000
0000
0000
0000
1000
0001
,
0100
0001
0010
0000
0000
0000
0010
0001
,
0010
1000
0010
0000
0000
0000
0100
0010
,
0001
1000
0100
0000
0100
1000
0010
0100
,
0000
0000
1001
0001
0100
0000
0000
0100
,
0010
1000
0100
1000
0010
0000
0000
0100
,
0001
0010
0001
0100
0010
0000
0000
0100
,
0010
1000
0001
0010
0100
0000
0100
0010
,
0001
0010
0100
0100
0000
0000
1000
0100
,
1000
0010
0100
0100
0000
0000
0010
0000
,
1001
0000
0010
0010
0100
0000
0100
0010
,
1000
0001
0010
0010
0100
0000
0010
0000
,
0011
0000
0001
0100
0010
0000
0100
0010
,
1000
0000
1000
0001
0100
0000
0100
0001
,
0011
0000
0001
1000
0100
0000
1000
0100
,
0010
0000
0100
0010
0001
0000
0001
0100
,
0000
0001
0000
1000
0100
0010
0000
0000
,
0000
0010
0000
0001
1000
0010
0010
0010
,
0010
0100
0000
0000
,
0000
0010
0010
1000
,
0000
0001
0000
0000
,
0000
0010
0000
0001
,
0000
0000
0100
0010
1000
0000
0000
1000
,
0001
0000
0001
0100
0010
0000
0100
0010
,
1000
0000
1000
0001
0100
0000
0000
0010
,
0100
0000
0010
1000
0100
0000
0000
0100
,
0010
0000
0010
0001
1000
0000
0000
0000
,
1010
0000
0010
0100
0001
0000
0001
0100
,
1000
0000
1000
0100
0010
0000
0100
0010
,
1000
0000
0001
0001
1000
0001
0000
0001
,
1000
0000
0000
0000
;

//---------------dance-single - ----------------
#NOTES:
     dance-single:
     :
     Beginner:
     1:
     0.082,0.123,0.036,0.000,0.000: // measure 1
0000
0000
0000
0000
,  // measure 2
0000
0000
0000
0000
,  // measure 3
0000
0000
0000
0000
,  // measure 4
0000
0000
0000
0000
,  // measure 5
0010
0000
0000
1000
,  // measure 6
1000
0000
0000
0001
,  // measure 7
0001
0000
0000
0010
,  // measure 8
0010
0000
0000
0100
,  // measure 9
0000
0110
0000
0000
,  // measure 10
0010
1000
0000
0000
,  // measure 11
1000
0001
0000
0000
,  // measure 12
0010
0100
0000
0000
,  // measure 13
0100
0100
0000
0010
,  // measure 14
0000
0001
0000
1000
,  // measure 15
1000
1000
0000
0010
,  // measure 16
0000
0100
0000
0001
,  // measure 17
0001
1001
0000
0100
,  // measure 18
0000
0010
0000
0000
,  // measure 19
0000
1000
0000
0001
,  // measure 20
0000
0010
0000
0000
,  // measure 21
0000
0010
0000
0000
0000
0100
0000
0000
,  // measure 22
0000
0001
0000
0000
0000
1000
0000
0000
,  // measure 23
0000
1000
0000
0000
,  // measure 24
0000
0001
0000
0000
,  // measure 25
0000
0100
0000
0000
,  // measure 26
0000
0010
0000
0000
,  // measure 27
0000
1001
0000
0000
,  // measure 28
1000
0001
0000
0000
,  // measure 29
0001
0001
0000
0000
,  // measure 30
0100
0010
0000
0000
,  // measure 31
0010
1000
1000
0000
,  // measure 32
0001
0001
0100
0000
,  // measure 33
0010
0010
0100
0000
,  // measure 34
0010
0000
1000
0001
,  // measure 35
1001
0000
0000
0000
;
