#TITLE:THE DOOR INTO RAINBOW;
#SUBTITLE:;
#ARTIST:L.E.D.;
#TITLETRANSLIT:;
#SUBTITLETRANSLIT:;
#ARTISTTRANSLIT:;
#CREDIT:;
#BANNER:bn.png;
#BACKGROUND:bg.png;
#LYRICSPATH:;
#CDTITLE:;
#MUSIC:1.04. THE DOOR INTO RAINBOW.mp3;
#OFFSET:-1.933;
#SAMPLESTART:51.460;
#SAMPLELENGTH:12.000;
#SELECTABLE:YES;
#BPMS:0.000=155.000;
#STOPS:;
#BGCHANGES:;

//---------------dance-single - ----------------
#NOTES:
     dance-single:
     :
     Hard:
     7:
     0.417,0.544,0.167,0.239,0.080:
0000
0000
0000
0000
,
0000
0000
0000
0000
,
0000
0000
0000
0000
,
0001
0100
0020
0000
0130
0100
0000
0010
,
1000
1000
0001
0001
,
1000
0001
1000
0001
,
0100
0001
0010
0000
0100
1000
0010
0000
,
0110
0110
0000
0000
0000
0000
0000
0000
,
0010
0000
1000
0100
0000
0001
0000
0100
,
0000
1000
0000
1000
0100
0001
0100
0000
,
0110
0000
0000
0010
0000
0001
0000
0010
,
0000
1000
0000
1000
0010
0001
0010
0000
,
0101
0000
0000
0001
0000
0100
0000
0010
,
0000
1000
0000
1000
0100
0010
0001
0000
,
0011
0000
0001
0100
1000
0000
1000
0100
,
0010
0100
0010
0100
0010
0100
0010
0000
,
2000
0000
0000
0000
,
0000
0000
0000
3000
,
0002
0000
0000
0000
,
0000
0000
0000
0003
,
0200
0000
0000
0000
,
0000
0000
0000
0300
,
0020
0000
0000
0000
,
0000
0000
0000
0030
,
2001
0000
0001
0001
,
0001
0000
0000
3000
,
0002
0000
0000
0000
,
0100
0100
0100
0000
,
0203
0000
0000
0000
,
0010
0000
0000
0000
,
0320
0000
0100
0000
,
0130
0010
0100
0010
,
1000
0010
0100
0000
0010
1000
0000
0010
,
0100
0000
0100
0001
0000
0001
0010
0000
,
0010
0100
1000
0000
1000
0100
0000
0010
,
0001
0000
0001
0100
0000
0100
0010
0000
,
0010
1000
0001
0000
1000
0100
0000
0010
,
0001
0000
0001
0100
0000
0010
0100
0000
,
0010
1000
0001
0000
0001
0010
0000
0010
,
0100
0000
0010
0100
1000
0001
0100
0100
,
0020
1000
0100
1000
,
0100
0000
1030
0000
1000
0000
0001
0010
,
0000
0010
0200
0000
0010
0000
1000
0000
,
0010
0000
1000
0000
0310
0001
1000
0020
,
0000
0130
0001
2000
0001
0000
0001
0000
,
0001
3001
2000
3002
,
0103
0001
0020
0000
0100
0000
0001
0000
,
0200
0000
0000
0330
,
2001
0100
0001
0100
,
0001
0000
3100
0000
0020
0000
0130
0010
,
0000
0010
0002
0000
0100
0000
0010
0000
,
0100
0000
0010
0000
0103
0010
1000
0002
,
0000
1003
0100
2000
0100
0000
0010
0000
,
0100
0010
3200
0320
,
0130
0010
0110
0000
0001
1000
1001
0000
,
0001
0100
0010
1000
0001
1000
0100
0010
,
0001
0000
0000
0010
0000
0000
0001
0000
0000
0000
0010
0000
0010
0000
0100
0000
,
1000
0000
0000
1000
0000
0000
0001
0000
0000
0000
0010
0000
0001
0000
0010
0000
,
0001
0000
0000
0001
0000
0000
1000
0000
0000
0000
0100
0000
1000
0000
0100
0000
,
0010
0000
0000
0100
0000
0000
1000
0000
0000
0000
0001
0000
0001
0000
0100
0000
,
0110
0000
0000
0110
0000
0000
0110
0000
0000
0000
0000
0000
0000
0000
0000
0000
,
1001
0000
0000
1001
0000
0000
1001
0000
0000
0000
0000
0000
0000
0000
0000
0000
,
0110
0000
0000
0100
0000
0000
0010
0000
0110
0000
0000
0100
0000
0000
0001
0000
,
0101
0000
0000
0100
0000
0000
0010
0000
1010
0000
0000
1000
0000
0000
0001
0000
,
2001
0000
0000
0001
0000
0000
0001
0000
0000
0000
3001
0000
0100
0000
1000
0000
,
0200
0000
0000
0010
0000
0000
0010
0000
0000
0000
0310
0000
1000
0000
0001
0000
,
2000
0000
0000
0100
0000
0000
0100
0000
0000
0000
3100
0000
1000
0000
0010
0000
,
2000
0000
0000
0010
0000
0000
0010
0000
0000
0000
3010
0000
0100
0000
0001
0000
,
0020
0000
0000
0001
0000
0000
0001
0000
0000
0000
0031
0000
0010
0000
0100
0000
,
0020
0000
0000
0100
0000
0000
0100
0000
0000
0000
0130
0000
1000
0000
0010
0000
,
1000
0000
0000
1000
0000
0000
0010
0000
0010
0000
0000
0100
0000
0000
0100
0000
,
0001
0000
0000
0010
0000
0000
1000
0000
0010
0000
0000
0001
0000
0000
1000
0000
,
0100
0100
0010
0010
,
0001
0001
1000
1000
,
0001
0100
1000
0100
,
0001
0010
0100
1000
0001
0010
0100
1000
,
1001
0000
0000
0000
;

//---------------dance-single - ----------------
#NOTES:
     dance-single:
     :
     Medium:
     5:
     0.324,0.514,0.207,0.175,0.000:
0000
0000
0000
0000
,
0000
0000
0000
0000
,
0000
0000
0000
0000
,
1000
0001
0000
0000
0100
0001
0000
0000
,
0100
0100
0010
1000
,
0001
0000
0010
0000
0001
0000
0100
0010
,
1000
1000
0001
0001
,
1000
0001
0000
0000
0000
0000
0000
0000
,
0001
0000
0000
0100
0000
0010
0000
1000
,
0000
0100
0000
0010
0001
0010
0001
0000
,
0000
0000
0000
0010
0000
0100
0000
1000
,
0000
0001
0000
0100
0001
0100
0010
0000
,
0100
0000
0000
0010
0000
1000
0000
0001
,
0000
0010
0000
1000
0010
0100
1000
0000
,
1100
0000
1000
0100
0010
0000
0010
0001
,
0100
0100
0010
0010
,
2000
0000
0000
0000
,
0000
0000
0000
3000
,
0002
0000
0000
0000
,
0000
0000
0000
0003
,
0020
0000
0000
0000
,
0000
0000
0000
0030
,
0200
0000
0000
0000
,
0000
0000
0000
0300
,
1100
0000
1000
0100
,
0020
0000
0030
0000
,
0000
0000
0000
0000
,
0010
0000
0001
0100
0000
0000
0000
0000
,
0110
0000
0000
0000
0000
0000
0000
0100
,
0010
0000
0100
0010
0000
0000
0000
0000
,
0110
0000
0000
0010
1000
0000
0000
0010
,
0100
0100
0010
0010
,
1000
0001
0100
0000
0000
0001
0000
0000
,
0100
0000
0000
1000
0000
0000
0100
0000
,
0010
0000
1000
0000
0000
0010
0000
0000
,
0001
0000
0000
0010
0000
0000
0100
0000
,
0110
0000
0010
0000
0000
0100
0000
0000
,
0100
0000
0000
0010
0000
0000
1000
0000
,
0001
0000
1000
0100
1000
0000
0100
0000
,
0010
0000
0001
0000
0010
0000
0100
2000
,
0000
0000
0000
0000
,
0000
0000
0000
0000
3001
0000
0100
0001
,
0000
0001
0020
0000
0000
0000
0000
0000
,
0000
0000
0000
0000
0030
0001
0010
0100
,
0000
0100
1000
0020
0000
0000
0000
0000
,
0000
0000
0130
0010
,
1000
0001
0020
0000
0000
0000
0000
0000
,
0000
0000
0130
0010
0001
1000
0001
2000
,
0000
0000
0000
0000
,
0000
0000
0000
0000
3001
0000
0001
0100
,
0000
0100
0020
0000
0000
0000
0000
0000
,
0000
0000
0000
0000
0000
0130
0100
0020
,
0000
1030
0001
0020
0000
0000
0000
0000
,
0000
0000
0130
1000
,
0001
0100
0002
0000
0000
0000
0000
0000
,
0000
0000
0000
0000
0000
0000
0103
0001
,
0100
0000
0010
0000
1000
0000
0001
0010
,
0100
0000
0010
0000
0001
0000
1000
0010
,
0100
0000
0010
0000
1000
0000
0001
0010
,
0100
0010
0001
1000
,
0220
0000
0330
0000
,
2002
0000
3003
0000
,
0202
0303
2200
3300
,
1010
0011
1010
0011
,
0001
1000
0010
0000
0100
0000
0110
0000
,
0010
1000
0001
0000
0010
0000
0110
0000
,
0100
1000
0010
0000
0100
0000
0101
0000
,
0001
0010
0100
0000
0010
0000
0011
0000
,
0001
0100
1000
0000
0100
0000
0110
0000
,
0010
0001
1000
0000
0100
0000
1100
0000
,
1100
0001
0101
1000
,
1100
0101
1100
0101
,
1000
0001
0100
0000
0100
0000
0100
0000
,
0100
0001
0010
0000
0010
0000
0010
0000
,
0010
0100
1000
0000
1000
0100
0010
0000
,
0010
0100
1000
0000
0001
0010
0100
1000
,
1001
0000
0000
0000
;

//---------------dance-single - ----------------
#NOTES:
     dance-single:
     :
     Easy:
     3:
     0.255,0.393,0.167,0.247,0.000:
0000
0000
0000
0000
,
0000
0000
0000
0000
,
0000
0000
0000
0000
,
0110
0000
1001
0000
,
0110
0000
0100
0000
,
0001
0000
1000
0000
,
0001
0000
1000
0000
,
0110
0000
0000
0000
,
0010
1000
0010
1000
,
0010
1000
0100
0100
,
1000
0001
1000
0001
,
1000
0001
0010
0010
,
0001
0100
0001
0100
,
0001
0100
0010
0010
,
1000
0001
1000
0001
,
0100
0100
0100
0100
,
0020
0000
0000
0000
,
0000
0000
0000
0030
,
0200
0000
0000
0000
,
0000
0000
0000
0300
,
0002
0000
0000
0000
,
0000
0000
0000
0003
,
2000
0000
0000
0000
,
0000
0000
0000
3000
,
1001
0000
0010
0010
,
0020
0000
0000
0030
0000
0000
0000
0000
,
0000
0000
0000
0000
,
0100
0001
1000
0000
,
1001
0000
0000
0000
,
0010
0100
0001
0000
,
1100
0000
1001
0000
,
0101
0101
0101
0101
,
0001
0100
0010
0010
,
0020
0000
0000
0030
0000
0000
0100
0000
,
0010
1000
0001
1000
,
0100
0100
1000
0010
,
0100
0100
0200
0310
,
1000
0001
0010
0100
,
1000
0001
0200
0301
,
0010
0100
1100
0101
,
2002
0000
0000
0000
,
0000
3003
0001
1000
,
0010
2000
0000
0000
,
0000
0000
3000
0010
,
0100
0100
0200
0000
,
0000
0000
0310
1000
,
0001
0002
0000
0000
,
1003
0100
0010
0001
,
2000
0000
0000
0000
,
0000
3000
0010
1000
,
0010
2000
0000
0000
,
0000
0000
0000
3100
,
0010
0001
0020
0000
,
0000
0000
0031
0010
,
0100
0200
0000
0000
,
0000
0000
0300
0010
,
0002
0000
0000
1003
,
0200
0000
0000
0310
,
0002
0000
0000
0013
,
0200
0000
0000
1300
,
1100
0000
0000
0000
,
1001
0000
0000
0000
,
0110
0000
0010
0000
,
0110
0100
1001
0010
,
0020
0000
0000
0130
,
0002
0000
0000
1003
,
0200
0000
0000
0310
,
0002
0000
0000
0013
,
0200
0000
0000
0310
,
0002
0000
0000
1003
,
0020
0000
0230
0000
,
0302
0000
2003
0000
,
3100
1000
0100
1000
,
0100
0010
0001
0010
,
0100
1000
0100
0010
,
0001
0001
1000
1000
,
1001
0000
0000
0000
;

//---------------dance-single - ----------------
#NOTES:
     dance-single:
     :
     Beginner:
     1:
     0.098,0.181,0.008,0.000,0.000: // measure 1
0000
0000
0000
0000
,  // measure 2
0000
0000
0000
0000
,  // measure 3
0000
0000
0000
0000
,  // measure 4
0000
0000
0000
0000
,  // measure 5
1000
0000
0000
0000
,  // measure 6
0001
0000
0000
0000
,  // measure 7
0100
0000
0000
0000
,  // measure 8
0010
0000
0000
0000
,  // measure 9
0100
0000
0000
0000
,  // measure 10
0001
0000
1000
0000
,  // measure 11
0001
0000
0000
0000
,  // measure 12
0100
0000
0010
0000
,  // measure 13
0100
0000
0000
0000
,  // measure 14
0001
0000
0010
0000
,  // measure 15
0001
0000
1000
0000
,  // measure 16
0010
0010
0010
0000
,  // measure 17
0100
0000
0000
0000
,  // measure 18
0000
0000
0000
0000
,  // measure 19
0001
0000
0000
0000
,  // measure 20
0000
0000
0000
0000
,  // measure 21
1000
0000
0000
0000
,  // measure 22
0000
0000
0000
0000
,  // measure 23
0100
0000
0000
0000
,  // measure 24
0000
0000
0000
0000
,  // measure 25
1000
0000
0000
0000
,  // measure 26
0001
0000
0000
0000
,  // measure 27
1000
0000
0000
0000
,  // measure 28
0010
0000
0000
0000
,  // measure 29
0100
0000
0000
0000
,  // measure 30
0001
0000
0000
0000
,  // measure 31
1000
0000
1000
0000
,  // measure 32
0001
0000
0000
0000
,  // measure 33
0100
0000
0010
0010
,  // measure 34
0010
0000
0000
0000
,  // measure 35
0000
0000
1000
1000
,  // measure 36
1000
0000
0000
0000
,  // measure 37
0001
0001
0001
0000
,  // measure 38
0000
0000
0000
0000
,  // measure 39
1000
1000
1000
0000
,  // measure 40
0000
0000
0010
0000
,  // measure 41
0100
0000
0000
0000
,  // measure 42
0000
0000
0001
0000
,  // measure 43
1000
0000
0000
0000
,  // measure 44
0000
0000
0000
0000
,  // measure 45
1000
0000
0001
0000
,  // measure 46
0000
0000
0100
0100
,  // measure 47
0010
0000
0000
0000
,  // measure 48
0100
0000
0010
0000
,  // measure 49
1000
0000
0000
0000
,  // measure 50
0000
0000
0001
0000
,  // measure 51
0000
0000
0000
0000
,  // measure 52
0000
0000
0000
1000
,  // measure 53
1000
0000
0100
0000
,  // measure 54
0000
0000
1000
0000
,  // measure 55
0010
0000
0000
0000
,  // measure 56
0000
0000
0000
0000
,  // measure 57
0100
0000
0000
0000
,  // measure 58
0001
0000
0000
0000
,  // measure 59
0010
0000
0000
0000
,  // measure 60
0001
0000
0000
0000
,  // measure 61
1000
0000
0000
0000
,  // measure 62
1000
0000
0000
0000
,  // measure 63
1000
0000
0000
0000
,  // measure 64
0001
0000
1000
0000
,  // measure 65
0010
0000
0000
0000
,  // measure 66
1000
0000
0000
0000
,  // measure 67
0001
0000
0000
0000
,  // measure 68
0001
0000
0000
0000
,  // measure 69
1000
0000
0000
0000
,  // measure 70
0100
0000
0000
0000
,  // measure 71
1000
0000
0010
0000
,  // measure 72
0100
0000
0000
0000
,  // measure 73
0001
0000
0000
0000
,  // measure 74
0010
0000
0000
0000
,  // measure 75
0100
0000
0000
0000
,  // measure 76
1000
0000
0000
0000
,  // measure 77
1001
0000
0000
0000
;
