#TITLE:Spin;
#SUBTITLE:;
#ARTIST:Airbase;
#TITLETRANSLIT:;
#SUBTITLETRANSLIT:;
#ARTISTTRANSLIT:;
#GENRE:EPIC TRANCE;
#CREDIT:;
#BANNER:bn.png;
#BACKGROUND:bg.png;
#LYRICSPATH:;
#CDTITLE:;
#MUSIC:Spin.mp3;
#OFFSET:-0.040;
#SAMPLESTART:44.900;
#SAMPLELENGTH:12.000;
#SELECTABLE:YES;
#BPMS:0.000=139.000
,32.000=278.001
,36.000=69.500
,69.000=278.001
,77.000=139.000
;
#STOPS:205.000=1.295
;
#BGCHANGES:;
#KEYSOUNDS:;
#ATTACKS:;

//---------------dance-single - ----------------
#NOTES:
     dance-single:
     :
     Hard:
     8:
     0.489,0.609,0.358,0.171,0.341,339.000,42.000,20.000,0.000,0.000,0.000,0.489,0.609,0.358,0.171,0.341,339.000,42.000,20.000,0.000,0.000,0.000:
0000
0000
0000
0000
,
0000
0000
0000
0000
,
0000
0000
0000
0000
,
0000
0000
0000
0000
,
2000
3001
0020
0130
,
0200
0310
0020
0031
,
2000
3100
0200
1300
,
2000
3001
0002
0013
,
0200
0000
0000
0000
,
0020
0000
0000
0000
0000
0000
0000
0000
0000
0000
0000
0000
0000
0000
0000
0000
0000
0000
0000
0000
0000
0000
0000
0000
0000
0000
0000
0000
0000
0000
0000
0000
0330
0000
0000
0000
0000
0000
0000
0000
0000
0000
0000
0000
0000
0000
0000
0000
0001
0000
0000
0000
0000
0000
0000
0000
0000
0000
0000
0000
0000
0000
0000
0000
0000
0000
0001
0000
0000
0000
0000
0000
0000
0000
0000
0000
0000
0000
0000
0000
0000
0000
0000
0000
0001
0000
0000
0000
0000
0000
0000
0000
0000
0000
0000
0000
0000
0000
0000
0000
0000
0000
0000
0000
0000
0000
0000
0000
0100
0000
0000
0000
0000
0000
0000
0000
0000
0000
0000
0000
1000
0000
0000
0000
0000
0000
0000
0000
0000
0000
0000
0000
0100
0000
0000
0000
0000
0000
0000
0000
0000
0000
0000
0000
0010
0000
0000
0000
0000
0000
0000
0000
0000
0000
0000
0000
0000
0000
0000
0000
0000
0000
0010
0000
0000
0000
0000
0000
0000
0000
0000
0000
0000
0000
0000
0000
0000
0000
0000
0000
0010
0000
0000
0000
0000
0000
0000
0000
0000
0000
0000
0000
,
0000
0000
0100
0000
1000
0000
0001
0000
0010
0000
0000
0010
0000
0000
0010
0000
0000
0000
0100
0000
1000
0000
0001
0000
0100
0000
0000
0100
0000
0000
0100
0000
,
0000
0000
0010
0000
1000
0000
0100
0000
1000
0000
0000
1000
0000
0000
1000
0000
0000
0000
1000
0000
0001
0000
0010
0000
0001
0000
0000
0001
0000
0000
0001
0000
,
0000
0000
0100
0000
0010
0000
1000
0000
0100
0000
0000
0100
0000
0000
0100
0000
0000
0000
0010
0000
0001
0000
0010
0000
0100
0000
0000
0100
0000
0000
0100
0000
,
0000
0100
1000
0010
0110
0000
0010
0000
1000
0000
0010
0000
0001
0000
0010
0000
,
1000
0100
0001
0100
1000
0010
0100
0001
,
0010
0001
0100
0010
1000
0100
1000
0001
,
0010
0000
0100
0000
1000
0000
0100
0000
0010
0000
1000
0000
0001
0100
1000
0010
,
0001
0100
1000
0200
0000
0000
0000
0000
0000
0000
0000
0000
0000
0000
0000
0000
,
0000
0000
0000
0000
,
0000
0000
0000
0000
1300
0000
0000
0001
0000
0000
0010
0000
0000
0000
0100
0000
,
1000
0000
0010
0000
0100
0000
0000
0001
0000
0000
0010
0000
0000
0000
0010
0000
,
0100
0000
1000
0000
0001
0000
0000
1000
0000
0000
0100
0000
0000
0000
0100
0000
,
1000
0000
0100
0000
0010
0000
0000
0100
0000
0000
1000
0000
0000
0000
0001
0000
,
0100
0000
0001
0000
0010
0000
0000
0100
0000
0000
0010
0000
0000
0000
0010
0000
,
0001
0000
0100
0000
0010
0000
0000
1000
0000
0000
0100
0000
0000
0000
1000
0000
,
1000
0000
0010
0000
0100
0000
0000
0001
0000
0000
1000
0000
0000
0000
1000
0000
,
0001
0000
0010
0000
0100
0000
0000
1000
0000
0000
0010
0000
0110
0000
0000
0000
,
0100
0000
0000
0000
1002
0000
0000
1000
0000
0000
1003
0000
0000
0000
1000
0000
,
0001
0000
0010
0000
0200
0000
0000
0010
0000
0000
0310
0000
0000
0000
0010
0000
,
0001
0000
0100
0000
0020
0000
0000
1000
0000
0000
1030
0000
0000
0000
1000
0000
,
0100
0000
0001
0000
0200
0000
0000
0010
0000
0000
0310
0000
0000
0000
0100
0000
,
0010
0000
1000
0000
0200
0000
0000
0010
0000
0000
1300
0000
0000
0000
1000
0000
,
0001
0000
0010
0000
0002
0000
0000
0100
0000
0000
0013
0000
0000
0000
0001
0000
,
0100
0000
0010
0000
2000
0000
0000
0100
0000
0000
3001
0000
0000
0000
1000
0000
,
1000
0000
0001
0000
0020
0000
0000
0100
0000
0000
0130
0000
0110
0000
0000
0000
,
0010
0000
0000
0000
0101
0000
0000
0101
0000
0000
0101
0000
0000
0000
0001
0000
,
0100
0000
0010
0000
0110
0000
0000
0110
0000
0000
0110
0000
0000
0000
0010
0000
,
1000
0000
0100
0000
0110
0000
0000
0110
0000
0000
0110
0000
0000
0000
0010
0000
,
0001
0000
0100
0000
1010
0000
0000
1010
0000
0000
1010
0000
0000
0000
0010
0000
,
1000
0000
0100
0000
1100
0000
0000
0011
0000
0000
0101
0000
0000
0000
0001
0000
,
0100
0000
0010
0000
0110
0000
0000
0101
0000
0000
0011
0000
0000
0000
0001
0000
,
1000
0000
0100
0000
0110
0000
0000
0011
0000
0000
1100
0000
0000
0000
1000
0000
,
0001
0000
0010
0000
0110
0000
0000
1100
0000
0000
0011
0000
0101
0000
0000
0000
,
0010
0000
0000
0000
0001
0000
1000
0100
0000
0001
0010
0000
0000
0000
0001
0000
,
0100
0000
0010
0000
1000
0000
0001
0010
0000
0100
1000
0000
0000
0000
1000
0000
,
0010
0000
0100
0000
0010
0000
1000
0100
0000
0010
0001
0000
0000
0000
0100
0000
,
0010
0000
1000
0000
0001
0000
0001
0010
0000
1000
0100
0000
0000
0000
1000
0000
,
0001
0000
0100
0000
0010
0000
0010
1000
0000
0001
0100
0000
0000
0000
0001
0000
,
1000
0000
0100
0000
0010
0000
0001
0010
0000
0010
0100
0000
0000
0000
1000
0000
,
0001
0010
1100
0000
0000
0000
0011
0000
,
0000
0000
0101
0100
0010
1000
1100
0000
,
0011
0000
0000
0000
1001
0000
0000
0000
1000
0000
0000
0100
0000
0000
0010
0000
,
0000
0000
0100
0000
1100
0000
0000
0000
0100
0000
0000
0100
0000
0000
0100
0000
,
0000
0000
0010
0000
0110
0000
0000
0000
1000
0000
0000
0001
0000
0000
0010
0000
,
0000
0000
0100
0000
1100
0000
0000
0000
0010
0000
0000
0010
0000
0000
0010
0000
,
0000
0000
0100
0000
1001
0000
0000
0000
0001
0000
0000
0010
0000
0000
0100
0000
,
0000
0000
1000
0000
1100
0000
0000
0000
0001
0000
0000
0100
0000
0000
0010
0000
,
0000
0000
0100
0000
0110
0000
0000
0000
1000
0000
0000
0001
0000
0000
0010
0000
,
0000
0000
0100
0000
0011
0000
0000
0000
0100
0000
0000
1000
0000
0000
0010
0000
,
0200
0000
0300
0000
;

//---------------dance-single - ----------------
#NOTES:
     dance-single:
     :
     Challenge:
     9:
     0.644,0.819,0.392,0.358,0.619,440.000,46.000,42.000,0.000,0.000,0.000,0.644,0.819,0.392,0.358,0.619,440.000,46.000,42.000,0.000,0.000,0.000: // measure 0
0000
0000
0000
0000
,  // measure 1
0000
0000
0000
0000
,  // measure 2
0000
0000
0000
0000
,  // measure 3
0000
0000
0000
0000
,  // measure 4
1000
0001
0000
0100
0000
0000
0010
0000
0000
0000
0100
0000
0010
1000
0000
0100
,  // measure 5
0000
1000
0000
0001
0000
0000
0100
0000
0000
0000
0100
0000
0010
1000
0000
0100
,  // measure 6
0020
0031
0020
0130
,  // measure 7
0020
1030
0020
0130
,  // measure 8
2002
0000
0000
0000
,  // measure 9
3003
0000
0000
0000
0000
0000
0000
0000
1000
0000
0000
0100
0000
0000
1000
0000
0000
0000
1000
0000
0100
0000
0010
0000
1000
0000
0000
0100
0000
0000
0001
0000
,  // measure 10
0000
0000
0001
0000
0100
0000
0010
0000
0001
0000
0000
0010
0000
0000
0100
0000
0000
0000
0010
0000
0001
0000
0100
0000
0001
0000
0000
0100
0000
0000
0010
0000
,  // measure 11
0000
0000
0100
0000
0001
0000
0100
0000
1000
0000
0000
0100
0000
0000
0010
0000
0000
0000
0100
0000
0010
0000
1000
0000
0100
0000
0000
0001
0000
0000
0100
0000
,  // measure 12
0000
0000
0100
0000
0010
0000
0001
0000
0100
0000
0000
1000
0000
0000
0100
0000
0000
0000
0100
0000
0010
0000
1000
0000
0100
0000
0000
0001
0000
0000
0100
0000
,  // measure 13
0000
0010
0001
1000
1000
0100
0001
0100
1000
0100
0001
0100
1000
0010
0001
0010
,  // measure 14
1000
0010
0001
0010
1000
0010
0100
0010
1000
0010
0100
0010
1000
0001
0010
0001
,  // measure 15
1000
0001
0010
0001
1000
0001
0010
0001
0100
0001
0010
0001
0100
0010
1000
0100
,  // measure 16
0010
0100
1000
0010
0100
0001
0010
0100
1000
0001
0010
0100
1000
1000
0001
0001
,  // measure 17
0100
0100
0010
0010
1000
0000
0000
0000
0000
0000
0000
0000
1000
0000
0001
0000
,  // measure 18
0010
0100
1000
0100
0010
0001
1000
0001
,  // measure 19
0100
0000
0001
0000
0020
0000
0000
0001
0000
0000
0130
0000
0000
0000
0100
0000
,  // measure 20
1000
0000
0010
0000
0200
0000
0000
1000
0000
0000
0310
0000
0000
0000
0100
0000
,  // measure 21
0010
0000
1000
0000
0200
0000
0000
0010
0000
0000
1300
0000
0000
0000
1000
0000
,  // measure 22
0100
0000
0010
0000
0002
0000
0000
0010
0000
0000
0103
0000
0000
0000
0100
0000
,  // measure 23
0010
0000
1000
0000
0200
0000
0000
1000
0000
0000
0310
0000
0000
0000
0010
0000
,  // measure 24
0001
0000
0100
0000
0020
0000
0000
1000
0000
0000
0031
0000
0000
0000
0001
0000
,  // measure 25
0100
0000
1000
0000
0200
0000
0000
1000
0000
0000
0310
0000
0000
0000
0010
0000
,  // measure 26
1000
0000
0001
0000
0020
0000
0000
1000
0000
0000
0031
0000
0000
0000
0001
0000
,  // measure 27
0010
0000
0100
0000
1200
0000
0000
0010
0000
0000
1300
0000
0000
0000
1000
0000
,  // measure 28
0010
0000
0100
0000
0120
0000
0000
1000
0000
0000
0130
0000
0000
0000
0100
0000
,  // measure 29
0010
0000
1000
0000
1002
0000
0000
0010
0000
0000
0103
0000
0000
0000
0100
0000
,  // measure 30
0010
0000
1000
0000
1020
0000
0000
0100
0000
0000
0031
0000
0000
0000
0001
0000
,  // measure 31
0100
0000
0010
0000
2010
0000
0000
0100
0000
0000
3010
0000
0000
0000
1000
0000
,  // measure 32
0001
0000
0010
0000
0120
0000
0000
0100
0000
0000
1030
0000
0000
0000
1000
0000
,  // measure 33
0010
0000
0001
0000
0201
0000
0000
0010
0000
0000
1300
0000
0000
0000
1000
0000
,  // measure 34
0010
0000
0100
0000
0102
0000
0000
0010
0000
0000
1003
0000
1001
0000
0000
0000
,  // measure 35
0010
0000
0000
0000
1001
0000
0000
0101
0000
0000
1001
0000
0000
0000
0001
0000
,  // measure 36
0010
0000
0100
0000
1100
0000
0000
1010
0000
0000
0110
0000
0000
0000
0100
0000
,  // measure 37
0010
0000
1000
0000
1001
0000
0000
0011
0000
0000
0110
0000
0000
0000
0100
0000
,  // measure 38
0010
0000
0001
0000
0011
0000
0000
0101
0000
0000
1010
0000
0000
0000
1000
0000
,  // measure 39
0001
0000
0010
0000
0110
0000
0000
1100
0000
0000
0110
0000
0000
0000
0010
0000
,  // measure 40
0001
0000
0100
0000
0101
0000
0000
1010
0000
0000
0110
0000
0000
0000
0010
0000
,  // measure 41
0100
0000
1000
0000
1100
0000
0000
0011
0000
0000
0101
0000
0000
0000
0001
0000
,  // measure 42
0100
0000
0010
0000
1010
0000
0000
0101
0000
0000
0011
0000
0000
0000
0001
0000
,  // measure 43
0010
0000
0100
0000
1000
0000
0001
1000
0001
0000
0100
0000
0010
0000
1000
0000
,  // measure 44
0010
0000
0001
0000
0010
0000
0100
0001
0010
0000
0100
0000
1000
0000
0100
0000
,  // measure 45
0001
0000
0100
0000
1000
0000
0010
0100
0010
0000
0100
0000
0001
0000
1000
0000
,  // measure 46
0100
0000
0010
0000
0100
0000
1000
0010
0100
0000
0010
0000
1000
0000
0001
0010
,  // measure 47
0001
0000
0100
0000
0010
0000
1000
0100
0000
0010
0001
0000
0100
0000
0010
0000
,  // measure 48
1000
0000
0001
0000
0001
0000
0010
0100
0000
1000
0010
0000
0100
0000
0100
0000
,  // measure 49
0001
0000
1000
0000
0100
0000
0100
0010
0000
0010
0001
0000
0011
0000
0001
0100
,  // measure 50
0000
0100
0010
0000
0110
0000
0010
1000
0000
1000
0100
0000
1100
0000
0100
0000
,  // measure 51
0010
0000
0001
0000
1100
0000
0000
0000
2010
0000
0000
0100
0000
3000
2002
0000
,  // measure 52
3003
0000
0001
0000
0100
0010
0000
0010
2000
0000
0000
0100
0000
3000
2020
0000
,  // measure 53
3030
0000
1000
0000
0100
0010
0000
0010
0002
0000
0000
0100
0000
0003
0022
0000
,  // measure 54
0033
0000
0001
0000
0010
0100
0000
0100
2000
0000
0000
0010
0000
3000
2200
0000
,  // measure 55
3300
0000
1000
0000
0010
0100
0000
0100
0001
0000
0001
0010
0000
0010
0220
0000
,  // measure 56
0330
0000
0100
0000
1000
0100
0000
0100
0010
0000
0010
0001
0000
0001
0202
0000
,  // measure 57
0303
0000
0001
0000
0100
0010
0000
0100
0001
0000
0001
1000
0000
1000
2020
0000
,  // measure 58
3030
0000
1000
0000
0010
0100
0000
0001
0010
0000
0010
0100
0000
0100
1000
0000
,  // measure 59
1000
0001
1000
0001
1000
0001
1000
0001
1000
0001
1000
0002
2000
0000
0000
0000
0000
0000
0000
0000
0000
0000
0000
0000
,  // measure 60
3003
0000
0000
0000
;

//---------------dance-single - ----------------
#NOTES:
     dance-single:
     :
     Medium:
     5:
     0.264,0.305,0.026,0.026,0.162,211.000,3.000,3.000,0.000,0.000,0.000,0.264,0.305,0.026,0.026,0.162,211.000,3.000,3.000,0.000,0.000,0.000:
0000
0000
0000
0000
,
0000
0000
0000
0000
,
0000
0000
0000
0000
,
0000
0000
0000
0000
,
1000
0001
0100
0010
,
0100
0001
0010
1000
,
0010
0001
0100
0001
,
0010
0100
1000
0001
,
0200
0000
0000
0000
,
0320
0000
1030
0000
0000
0100
0010
0000
,
0000
0100
0010
0000
0000
0100
0010
0000
,
0000
0010
0001
0000
0000
0001
0100
0000
,
0000
0100
0010
0000
0000
0100
0010
0000
,
0000
0100
0010
0000
1000
0000
0001
1000
,
0100
1000
0001
0000
0100
0000
0010
1000
,
0010
0100
0001
0000
0010
0000
0100
0010
,
0001
1000
0100
0100
0010
0010
0010
0001
,
0010
0100
1000
0000
0000
0000
0000
0000
,
0000
0000
0000
0000
,
0000
0000
0000
0000
1000
0000
0000
0001
0000
0000
0100
0000
0000
0000
0000
0000
,
0000
0000
0000
0000
0001
0000
0000
0100
0000
0000
0010
0000
0000
0000
0000
0000
,
0000
0000
0000
0000
0100
0000
0000
0100
0000
0000
0010
0000
0000
0000
0000
0000
,
0000
0000
0000
0000
0010
0000
0000
1000
0000
0000
0100
0000
0000
0000
0000
0000
,
0000
0000
0000
0000
0100
0000
0000
0010
0000
0000
0001
0000
0000
0000
0000
0000
,
0000
0000
0000
0000
0001
0000
0000
0100
0000
0000
0010
0000
0000
0000
0000
0000
,
0000
0000
0000
0000
0100
0000
0000
0100
0000
0000
0100
0000
0000
0000
0000
0000
,
0000
0000
0000
0000
0010
0000
0000
1000
0000
0000
0001
0000
0000
0000
0000
0000
,
0000
0000
0000
0000
1001
0000
0000
0001
0000
0000
0001
0000
0000
0000
0000
0000
,
0000
0000
0000
0000
1000
0000
0000
0010
0000
0000
1000
0000
0000
0000
0000
0000
,
0000
0000
0000
0000
1000
0000
0000
0100
0000
0000
1000
0000
0000
0000
0000
0000
,
0000
0000
0000
0000
0100
0000
0000
0010
0000
0000
0100
0000
0000
0000
0000
0000
,
0000
0000
0000
0000
0010
0000
0000
0001
0000
0000
0010
0000
0000
0000
0000
0000
,
0000
0000
0000
0000
0010
0000
0000
0100
0000
0000
1000
0000
0000
0000
0000
0000
,
0000
0000
0000
0000
0100
0000
0000
1000
0000
0000
0010
0000
0000
0000
0000
0000
,
0000
0000
0000
0000
0100
0000
0000
0010
0000
0000
1000
0000
1001
0000
0000
0000
,
0000
0000
0000
0000
1001
0000
0000
0001
0000
0000
0001
0000
0000
0000
0000
0000
,
0001
0000
0000
0000
0100
0000
0000
0100
0000
0000
0100
0000
0000
0000
0000
0000
,
0010
0000
0000
0000
1000
0000
0000
1000
0000
0000
1000
0000
0000
0000
0000
0000
,
0100
0000
0000
0000
0010
0000
0000
0010
0000
0000
0010
0000
0000
0000
0000
0000
,
0100
0000
0000
0000
1000
0000
0000
1000
0000
0000
1000
0000
0000
0000
0000
0000
,
0100
0000
0000
0000
0010
0000
0000
0010
0000
0000
0010
0000
0000
0000
0000
0000
,
0100
0000
0000
0000
0010
0000
0000
0010
0000
0000
0010
0000
0000
0000
0000
0000
,
0001
0000
0000
0000
0100
0000
0000
0100
0000
0000
0100
0000
0000
0000
0000
0000
,
0010
0000
0000
0000
1000
0000
0000
0001
0000
0000
0100
0000
0000
0000
0001
0000
,
0100
0000
0010
0000
0100
0000
0000
0100
0000
0000
0100
0000
0000
0000
0010
0000
,
0100
0000
0010
0000
0100
0000
0000
0100
0000
0000
0100
0000
0000
0000
0010
0000
,
1000
0000
0010
0000
1000
0000
0000
1000
0000
0000
1000
0000
0000
0000
1000
0000
,
0100
0000
0010
0000
0001
0000
0000
0001
0000
0000
0001
0000
0000
0000
0001
0000
,
0010
0000
0100
0000
1000
0000
0000
1000
0000
0000
1000
0000
0000
0000
1000
0000
,
0010
0100
0010
0000
0000
0000
1000
0000
,
0000
0001
0010
0100
,
1000
0000
0000
0000
0001
0000
0000
0000
1000
0000
0000
0001
0000
0000
0100
0000
,
0000
0000
0000
0000
0000
0000
0000
0000
0001
0000
0000
1000
0000
0000
0100
0000
,
0000
0000
0000
0000
0000
0000
0000
0000
1000
0000
0000
0010
0000
0000
0100
0000
,
0000
0000
0000
0000
0000
0000
0000
0000
0100
0000
0000
0010
0000
0000
1000
0000
,
0000
0000
0000
0000
0000
0000
0000
0000
0001
0000
0000
1000
0000
0000
0100
0000
,
0000
0000
0000
0000
0000
0000
0000
0000
0010
0000
0000
0001
0000
0000
0010
0000
,
0000
0000
0000
0000
0000
0000
0000
0000
0010
0000
0000
0100
0000
0000
1000
0000
,
0000
0000
0000
0000
0000
0000
0000
0000
0100
0000
0000
1000
0000
0000
0010
0000
,
0200
0000
0301
0000
;

//---------------dance-single - ----------------
#NOTES:
     dance-single:
     :
     Easy:
     4:
     0.246,0.254,0.000,0.085,0.000,192.000,0.000,10.000,0.000,0.000,0.000,0.246,0.254,0.000,0.085,0.000,192.000,0.000,10.000,0.000,0.000,0.000:
0000
0000
0000
0000
,
0000
0000
0000
0000
,
0000
0000
0000
0000
,
0000
0000
0000
0000
,
1000
0100
1000
0010
,
1000
0001
1000
1000
,
0001
0100
0001
1000
,
0001
0010
0001
0001
,
2000
0000
0000
0000
,
3000
0001
0000
0100
,
0000
0010
0000
1000
,
0000
0100
0000
1000
,
0000
0010
0000
0100
,
0000
0001
1000
0100
,
1000
0001
0001
0010
,
0001
1000
0010
0100
,
0010
1000
0001
0010
,
0100
0000
0000
0000
,
0000
0000
0000
0000
,
0000
1000
1000
1000
,
0001
0100
0100
0100
,
0010
1000
1000
1000
,
0001
0010
0010
0010
,
0100
1000
1000
1000
,
0001
0010
0010
0010
,
0001
0100
0100
0100
,
0010
1000
1000
1000
,
0001
0010
0001
0100
,
0010
1000
0100
0001
,
0100
0001
0010
0001
,
0100
0001
1000
0100
,
1000
0001
0100
0001
,
0010
0001
1000
0100
,
0010
0100
1000
0010
,
0100
0001
1000
0100
,
1000
0002
0100
0103
,
0010
0200
0010
0310
,
0100
0020
1000
1030
,
0010
0200
0010
0310
,
0100
0002
0010
0013
,
0001
0200
0010
0310
,
0001
2000
0100
3100
,
0010
0002
0010
0010
,
1003
0001
0100
0010
,
1000
0001
0010
0001
,
1000
0100
1000
0001
,
0100
0001
0010
0100
,
1000
0100
0010
0100
,
1000
0001
0100
0001
,
0010
0001
0000
0100
,
0000
0010
0000
1000
,
0001
1000
0001
0001
,
0000
1000
0010
0010
,
0000
0100
0010
0010
,
0000
1000
0100
0100
,
0000
1000
0001
0001
,
0000
0100
0010
0010
,
0000
1000
0001
0001
,
0000
0010
0100
1000
,
0020
0000
0130
0000
;

//---------------dance-single - ----------------
#NOTES:
     dance-single:
     :
     Beginner:
     2:
     0.123,0.152,0.009,0.026,0.000,97.000,1.000,3.000,0.000,0.000,0.000,0.123,0.152,0.009,0.026,0.000,97.000,1.000,3.000,0.000,0.000,0.000:
0000
0000
0000
0000
,
0000
0000
0000
0000
,
0000
0000
0000
0000
,
0000
0000
0000
0000
,
0000
0000
0000
0000
,
0000
0000
0000
0000
,
0000
0000
0000
0000
,
0000
0000
0000
0000
,
2002
0000
0000
0000
,
3003
1000
0000
0001
,
0000
0100
0000
0010
,
0000
1000
0000
0010
,
0000
0100
0000
0010
,
0000
1000
0000
0001
,
0000
0010
0000
0001
,
0000
0100
0000
0010
,
0000
0010
0000
1000
,
0000
0000
0000
0000
,
0000
0000
0000
0000
,
0000
0100
0000
0000
,
0000
0010
0000
0000
,
0000
0001
0000
0000
,
0000
1000
0000
0000
,
0000
0010
0000
0000
,
0000
0100
0000
0000
,
0000
0001
0000
0000
,
0000
1000
0000
0000
,
0000
0010
0000
0000
,
0100
0100
0000
0000
,
0010
0010
0000
0000
,
1000
1000
0000
0000
,
0001
0001
0000
0000
,
1000
1000
0000
0000
,
0010
0010
0000
0000
,
0100
0100
0000
0010
,
0000
0100
0000
0000
,
0010
0100
0000
0000
,
0100
0001
0000
0000
,
0001
0010
0000
0000
,
0010
0100
0000
0000
,
0100
0001
0000
0000
,
0001
1000
0000
0000
,
1000
0010
0000
0100
,
0000
0010
0010
0010
,
0000
0100
0100
0100
,
0000
0010
0010
0010
,
0000
0100
0100
0100
,
0000
0001
0001
0001
,
0000
1000
1000
1000
,
0000
0001
0000
1000
,
0000
0001
0000
1000
,
1000
1000
0001
0000
,
0000
0100
0010
0000
,
0000
0100
0001
0000
,
0000
0001
0010
0000
,
0000
0001
1000
0000
,
0000
0100
0010
0000
,
0000
0100
1000
0000
,
0000
1000
0010
0000
,
0200
0000
0300
0000
;
