#TITLE:Son of Sun;
#SUBTITLE:;
#ARTIST:Hosoe Shinji;
#TITLETRANSLIT:;
#SUBTITLETRANSLIT:;
#ARTISTTRANSLIT:;
#CREDIT:;
#BANNER:bn.png;
#BACKGROUND:bg.png;
#LYRICSPATH:;
#CDTITLE:;
#MUSIC:Son of Sun.mp3;
#OFFSET:-0.131;
#SAMPLESTART:15.360;
#SAMPLELENGTH:12.000;
#SELECTABLE:YES;
#BPMS:0.000=200.001;
#STOPS:44.000=0.150
,44.500=0.150
,45.000=0.150
,45.500=0.150
,298.000=0.300
,298.500=0.300
;
#BGCHANGES:;

//---------------dance-single - ----------------
#NOTES:
     dance-single:
     :
     Hard:
     9:
     0.625,0.706,0.560,0.084,0.014:
0000
0000
0000
0000
,
0000
0000
0000
0000
,
0000
0000
0000
0000
,
0000
0000
0000
0000
,
1000
0000
0000
1000
0000
0000
1000
0000
0100
0000
0010
0000
0100
0000
0000
0000
,
0000
0000
0000
0000
,
0000
0000
0000
0000
,
0000
0000
0000
0000
,
0001
0000
0000
0001
0000
0000
0100
0000
0001
0000
0010
0000
0100
0000
0000
0000
,
0000
0000
0000
0000
,
0000
0000
0000
0000
,
0001
0100
0010
1000
0010
1000
0100
0010
,
1000
0001
0100
0010
1000
0100
0000
0100
,
0010
0100
0010
0001
1000
0001
1000
0001
,
0010
0100
1000
0010
0100
0001
0000
0001
,
0100
0010
0100
0010
0100
0010
1000
0001
,
0010
0001
1000
0100
1000
0001
0000
0001
,
0010
1000
0010
0001
0100
0010
1000
0001
,
0010
0100
0010
0001
1000
0000
1010
0000
,
0001
0000
0101
0000
0001
0001
0100
0000
,
0100
0100
0010
0000
0010
1000
0000
1000
,
0100
0010
0000
0100
0010
0010
0001
0000
,
0001
0001
0100
0000
0100
0010
0000
0010
,
1000
0001
0010
0100
1000
1000
0100
0000
,
0100
0100
1000
0000
0100
0010
0000
0010
,
0001
0100
0000
0100
0010
0010
1000
0000
,
0010
0010
0100
0000
0001
0100
0001
0100
,
0001
0100
0002
0000
0013
0100
1000
0010
,
0110
0000
0000
0000
0110
0010
1000
0001
,
0011
0000
0000
0000
0011
0001
1000
0100
,
0110
0000
2002
0000
,
0000
0000
0000
3003
1001
0001
0100
0010
,
1010
0000
0000
0000
1100
1000
0001
0010
,
0110
0000
0000
0000
0101
0010
1000
0001
,
0101
0000
0220
0000
,
0000
0330
0110
0000
,
0000
0000
0000
0001
0101
0000
0000
0000
,
0000
0000
0000
1000
1100
0000
0000
0000
,
0000
0000
0000
0010
0110
0000
1001
0000
,
0110
1001
0110
0000
,
0000
0000
0000
0001
0101
0000
0000
0000
,
0000
0000
0000
0010
0110
0000
0000
0000
,
0000
0000
0000
0010
1010
0000
0101
0000
,
0011
1100
1001
0001
,
0001
0100
1000
0100
0000
1000
0100
0001
,
0100
1000
0100
0000
1010
0000
1010
0000
,
0010
1000
0010
0001
0000
0010
0001
0010
,
1000
0010
0001
0000
1001
0000
0101
0000
,
0001
0100
0010
1000
0000
1000
0100
0001
,
0100
1000
0010
0000
0100
0000
0101
0000
,
0000
0000
0000
0000
,
0001
0001
0001
0000
0011
0000
0010
0000
,
0100
0000
1000
0100
0000
0010
0001
0000
,
0001
0000
0100
0001
0101
0000
0100
0000
,
0010
0000
1000
0010
0000
0100
0001
0000
,
0010
0100
1100
0001
,
1000
0000
0100
1000
0000
1000
0010
0000
,
0100
0000
0001
1000
1001
0000
0110
0000
,
0100
0000
0001
0010
0000
0010
0100
0000
,
1000
0000
0001
0000
0010
0100
1000
0010
,
0100
0000
0100
0010
1000
0010
1000
0100
,
0010
0000
0010
0001
0100
0010
0100
0001
,
0010
0000
0001
0100
1000
0100
0010
1000
,
0001
0010
0100
0000
0100
0010
0001
1000
,
0100
0000
1000
0001
0100
0001
0010
0100
,
0010
0000
0100
1000
0010
0100
0001
1000
,
0100
0000
1000
0010
0100
0001
0010
0100
,
0010
0001
0110
0101
,
1100
0000
1001
0000
0001
0100
0010
0000
,
0101
0100
0110
0001
,
1100
0010
0202
0000
,
0000
0000
0303
0000
0001
0100
0000
0100
,
0010
1000
0100
0000
0010
0000
0011
0000
,
1001
0000
0001
0000
0100
0010
0000
0010
,
1000
0000
0001
0010
0011
1100
1001
0000
,
0001
0100
0010
0100
0001
1000
0100
0010
,
0100
1000
0001
0100
0001
0010
0110
0000
,
0100
1000
0010
0100
1000
0100
0010
1000
,
0001
0010
0110
0000
0100
1000
1010
0000
,
1000
0001
0010
0001
0100
0010
1000
0001
,
0010
0001
0100
1000
0100
0010
0110
0000
,
0100
0010
1000
0001
0010
0100
1000
0001
,
0100
0000
0000
0010
0000
0000
1000
0000
1100
0000
0110
0000
0022
0000
0000
0000
,
0000
0000
0000
0000
,
0033
0000
0000
0000
;

//---------------dance-single - ----------------
#NOTES:
     dance-single:
     :
     Medium:
     7:
     0.447,0.588,0.261,0.084,0.000:
0000
0000
0000
0000
,
0000
0000
0000
0000
,
0000
0000
0000
0000
,
0000
0000
0000
0000
,
0001
0000
0100
0000
0010
1000
0001
0000
,
0000
0000
0000
0000
,
0000
0000
0000
0000
,
0000
0000
0000
0000
,
1000
0000
0100
0000
0010
0100
1000
0000
,
0000
0000
0000
0000
,
0000
0000
0000
0000
,
1000
0001
0100
0001
0010
0000
0100
0000
,
1000
0000
0001
0000
0100
0010
0000
0100
,
0001
0010
0100
1000
0001
0000
0100
0000
,
0001
0000
0010
0000
0100
1000
0000
0100
,
1000
0010
0100
0001
1000
0000
0010
0000
,
0100
0000
0001
0000
0010
0100
0000
0100
,
0010
0001
1000
0010
1000
0000
0100
0000
,
0010
0001
0002
0103
,
0200
0000
0310
0000
0100
0010
0100
0000
,
0010
0100
0010
0000
0100
0000
0001
0000
,
1000
0000
0100
0000
0010
0100
1000
0000
,
1000
0010
0100
0000
0001
0000
1000
0000
,
0001
0000
0010
0000
0100
1000
0100
0000
,
1000
0100
1000
0000
0100
0000
0010
0000
,
0001
0000
0100
0000
0010
0100
0010
0000
,
0100
0010
0100
0000
0100
0001
0100
0001
,
0100
0001
0100
0001
0100
0000
0010
0000
,
1010
0000
1000
0100
,
0110
0000
0010
0001
,
0101
0000
2002
0000
,
0000
3003
0001
0100
,
0110
0000
0010
1000
,
1001
0000
0001
1000
,
1100
0000
0220
0000
,
0000
0330
0011
0000
,
0000
0000
0000
0001
0100
0000
0000
0000
,
0000
0000
0000
0100
0010
0000
0000
0000
,
0000
0000
0000
0010
1000
0010
1000
0010
,
1000
0010
1000
0010
1000
0000
0000
0000
,
0000
0000
0000
1000
0100
0000
0000
0000
,
0000
0000
0000
1000
0001
0000
0000
0000
,
0000
0000
0000
1000
0010
0000
0010
0000
,
0010
0010
0100
0001
,
1000
0100
1000
0010
,
0100
0001
0100
0000
0010
0000
0100
0000
,
0001
1000
0100
0010
,
0001
0001
0010
0000
0001
0000
0100
0000
,
0010
1000
0001
0100
,
0010
1000
0100
0000
0010
0000
1100
0000
,
0000
0000
0000
0000
,
1000
0100
0010
0000
0011
0000
0000
0000
,
0000
0000
0000
0000
,
0000
0000
0000
0001
0100
0000
0110
0000
,
0000
0000
0000
0000
,
0000
0000
1010
0000
,
0000
0000
0000
0000
,
0000
0000
0000
0001
1001
0000
1001
0000
,
0000
0000
0001
0001
,
0001
0000
0001
0000
0001
0100
0010
0100
,
0010
0000
1000
0000
0010
0100
0010
0100
,
0010
0000
1000
0000
0001
0100
0001
0100
,
0001
0000
1000
0000
1000
0100
0010
0001
,
0010
0100
1000
0000
0010
1000
0010
0100
,
0001
1000
0010
0000
0010
0100
0001
1000
,
0010
0100
0001
0000
0010
0100
0001
1000
,
0010
0100
0001
0000
1000
0000
1000
0000
,
0001
0001
0101
1000
,
1100
1000
0101
0001
,
0110
0001
1010
0001
,
0011
0010
0220
0000
,
0000
0330
0110
0001
,
1010
0001
0011
0100
,
1100
0100
1100
0010
,
0110
0000
0010
0000
0001
1000
0100
0000
,
0000
1000
0000
0001
0000
0100
0000
0010
,
0000
1000
0000
0100
0000
1000
0100
0000
,
0000
0010
0000
0001
0000
0010
0000
0100
,
0000
0100
0010
0000
0000
0100
0010
0000
,
0000
0010
0000
0001
0000
0100
0000
1000
,
0000
0100
0000
0001
0000
0010
0001
0000
,
0000
0001
0000
0100
0000
0010
0000
0100
,
0010
0000
1000
0000
0001
0010
0200
0000
,
0000
0000
0000
0000
,
0300
0000
0000
0000
;

//---------------dance-single - ----------------
#NOTES:
     dance-single:
     :
     Easy:
     5:
     0.325,0.431,0.345,0.019,0.000:
0000
0000
0000
0000
,
0000
0000
0000
0000
,
0000
0000
0000
0000
,
0000
0000
0000
0000
,
0001
1000
0100
0100
,
0000
0000
0000
0000
,
0000
0000
0000
0000
,
0000
0000
0000
0000
,
1000
0001
0010
0010
,
0000
0000
0000
0000
,
0000
0000
0000
0000
,
0002
0000
0103
0010
,
1000
0100
1000
0010
,
0100
0100
0010
1000
,
0001
0010
0100
1000
,
0100
0100
1000
0001
,
0010
0001
1000
0010
,
0100
0100
0010
1000
,
0001
0010
0100
0100
,
0100
0100
0110
0000
,
1001
0000
0101
0000
,
1010
0000
0110
0000
,
1001
0000
1100
0000
,
0100
0100
0110
0000
,
0011
0000
0101
0000
,
0100
0000
0110
0000
,
1001
0000
0110
0010
,
0010
0010
1000
0001
,
0101
0000
0001
0100
,
0101
0000
0001
0100
,
0101
0000
1001
0000
,
0000
0000
1000
0100
,
1100
0000
1000
0100
,
1100
0000
1000
0100
,
1100
0000
1001
0000
,
0000
0000
1010
0000
,
0000
0000
0110
0000
,
0000
0000
0101
0000
,
0000
0000
0011
0010
,
0010
0010
0110
0000
,
0000
0000
1100
0000
,
0000
0000
1001
0000
,
0000
0000
0101
0001
,
0001
0001
1000
0001
,
0100
0001
1000
0100
,
1000
0001
1000
0010
,
1000
0001
0010
0001
,
1000
1000
0010
0100
,
1000
0100
0010
1000
,
0001
0010
0100
0010
,
0000
0000
0000
0000
,
0100
0010
0100
0000
0110
0000
0000
0000
,
0000
0000
0000
0000
,
0000
0000
0001
0001
,
0000
0000
0000
0000
,
0000
0000
1010
0000
,
0000
0000
0000
0000
,
0000
0000
0100
0100
,
0000
0000
0000
0000
,
0000
0000
0010
1000
,
0010
1000
0010
0100
,
0010
0100
0001
0100
,
0001
0100
0001
0010
,
0100
1000
0100
0010
,
0100
0010
0100
1000
,
0100
1000
0010
0100
,
0010
0100
0001
0100
,
0001
0100
0001
0000
,
1000
0000
0001
0001
,
0101
0000
0100
0000
,
0010
0000
1001
0000
,
0000
0000
0100
0000
,
0010
0000
1000
0100
,
0010
0000
0010
0000
,
0001
0000
0100
0000
,
0010
0100
0010
1000
,
0001
0010
0100
1100
,
0000
1000
0001
0100
,
0000
0110
0000
1001
,
0001
0001
1000
1000
,
0001
0100
0010
0110
,
0000
0010
1000
0001
,
0010
0100
1000
0020
,
0000
0000
0000
0000
,
0030
0000
0000
0000
;

//---------------dance-single - ----------------
#NOTES:
     dance-single:
     :
     Beginner:
     2:
     0.125,0.269,0.028,0.000,0.000: // measure 1
0000
0000
0000
0000
,  // measure 2
0000
0000
0000
0000
,  // measure 3
0000
0000
0000
0000
,  // measure 4
0000
0000
0000
0000
,  // measure 5
1000
0000
0000
0000
,  // measure 6
0000
0000
0000
0000
,  // measure 7
0000
0000
0000
0000
,  // measure 8
0000
0000
0000
0000
,  // measure 9
0001
0000
0000
0000
,  // measure 10
0000
0000
0000
0000
,  // measure 11
0000
0000
0000
0000
,  // measure 12
0010
0000
0010
0000
,  // measure 13
0000
0000
0000
0000
,  // measure 14
0000
0000
0100
0000
,  // measure 15
0000
0000
0000
0000
,  // measure 16
0001
0000
0001
0000
,  // measure 17
0000
0000
0000
0000
,  // measure 18
1000
0000
1000
0000
,  // measure 19
0000
0000
0010
0000
,  // measure 20
0010
0000
0100
0000
,  // measure 21
0100
0000
0100
0000
,  // measure 22
0000
0000
0010
0000
,  // measure 23
0010
0000
0010
0000
,  // measure 24
0000
0000
1000
0000
,  // measure 25
1000
0000
1000
0000
,  // measure 26
0000
0000
0001
0000
,  // measure 27
0001
0000
0001
0000
,  // measure 28
0000
0000
1000
1000
,  // measure 29
1000
0000
1000
1000
,  // measure 30
1000
0000
1000
1000
,  // measure 31
1000
0000
1001
0000
,  // measure 32
0000
0000
0001
0001
,  // measure 33
0001
0000
0001
0001
,  // measure 34
0001
0000
0001
0001
,  // measure 35
0001
0000
0110
0000
,  // measure 36
0000
0000
0100
0000
,  // measure 37
0000
0000
0010
0000
,  // measure 38
0000
0000
0100
0000
,  // measure 39
0000
0000
0010
0000
,  // measure 40
0000
0000
0001
0000
,  // measure 41
0000
0000
1000
0000
,  // measure 42
0000
0000
0010
0000
,  // measure 43
0000
0000
0100
0000
,  // measure 44
0000
0000
0001
0000
,  // measure 45
0000
0000
0000
0000
,  // measure 46
0000
0000
1000
0000
,  // measure 47
0000
0000
0000
0000
,  // measure 48
0000
0000
0010
0000
,  // measure 49
0000
0000
0000
0000
,  // measure 50
0000
0000
0100
0010
,  // measure 51
0000
0000
0000
0000
,  // measure 52
0001
1000
0100
0000
,  // measure 53
0000
0000
0000
0000
,  // measure 54
0000
0000
0010
0000
,  // measure 55
0000
0000
0000
0000
,  // measure 56
0000
0000
0001
0000
,  // measure 57
0000
0000
0000
0000
,  // measure 58
0000
0000
0100
0100
,  // measure 59
0000
0000
0000
0000
,  // measure 60
0000
0000
0010
0000
,  // measure 61
0000
0000
1000
0000
,  // measure 62
0000
0000
0100
0000
,  // measure 63
0000
0000
1000
0000
,  // measure 64
0000
0000
0001
0000
,  // measure 65
0000
0000
0100
0000
,  // measure 66
0000
0000
0010
0000
,  // measure 67
0000
0000
1000
0000
,  // measure 68
0000
0000
0001
0000
,  // measure 69
0000
0000
0000
1000
,  // measure 70
1000
0000
0010
0000
,  // measure 71
0100
0000
0001
0000
,  // measure 72
0000
0000
1000
0000
,  // measure 73
0000
0000
0000
0100
,  // measure 74
0100
0000
0010
0000
,  // measure 75
0000
0000
0001
0000
,  // measure 76
1000
0000
0000
0000
,  // measure 77
0000
0000
0000
0001
,  // measure 78
0001
0000
0000
0000
,  // measure 79
0000
0100
0000
0010
,  // measure 80
0010
0000
0000
0000
,  // measure 81
0000
0000
0000
0100
,  // measure 82
0000
0000
0000
0000
,  // measure 83
0010
0000
1001
0000
;
