#TITLE:Soft Paws;
#SUBTITLE:;
#ARTIST:Ryu☆;
#TITLETRANSLIT:;
#SUBTITLETRANSLIT:;
#ARTISTTRANSLIT:;
#CREDIT:;
#BANNER:bn.png;
#BACKGROUND:bg.png;
#LYRICSPATH:;
#CDTITLE:;
#MUSIC:Soft Paws.mp3;
#OFFSET:-1.051;
#SAMPLESTART:31.040;
#SAMPLELENGTH:12.000;
#SELECTABLE:YES;
#BPMS:0.000=128.000;
#STOPS:;
#BGCHANGES:;

//---------------dance-single - ----------------
#NOTES:
     dance-single:
     :
     Hard:
     8:
     0.472,0.493,0.170,0.260,0.170: // measure 1
0000
0000
0000
0000
,  // measure 2
0000
0000
0000
0000
,  // measure 3
0000
0000
0000
0000
,  // measure 4
0000
0000
0000
0000
,  // measure 5
0100
0100
0001
0001
,  // measure 6
1000
1000
0010
0010
,  // measure 7
0100
0100
0001
0001
,  // measure 8
2000
3100
2000
3010
,  // measure 9
0000
0100
0000
0010
0000
0100
0001
1000
,  // measure 10
0000
1000
0000
1000
0000
1000
0001
0010
,  // measure 11
0000
0010
0000
0010
0000
0010
0001
0100
,  // measure 12
0000
0010
0000
0100
0001
1000
0001
0010
,  // measure 13
0001
0100
0000
0100
0000
0100
0010
1000
,  // measure 14
0000
0001
0000
0001
0000
0001
1000
0100
,  // measure 15
0000
0010
0000
0010
0000
0010
0001
0100
,  // measure 16
0001
0100
0010
1000
0001
0100
0110
0000
,  // measure 17
0001
0000
0001
0000
1000
0000
1000
0000
0002
0000
0000
0013
0000
0000
0010
0000
,  // measure 18
0100
0000
0100
1000
0000
1000
0020
0000
0000
0000
0000
0000
0030
0000
0000
0000
,  // measure 19
0100
0000
0100
0000
0010
0000
1000
0000
0002
0000
0000
0013
0000
0000
0001
0000
,  // measure 20
0100
0000
0010
1000
0000
0010
2000
0000
0000
0000
0001
0000
3001
0000
1000
0000
,  // measure 21
0010
0000
0010
0000
0100
0000
0001
0000
0020
0000
0000
0130
0000
0000
0010
0000
,  // measure 22
0001
0000
0001
0100
0000
0010
2000
0000
0000
0000
0000
0000
3000
0000
0000
0000
,  // measure 23
1000
0000
1000
0000
0010
0000
0100
0000
0002
0000
0000
0013
0000
0000
0001
0000
,  // measure 24
0100
0000
0010
1000
0000
1000
0200
0000
0010
0000
0010
0000
0310
0000
0000
0000
,  // measure 25
0010
0000
0001
0000
0100
0000
1000
0000
0200
0000
0000
0310
0000
0000
0100
0000
,  // measure 26
0010
0000
1000
0001
0000
0001
0020
0000
0000
0000
0000
0000
0030
0000
0000
0000
,  // measure 27
0010
0000
0001
0000
0100
0000
0010
0000
2000
0000
0000
3010
0000
0000
1000
0000
,  // measure 28
0010
0000
0100
0001
0000
0001
0020
0000
0000
0000
0100
0000
0100
0000
0130
0000
,  // measure 29
0010
0000
0001
0000
0100
0000
1000
0000
0200
0000
0000
0310
0000
0000
0100
0000
,  // measure 30
0010
0000
0100
0001
0000
0001
0020
0000
0000
0000
0000
0000
0030
0000
0000
0000
,  // measure 31
0001
0000
1000
0000
0100
0000
1000
0000
0020
0000
0000
1030
0000
0000
0010
0000
,  // measure 32
0100
0000
0100
0010
0000
0010
2000
0000
0001
0000
3001
0000
1001
0000
0000
0000
,  // measure 33
0000
1000
0000
1000
0000
1000
0001
1000
,  // measure 34
0000
1000
0000
1000
0000
1000
0010
1000
,  // measure 35
0000
1000
0000
1000
0000
1000
0100
1000
,  // measure 36
0000
1000
0000
1000
0100
0010
0100
1000
,  // measure 37
0001
0010
0000
0010
0000
0010
0001
0010
,  // measure 38
0000
0010
0000
0010
0000
0010
0100
0010
,  // measure 39
0000
0010
0000
0010
0000
0010
1000
0010
,  // measure 40
0100
0010
0001
1000
0001
0100
1010
0000
,  // measure 41
0000
0000
0000
0000
0000
0100
0001
0001
,  // measure 42
0001
0000
0100
0000
0010
0000
1000
0000
0200
0000
0000
0310
0000
0000
0100
0000
,  // measure 43
0010
0000
0001
0010
0000
0010
0200
0000
0000
0000
0000
0000
0300
0000
0000
0000
,  // measure 44
0010
0000
0001
0000
0010
0000
0100
0000
2000
0000
0000
3010
0000
0000
1000
0000
,  // measure 45
0001
0000
0010
0100
0000
0010
0200
0000
0000
0000
1000
0000
1000
0000
1300
0000
,  // measure 46
0100
0000
0010
0000
0001
0000
1000
0000
0020
0000
0000
0130
0000
0000
0010
0000
,  // measure 47
1000
0000
0001
0010
0000
0001
0200
0000
0000
0000
0000
0000
0300
0000
0000
0000
,  // measure 48
0010
0000
1000
0000
0100
0000
0010
0000
0002
0000
0000
0013
0000
0000
0001
0000
,  // measure 49
0100
0000
0010
1000
0000
0010
0200
0000
0010
0000
0310
0000
0110
0000
0000
0000
,  // measure 50
0001
0100
0010
1000
0101
0000
1010
0000
,  // measure 51
0010
1000
0001
0100
0101
0000
1001
0000
,  // measure 52
1000
0100
0010
0001
0011
0000
1100
0000
,  // measure 53
0001
0010
0100
1000
0100
0010
0011
0000
,  // measure 54
0001
1000
0001
0100
0101
0000
1010
0000
,  // measure 55
0010
1000
0100
0010
0110
0000
1001
0000
,  // measure 56
0001
0100
1000
0100
0110
0000
1001
0000
,  // measure 57
0001
0000
0001
0100
0000
0010
2000
0000
0100
0000
3100
0000
1100
0000
0000
0000
,  // measure 58
2002
0000
0000
0000
,  // measure 59
3003
0000
0000
0000
;

//---------------dance-single - ----------------
#NOTES:
     dance-single:
     :
     Medium:
     5:
     0.318,0.332,0.161,0.089,0.000:
0000
0000
0000
0000
,
0000
0000
0000
0000
,
0000
0000
0000
0000
,
0000
0000
0000
0000
,
1000
1000
0001
0001
,
0100
0010
1010
0000
,
0010
0010
0100
0100
,
0010
0000
1000
0000
0001
1000
0100
0000
,
1000
0000
1000
0000
1000
0100
1000
0000
,
0100
0000
0100
0000
0100
0010
0100
0000
,
0010
0000
0001
0000
0010
0001
0010
0000
,
0001
0100
1000
0100
,
0010
0000
0010
0000
0010
0100
0001
0000
,
1000
0000
1000
0000
1000
0010
0100
0000
,
0010
0000
1000
0000
0010
1000
0001
0000
,
0020
0000
0000
0030
,
0001
0001
1000
1000
,
0001
0100
0010
2000
0000
0000
3000
0000
,
1000
1000
0010
0010
,
0100
0010
1000
0002
0000
0010
0013
0000
,
0001
0010
0001
0000
0100
0000
0010
0000
,
0100
0010
1000
0020
0000
0000
0030
0000
,
1000
0100
0010
0001
,
0011
0100
1100
0010
,
0100
0010
0100
0000
0010
0000
0010
0000
,
0100
0010
0100
0000
0110
0000
0000
0000
,
0001
1000
0001
0000
1000
0000
1000
0000
,
0001
1000
0001
0000
0100
0000
0101
0000
,
0001
0100
0010
0000
0100
0000
0010
0000
,
1000
0010
1000
0000
1000
0000
0100
0000
,
1000
0100
0010
0001
,
0001
0000
0010
0000
0100
0010
0010
0000
,
0000
0000
0000
0000
0000
0001
0100
0010
,
0000
0000
0000
0000
0000
0001
0100
0010
,
0000
0000
0000
0000
0000
0001
0100
0010
,
0000
0000
0000
0000
,
0010
1000
0010
0010
,
1000
0010
1000
0000
,
0001
0100
0001
0001
,
0100
0000
0001
0000
0100
0001
0010
0000
,
0000
0000
0000
0000
0000
0001
0010
0100
,
1000
0100
0010
0001
,
1000
0100
0020
0002
0000
0000
0033
0000
,
0001
0100
0010
1000
,
0001
0100
0020
2000
0000
0000
3030
0000
,
0010
1000
0010
0100
,
0010
1000
0002
0020
0000
0000
0033
0000
,
0001
0100
1000
0100
,
0010
0000
0010
0000
0010
0010
0010
0000
,
0100
0010
1010
1010
,
0010
1000
1001
1001
,
0001
0010
0011
0011
,
0001
0000
0100
0000
0010
0100
0001
1000
,
0100
0100
0110
0011
,
0001
0001
0101
0110
,
0010
0010
0110
1010
,
0010
0000
1000
0000
0001
0010
0100
0000
,
0011
0000
0000
0000
;

//---------------dance-single - ----------------
#NOTES:
     dance-single:
     :
     Easy:
     3:
     0.220,0.255,0.027,0.098,0.000:
0000
0000
0000
0000
,
0000
0000
0000
0000
,
0000
0000
0000
0000
,
0000
0000
0000
0000
,
1000
0000
0001
0000
,
1000
0001
1000
0000
,
0001
0000
1000
0000
,
2002
0000
0000
3003
,
0001
0000
0100
0000
,
0001
0000
0100
0000
,
0001
0000
0100
0000
,
0001
0100
0001
0100
,
0010
0000
0100
0000
,
0010
0000
0100
0000
,
0010
0000
1000
0000
,
2020
0000
0000
3030
,
1000
0001
1000
0001
,
1000
0002
2000
3003
,
0001
0100
0001
0100
,
0001
1000
0001
0001
,
1000
0100
1000
0100
,
2000
0100
0200
3300
,
1000
0100
1000
0100
,
1000
0010
0100
0001
,
1000
0001
1000
1000
,
0001
1000
1000
0000
,
1000
0001
1000
1000
,
0001
1000
0001
0001
,
0100
0010
0100
0100
,
0010
0100
0100
0010
,
0100
0000
0010
0000
,
1000
0000
1000
0000
1000
0001
1000
0000
,
0000
0000
0000
0100
,
0000
0000
0000
0010
,
0000
0000
0000
1000
,
0000
0000
0000
0000
,
1000
0000
0100
0000
,
0010
0000
0001
0000
,
0001
0000
0100
0000
,
0010
0000
0100
0000
,
0000
0000
0000
0000
,
0001
1000
0001
1000
,
0001
2000
0002
3003
,
0001
0100
0001
0100
,
0001
0100
0010
0010
,
0100
0010
1000
0100
,
0010
0010
0020
0030
,
0100
1000
0010
0100
,
0001
0000
1000
0000
,
0001
0100
0010
1000
,
0001
0100
0010
1000
,
1000
0100
0010
0001
,
1000
0100
0010
0001
,
0100
0001
0010
0001
,
0100
0001
0010
0001
,
1000
0100
1000
0010
,
0100
0000
0100
0000
0100
0010
0100
0000
,
1001
0000
0000
0000
;

//---------------dance-single - ----------------
#NOTES:
     dance-single:
     :
     Beginner:
     1:
     0.083,0.128,0.000,0.000,0.000:
0000
0000
0000
0000
,
0000
0000
0000
0000
,
0000
0000
0000
0000
,
0000
0000
0000
0000
,
0001
0000
0000
0000
,
1000
0000
0000
0000
,
0001
0000
0000
0000
,
1000
0000
0000
0000
,
1000
0000
0000
0000
,
0001
0000
0000
0000
,
1000
0000
0000
0000
,
0001
0000
1000
0000
,
0001
0000
0000
0000
,
1000
0000
0000
0000
,
0001
0000
0000
0000
,
1000
0000
0001
0000
,
1000
0000
0000
0000
,
0001
0000
0000
0000
,
0001
0000
0000
0000
,
1000
0000
0000
1000
,
1000
0000
0000
0000
,
0001
0000
0000
0000
,
1000
0000
0000
0000
,
0001
0000
1000
0000
,
0001
0000
0000
0000
,
1000
0000
0000
0000
,
0001
0000
0000
0000
,
1000
0000
0001
0000
,
1000
0000
0000
0000
,
0001
0000
0000
0000
,
1000
0000
0000
0000
,
0001
0000
0000
0000
,
0000
0000
0000
0000
,
0000
0000
0000
0000
,
0000
0000
0000
0000
,
0000
0000
0000
0000
,
1000
0000
0000
0000
,
0001
0000
0000
0000
,
1000
0000
0000
0000
,
0000
0000
0000
0000
,
0000
0000
0000
0000
,
0001
0000
1000
0000
,
0001
0000
0000
0000
,
1000
0000
0001
0000
,
1000
0000
0000
0001
,
1000
0000
0001
0000
,
1000
0000
0000
0000
,
0001
0000
1000
0000
,
0001
0000
0000
0000
,
1000
0000
0001
0000
,
1000
0000
0001
0000
,
1000
0000
0001
0000
,
1000
0000
0001
0000
,
1000
0000
0001
0000
,
1000
0000
0001
0000
,
1000
0000
0001
0000
,
1000
0000
0000
0000
,
0001
0000
0000
0000
;
