#TITLE:So Fabulous !!;
#SUBTITLE:-ONLY ONE Remix-;
#ARTIST:SUPER STAR 満-MITSURU-;
#TITLETRANSLIT:;
#SUBTITLETRANSLIT:;
#ARTISTTRANSLIT:;
#CREDIT:;
#BANNER:bn.png;
#BACKGROUND:bg.png;
#LYRICSPATH:;
#CDTITLE:;
#MUSIC:So Fabulous !! -ONLY ONE Remix-.mp3;
#OFFSET:-0.027;
#SAMPLESTART:48.020;
#SAMPLELENGTH:12.000;
#SELECTABLE:YES;
#BPMS:0.000=170.000,200.000=85.000,205.000=170.000;
#STOPS:205.000=3.176
,269.500=5.647
;
#BGCHANGES:;

//---------------dance-single - ----------------
#NOTES:
     dance-single:
     :
     Challenge:
     9:
     0.517,0.769,0.104,0.141,0.222:
0000
0000
0000
0000
,
0000
0000
0000
0000
,
0000
0000
0000
0000
,
0000
0000
0000
0000
,
0000
0000
0000
0000
,
0000
0000
0000
0000
,
0000
0000
0000
0000
,
0000
0000
0000
0000
,
1001
0001
0100
0010
,
1000
0100
0010
0002
0000
0000
0000
0000
,
1003
0010
0100
0001
,
0010
0100
1000
0200
0000
0010
0310
0000
,
0100
1000
0010
0100
,
0001
0000
1000
0000
0001
0010
0001
0000
,
0001
0100
0010
1000
,
0100
1000
0010
0200
0000
0000
0000
0000
,
0310
1000
0010
0100
,
0010
1000
0001
0020
0000
0000
0000
0000
,
0130
0010
0001
1000
,
0001
0100
1000
0200
0000
0010
0310
0000
,
0010
1000
0001
0010
,
0100
0000
0100
1000
0010
0100
0010
0100
,
0010
1000
0001
0010
,
0001
0100
0010
0200
0000
0000
0000
0000
,
0310
1000
0100
0010
,
0001
0000
1000
0000
0001
0100
0001
0100
,
0001
0100
0010
1000
,
0100
0000
0010
0000
0010
0100
2000
0000
,
3010
1000
0010
0001
,
0010
0000
0100
0000
0010
1000
0010
1000
,
0100
1000
0010
0100
,
0001
0000
0001
0000
0001
0100
0010
0000
,
0100
0010
1000
0000
1000
0100
0010
0000
,
0100
0010
0001
0010
0100
1000
0010
0000
0000
0000
0000
0000
,
0100
0010
1000
0000
1000
0001
0100
0000
,
0001
1000
0001
0000
0001
0100
1000
0100
,
0001
0010
0100
0000
0100
0010
0001
0000
,
0001
0010
0001
0000
0101
1010
1001
0000
,
0001
0100
0001
0000
0100
0010
0100
0000
,
0010
1000
0010
0000
0010
1000
0100
0010
,
0001
0010
0001
0000
0010
0100
1000
0000
,
0100
1000
0010
0000
0100
0100
0010
0000
,
0100
0000
0010
0000
1000
0000
1000
0100
0000
0000
0100
0000
0010
0000
0010
0001
,
0000
0000
0001
0000
0100
0000
0010
0100
0000
0000
0010
0000
1000
0000
0001
0000
,
0010
0000
0100
0000
1000
0000
0100
1000
0000
0000
0100
0000
0010
0000
0010
0001
,
0000
0001
0100
0010
1010
0101
1001
0000
,
0001
0000
1000
0000
0100
0000
0010
0001
0000
0000
0001
0000
0100
0000
0010
0100
,
0000
0000
0010
0000
1000
0000
0010
1000
0000
0000
1000
0000
0001
0000
0010
0000
,
0100
0000
0010
0000
0001
0000
0001
1000
0000
0000
1000
0000
0010
0000
0100
0010
,
0000
0000
0010
0000
1000
0000
1000
0100
1000
0000
0001
0000
0200
0000
0000
0000
,
0310
0000
0000
0000
,
0000
0000
0100
0010
,
1000
0001
0010
0020
,
0000
0000
0130
0010
,
0001
1000
0001
0200
,
1000
0310
0010
1000
,
0001
0010
1000
0010
,
0001
0100
0001
1000
,
0100
0010
0100
0020
,
0000
0000
0031
0100
,
1000
0000
0100
0000
0010
1000
0001
2000
,
0000
0000
3010
1000
,
0010
0000
0100
0000
0010
1000
0001
0020
,
0000
0001
0031
0000
0001
0000
0100
0000
,
0010
0000
1000
0000
0010
1000
0010
0100
,
0010
1000
0001
0010
0100
0000
0010
0000
,
0001
0000
0100
0000
0010
1000
0001
0010
,
0010
0100
0000
0100
1000
0001
0200
0000
0300
0000
0000
0000
0000
0000
0000
0000
,
0000
0000
0000
0000
,
0000
0000
0000
0000
0000
0000
0000
0000
0010
0000
1000
0000
0001
0000
0010
0100
,
0000
0000
0100
0000
1000
0000
1000
0010
0000
0000
0100
0000
0010
0000
1000
0010
,
0000
0000
0100
0000
0100
0000
0010
0000
1000
0000
0001
0000
0010
0000
0100
1000
,
0000
0000
0100
0000
0010
0000
0001
0010
0000
0000
0001
0000
0100
0000
0010
0000
,
1010
0000
0101
0000
0011
0000
0000
0000
0010
0000
0001
0000
1000
0000
0001
0100
,
0000
0000
0001
0000
1000
0000
0100
1000
0000
0000
0100
0000
1000
0000
0010
0100
,
0000
0000
0010
0000
0100
0000
0001
0000
1000
0000
0100
0000
0010
0000
0010
0001
,
0000
0000
0001
0000
0100
0000
0100
0010
0000
0000
0010
0000
1000
0000
0010
1000
,
0010
0000
0010
0000
0020
0000
0000
0000
0130
0000
0010
0000
1000
0000
0001
1000
,
0000
0001
1000
0000
0100
0000
0010
0100
0000
0010
0100
0000
1000
0000
1000
0001
,
0000
1000
0001
0000
0100
0000
0010
0000
1000
0000
0001
0000
0010
0000
0010
0100
,
0000
0010
0100
0000
1000
0000
1000
0010
0000
1000
0010
0000
0010
0000
0100
0010
,
0110
0000
1001
0000
0220
0000
0330
0000
0010
1000
0010
0000
1000
0000
0001
1000
,
0000
0001
1000
0000
0100
0000
0010
0001
0000
0010
0001
0000
0100
0000
0100
0010
,
0000
1000
0001
0000
0100
0000
0010
0000
0100
0010
0100
0000
0010
0000
1000
0010
,
0000
0000
0000
0100
0000
0000
0001
0000
0000
0000
0000
0000
0010
0000
0000
0000
0000
0000
0100
0000
0000
0000
0000
0000
1000
0000
0000
0000
1000
0000
0000
0000
1000
0000
0000
0000
0000
0000
0000
0000
0000
0000
0000
0000
0000
0000
0000
0000
,
0001
0001
0001
0000
0000
0000
1000
1000
1000
0001
0001
0001
,
1000
0001
0010
2200
0000
0000
3300
0000
0000
0000
0000
0000
;
