#TITLE:Skyline;
#SUBTITLE:;
#ARTIST:Mirrored Theory;
#TITLETRANSLIT:;
#SUBTITLETRANSLIT:;
#ARTISTTRANSLIT:;
#GENRE:;
#CREDIT:;
#BANNER:bn.png;
#BACKGROUND:bg.png;
#LYRICSPATH:;
#CDTITLE:;
#MUSIC:Skyline.mp3;
#OFFSET:-0.018;
#SAMPLESTART:17.440;
#SAMPLELENGTH:12.000;
#SELECTABLE:YES;
#BPMS:0.000=110.000
;
#STOPS:
;
#BGCHANGES:;
#KEYSOUNDS:;
#ATTACKS:;

//---------------dance-single - Blank----------------
#NOTES:
     dance-single:
     :
     Hard:
     9:
     0.483,0.506,0.000,0.000,0.691,384.000,0.000,0.000,0.000,0.000,0.000,0.483,0.506,0.000,0.000,0.691,384.000,0.000,0.000,0.000,0.000,0.000: // measure 0
0000
0000
0000
0000
,  // measure 1
0000
0000
0000
0000
,  // measure 2
0000
0000
0000
0000
,  // measure 3
0000
0000
0000
0000
,  // measure 4
0000
0000
0000
0000
,  // measure 5
0000
0000
0000
0000
,  // measure 6
0000
0000
0000
0000
,  // measure 7
0000
0000
0000
0000
,  // measure 8
0001
0000
0000
0000
0000
0000
1000
0000
0100
0000
1000
0000
0100
0000
0000
0000
0000
0000
1000
0000
0000
0000
0000
0000
0010
0000
0000
0000
0000
0000
0100
0000
0000
0001
0000
0000
0000
0000
0000
0001
0000
0000
1000
0000
0000
0000
0000
0000
,  // measure 9
0000
0000
0000
0000
0000
0000
0100
0000
0010
0000
0100
0000
0010
0000
0000
0001
0000
0000
0010
0000
0000
0000
0000
0000
0001
0000
0000
0000
0000
0000
0001
0000
0000
0100
0000
0000
0000
0000
0000
0010
0000
0000
1000
0000
0000
0000
0000
0000
,  // measure 10
0000
0000
0000
0000
0000
0000
1000
0000
0010
0000
1000
0000
0010
0000
0000
0000
0000
0000
0100
0000
0000
0000
0000
0000
0010
0000
0000
0000
0000
0000
1000
0000
0000
0001
0000
0000
0000
0000
0000
0001
0000
0000
0010
0000
0000
0000
0000
0000
,  // measure 11
0000
0000
0000
0000
0000
0000
0001
0000
0010
0000
0001
0000
0010
0000
0000
0000
0000
0000
0001
0000
0000
0000
0000
0000
0100
0000
0000
0010
0000
0000
1000
0000
0000
0001
0000
0000
0010
0000
0000
1000
0000
0000
0010
0000
0000
0001
0000
0000
,  // measure 12
1000
0000
0000
0000
0000
0000
0001
0000
0100
0000
0001
0000
0010
0000
0000
0000
0000
0000
0100
0000
0000
0000
0000
0000
1000
0000
0000
0000
0000
0000
1000
0000
0000
0001
0000
0000
0000
0000
0000
0001
0000
0000
0010
0000
0000
0000
0000
0000
,  // measure 13
0000
0000
0000
0000
0000
0000
0001
0000
0100
0000
0010
0000
0100
0000
0000
0010
0000
0000
1000
0000
0000
0000
0000
0000
0001
0000
0000
0000
0000
0000
0001
0000
0000
0010
0000
0000
0000
0000
0000
0010
0000
0000
0100
0000
0000
0000
0000
0000
,  // measure 14
0000
0000
0000
0000
0000
0000
1000
0000
0001
0000
1000
0000
0100
0000
0000
0000
0000
0000
0010
0000
0000
0000
0000
0000
0001
0000
0000
0000
0000
0000
0001
0000
0000
0010
0000
0000
0000
0000
0000
0100
0000
0000
1000
0000
0000
0000
0000
0000
,  // measure 15
0000
0000
0000
0000
0000
0000
1000
0000
0010
0000
0100
0000
0001
0000
0000
0000
0000
0000
1000
0000
0000
0000
0000
0000
0001
0000
0000
0100
0000
0000
0010
0000
0000
1000
0000
0000
0001
0000
0000
0010
0000
0000
0001
0000
0000
1000
0000
0000
,  // measure 16
0001
0000
0000
0000
0000
0000
0001
0000
0100
0000
0010
0000
1000
0000
0000
0000
0000
0000
0001
0000
0000
0000
0000
0000
1000
0000
0000
0000
0000
0000
0010
0000
0000
0100
0000
0000
0000
0000
0000
0001
0000
0000
0001
0000
0000
0000
0000
0000
,  // measure 17
0000
0000
0000
0000
0000
0000
0001
0000
0010
0000
0100
0000
1000
0000
0000
0001
0000
0000
0100
0000
0000
0000
0000
0000
0010
0000
0000
0000
0000
0000
1000
0000
0000
1000
0000
0000
0000
0000
0000
0001
0000
0000
0010
0000
0000
0000
0000
0000
,  // measure 18
0000
0000
0000
0000
0000
0000
0100
0000
0010
0000
0001
0000
1000
0000
0000
0000
0000
0000
0001
0000
0000
0000
0000
0000
0100
0000
0000
0000
0000
0000
0010
0000
0000
0010
0000
0000
0000
0000
0000
0100
0000
0000
0100
0000
0000
0000
0000
0000
,  // measure 19
0000
0000
0000
0000
0000
0000
0010
0000
0100
0000
0001
0000
1000
0000
0000
0000
0000
0000
0001
0000
0000
0000
0000
0000
1000
0000
0000
0100
0000
0000
0001
0000
0000
0100
0000
0000
0010
0000
0000
0001
0000
0000
0100
0000
0000
1000
0000
0000
,  // measure 20
0100
0000
0000
0000
0100
0000
0010
0000
0100
0000
0100
0010
0000
0010
1000
0000
,  // measure 21
0000
0000
0000
0000
0000
0000
0001
0000
0100
0000
0001
0000
1000
0000
0000
0100
0000
0000
1000
0000
0000
0000
0000
0000
0001
0000
0000
0000
0000
0000
0010
0000
0000
0100
0000
0000
0000
0000
0000
0010
0000
0000
0001
0000
0000
0000
0000
0000
,  // measure 22
0000
0000
0000
0000
0000
0000
1000
0000
0010
0000
1000
0000
0001
0000
0000
0000
0000
0000
0010
0000
0000
0000
0000
0000
0001
0000
0000
0000
0000
0000
0001
0000
0000
0100
0000
0000
0000
0000
0000
0010
0000
0000
1000
0000
0000
0000
0000
0000
,  // measure 23
0000
0000
0000
0000
0000
0000
0100
0000
0010
0000
1000
0000
0001
0000
0000
0000
0000
0000
1000
0000
0000
0000
0000
0000
1000
0000
0000
0100
0000
0000
1000
0000
0000
0100
0000
0000
0010
0000
0000
0001
0000
0000
0010
0000
0000
0001
0000
0000
,  // measure 24
1000
0000
0000
0000
0001
0000
0000
0100
0000
0010
1000
0000
0000
0000
0000
0000
,  // measure 25
0000
0000
1000
0001
0010
0001
1000
0100
0000
0010
0001
0000
0000
0000
0000
0000
,  // measure 26
0001
0000
0000
0000
0100
0000
0000
0010
0000
0100
0001
0000
0000
0000
0000
0000
,  // measure 27
0000
0000
0001
0000
1000
0000
0000
0010
0000
0100
0010
0000
0000
0000
0000
0000
,  // measure 28
0100
0000
0000
0000
0010
0000
0000
1000
0000
0001
0000
0000
0000
0000
0001
0010
,  // measure 29
0100
0000
0000
0000
0000
0000
1000
0010
0100
0000
0000
0000
0000
0000
0000
0000
,  // measure 30
0001
0000
0000
0000
1000
0000
0000
0010
0000
0010
0000
0000
0000
0000
0100
0010
,  // measure 31
0100
0000
0000
0000
0000
0000
0001
1000
0001
0000
0000
0000
0000
0000
0000
0000
,  // measure 32
1000
0000
0000
0000
0001
0000
0000
0100
0000
0100
0000
0000
0000
0000
0000
0000
,  // measure 33
0000
0000
0010
0000
1000
0000
0000
0001
0000
0001
0000
0000
1000
0000
0000
0000
,  // measure 34
0010
0000
0000
0000
0100
0000
0000
0001
0000
0001
0000
0000
0000
0000
0000
0000
,  // measure 35
0000
0000
0001
0000
1000
0000
0000
0010
0000
0010
0100
0000
0000
0000
0000
0000
,  // measure 36
0010
0000
0000
0000
0100
0000
0000
0001
0000
1000
0000
0000
0000
0000
1000
0010
,  // measure 37
0100
0000
0001
0000
1000
0000
0100
0010
0001
0000
0010
0000
0001
0000
0000
0000
,  // measure 38
0001
0000
1000
0000
0010
0000
0000
0100
0000
0100
0000
0000
0000
0000
0010
1000
,  // measure 39
0100
0000
0000
0000
1000
0000
0000
0000
0001
0000
0000
0000
0100
0000
0001
0000
1000
0000
0001
0000
1000
0001
1000
0000
0001
0000
1000
0000
0001
0000
1000
0000
,  // measure 40
0001
0000
0000
0000
0000
0000
0001
0000
0010
0000
0001
0000
0010
0000
0000
0000
0000
0000
0001
0000
0000
0000
0000
0000
0100
0000
0000
0000
0000
0000
0010
0000
0000
1000
0000
0000
0000
0000
0000
1000
0000
0000
0001
0000
0000
0000
0000
0000
,  // measure 41
0000
0000
0000
0000
0000
0000
0010
0000
0100
0000
0010
0000
0100
0000
0000
1000
0000
0000
0100
0000
0000
0000
0000
0000
1000
0000
0000
0000
0000
0000
1000
0000
0000
0010
0000
0000
0000
0000
0000
0100
0000
0000
0001
0000
0000
0000
0000
0000
,  // measure 42
0000
0000
0000
0000
0000
0000
0001
0000
0100
0000
0001
0000
0100
0000
0000
0000
0000
0000
0010
0000
0000
0000
0000
0000
0100
0000
0000
0000
0000
0000
0001
0000
0000
1000
0000
0000
0000
0000
0000
1000
0000
0000
0100
0000
0000
0000
0000
0000
,  // measure 43
0000
0000
0000
0000
0000
0000
1000
0000
0100
0000
1000
0000
0100
0000
0000
0000
0000
0000
1000
0000
0000
0000
0000
0000
0010
0000
0000
0100
0000
0000
0001
0000
0000
1000
0000
0000
0100
0000
0000
0001
0000
0000
0100
0000
0000
1000
0000
0000
,  // measure 44
0001
0000
0000
0000
0000
0000
1000
0000
0010
0000
1000
0000
0100
0000
0000
0000
0000
0000
0010
0000
0000
0000
0000
0000
0001
0000
0000
0000
0000
0000
0001
0000
0000
1000
0000
0000
0000
0000
0000
1000
0000
0000
0100
0000
0000
0000
0000
0000
,  // measure 45
0000
0000
0000
0000
0000
0000
1000
0000
0010
0000
0100
0000
0010
0000
0000
0100
0000
0000
0001
0000
0000
0000
0000
0000
1000
0000
0000
0000
0000
0000
1000
0000
0000
0100
0000
0000
0000
0000
0000
0100
0000
0000
0010
0000
0000
0000
0000
0000
,  // measure 46
0000
0000
0000
0000
0000
0000
0001
0000
1000
0000
0001
0000
0010
0000
0000
0000
0000
0000
0100
0000
0000
0000
0000
0000
1000
0000
0000
0000
0000
0000
1000
0000
0000
0100
0000
0000
0000
0000
0000
0010
0000
0000
0001
0000
0000
0000
0000
0000
,  // measure 47
0000
0000
0000
0000
0000
0000
0001
0000
0100
0000
0010
0000
1000
0000
0000
0000
0000
0000
0001
0000
0000
0000
0000
0000
1000
0000
0000
0010
0000
0000
0100
0000
0000
0001
0000
0000
1000
0000
0000
0100
0000
0000
1000
0000
0000
0001
0000
0000
,  // measure 48
0100
0000
0001
0000
0100
0000
1000
0000
0100
0000
0010
0100
0000
0010
0100
0010
,  // measure 49
1000
0000
0100
0000
1000
0000
0001
0000
0100
0000
0010
1000
0000
1000
0001
1000
,  // measure 50
0100
0000
0000
0000
;

//---------------dance-single - Blank----------------
#NOTES:
     dance-single:
     :
     Medium:
     6:
     0.325,0.330,0.211,0.000,0.101,234.000,24.000,0.000,0.000,0.000,0.000,0.325,0.330,0.211,0.000,0.101,234.000,24.000,0.000,0.000,0.000,0.000: // measure 0
0000
0000
0000
0000
,  // measure 1
0000
0000
0000
0000
,  // measure 2
0000
0000
0000
0000
,  // measure 3
0000
0000
0000
0000
,  // measure 4
0000
0000
0000
0000
,  // measure 5
0000
0000
0000
0000
,  // measure 6
0000
0000
0000
0000
,  // measure 7
0000
0000
0000
0000
,  // measure 8
1000
0000
0001
0000
0101
0000
0000
0000
0001
0000
0000
0100
0000
0000
0010
0000
,  // measure 9
0000
0000
0100
0000
0010
0000
1000
0000
0001
0000
0000
1000
0000
0000
0100
0000
,  // measure 10
0000
0000
1000
0000
0100
0000
0010
0000
0001
0000
0000
0010
0000
0000
0001
0000
,  // measure 11
0000
0000
0001
0000
0100
0000
0010
0000
0100
0000
0000
0100
0000
0000
0100
0000
,  // measure 12
0000
0000
0010
0000
1000
0000
0010
0000
0100
0000
0000
0100
0000
0000
0100
0000
,  // measure 13
0000
0000
0010
0000
1000
0000
0001
0000
0010
0000
0000
0100
0000
0000
0010
0000
,  // measure 14
0000
0000
0010
0000
0001
0000
0010
0000
0001
0000
0000
0100
0000
0000
1000
0000
,  // measure 15
0000
0000
1000
0000
0100
0000
0010
0000
0110
0000
0000
1001
0000
0000
0101
0000
,  // measure 16
0000
0000
0000
0000
1001
0000
0000
0000
0010
0000
0000
0100
0000
0000
0100
0000
,  // measure 17
0000
0000
0010
0000
0001
0000
0010
0000
1000
0000
0000
0010
0000
0000
0100
0000
,  // measure 18
0000
0000
0100
0000
0001
0000
1000
0000
0100
0000
0000
1000
0000
0000
0010
0000
,  // measure 19
0000
0000
0100
0000
0001
0000
0010
0000
0001
0000
0000
1000
0000
0000
0001
0000
,  // measure 20
0100
0000
0000
0000
0101
0000
0000
0000
0001
0000
0000
0001
0000
0000
1000
0000
,  // measure 21
0000
0000
1000
0000
0100
0000
1000
0000
0010
0000
0000
0010
0000
0000
0010
0000
,  // measure 22
0000
0000
0100
0000
0010
0000
1000
0000
0001
0000
0000
1000
0000
0000
0100
0000
,  // measure 23
0000
1000
0001
0100
0001
0010
0001
1000
,  // measure 24
0001
0100
0110
0000
0010
0000
0110
0000
,  // measure 25
0100
0010
1000
0000
1000
0001
0010
0000
,  // measure 26
0001
0100
0010
0000
0100
0000
0110
0000
,  // measure 27
0010
1000
1000
0000
1000
0100
0100
0000
,  // measure 28
1000
0000
0001
0000
0100
0001
0100
0001
,  // measure 29
0101
0000
0000
0100
0110
0000
0000
0000
,  // measure 30
0100
0000
0110
0000
0010
1000
0001
0000
,  // measure 31
1100
0010
0011
0001
,  // measure 32
0101
0000
1100
0000
1000
0100
0110
0000
,  // measure 33
0010
0000
0011
0000
0001
0100
1000
0100
,  // measure 34
0010
0000
0110
0000
0010
1000
0001
0000
,  // measure 35
1000
0000
1100
0000
1000
0100
0001
0000
,  // measure 36
0100
0000
0011
0000
0001
0010
1000
0000
,  // measure 37
1000
0010
0001
0100
1000
0100
0010
1000
,  // measure 38
0001
0000
1100
0000
1000
1000
0010
0000
,  // measure 39
0100
0100
0001
0000
1000
0001
0100
0000
,  // measure 40
0001
0000
0000
0000
0100
0000
0000
0000
0010
0000
0000
1000
0000
0000
0010
0000
,  // measure 41
0000
0000
0100
0000
0010
0000
1000
0000
0001
0000
0000
0001
0000
0000
1000
0000
,  // measure 42
0000
0000
1000
0000
0100
0000
1000
0000
0100
0000
0000
1000
0000
0000
0010
0000
,  // measure 43
0000
0000
0100
0000
0010
0000
1000
0000
0001
0000
0000
1000
0000
0000
1001
0000
,  // measure 44
0000
0000
0000
0000
0101
0000
0001
0000
0100
0000
0000
0100
0000
0000
0100
0000
,  // measure 45
0000
0000
0010
0000
0100
0000
0010
0000
1000
0000
0000
0001
0000
0000
0010
0000
,  // measure 46
0000
0000
0001
0000
0010
0000
0100
0000
1000
0000
0000
0100
0000
0000
1000
0000
,  // measure 47
0000
0000
1000
0000
0010
0000
0100
0000
0001
0000
0000
1000
0000
0000
0001
0000
,  // measure 48
0100
0010
0100
0001
,  // measure 49
1000
0100
1000
0010
,  // measure 50
0100
0000
0000
0000
;

//---------------dance-single - Blank----------------
#NOTES:
     dance-single:
     :
     Easy:
     3:
     0.177,0.190,0.026,0.000,0.000,138.000,3.000,0.000,0.000,0.000,0.000,0.177,0.190,0.026,0.000,0.000,138.000,3.000,0.000,0.000,0.000,0.000: // measure 0
0000
0000
0000
0000
,  // measure 1
0000
0000
0000
0000
,  // measure 2
0000
0000
0000
0000
,  // measure 3
0000
0000
0000
0000
,  // measure 4
0000
0000
0000
0000
,  // measure 5
0000
0000
0000
0000
,  // measure 6
0000
0000
0000
0000
,  // measure 7
0000
0000
0000
0000
,  // measure 8
1000
0001
0100
0100
,  // measure 9
0001
1000
0010
0010
,  // measure 10
1000
0001
0100
0100
,  // measure 11
0001
1000
0100
0010
,  // measure 12
0001
1000
0010
0010
,  // measure 13
1000
0001
0010
0010
,  // measure 14
0001
0100
0010
0010
,  // measure 15
0100
0010
1000
1000
,  // measure 16
0000
0101
0001
0100
,  // measure 17
0010
1000
0100
1000
,  // measure 18
0010
0100
0010
0100
,  // measure 19
0010
1000
0001
0010
,  // measure 20
0000
1001
0001
1000
,  // measure 21
0100
1000
0010
0010
,  // measure 22
0100
0001
0010
0001
,  // measure 23
1000
1000
0001
0100
,  // measure 24
0010
1000
0010
0000
,  // measure 25
0100
0010
1000
0001
,  // measure 26
0010
0010
0010
0000
,  // measure 27
0010
0000
0001
0000
,  // measure 28
1000
1000
1000
0000
,  // measure 29
0010
0000
0100
0000
,  // measure 30
0001
0001
0001
0000
,  // measure 31
1000
0000
0010
0000
,  // measure 32
0100
0010
1000
0000
,  // measure 33
0000
1000
0001
1000
,  // measure 34
0010
0100
0100
0000
,  // measure 35
0000
0010
0000
0100
,  // measure 36
0001
1000
0100
0000
,  // measure 37
1000
0000
0100
0000
,  // measure 38
0010
0001
0010
0000
,  // measure 39
0001
0000
0100
0000
,  // measure 40
0110
0010
1000
0010
,  // measure 41
0001
0010
0100
0001
,  // measure 42
1000
0100
1000
0010
,  // measure 43
0100
0001
1000
1000
,  // measure 44
0001
1000
0100
1000
,  // measure 45
0010
0100
0001
0001
,  // measure 46
0010
0001
0100
0010
,  // measure 47
0100
0001
1000
1000
,  // measure 48
0001
0000
0000
0000
;

//---------------dance-single - Blank----------------
#NOTES:
     dance-single:
     :
     Beginner:
     1:
     0.070,0.063,0.009,0.000,0.000,55.000,1.000,0.000,0.000,0.000,0.000,0.070,0.063,0.009,0.000,0.000,55.000,1.000,0.000,0.000,0.000,0.000:
0000
0000
0000
0000
,
0000
0000
0000
0000
,
0000
0000
0000
0000
,
0000
0000
0000
0000
,
0000
0000
0000
0000
,
0000
0000
0000
0000
,
0000
0000
0000
0000
,
0000
0000
0000
0000
,
1000
0000
0000
0000
,
0001
0000
0000
0000
,
1000
0000
0000
0000
,
0001
0000
0010
0000
,
0001
0000
0000
0000
,
0100
0000
0000
0000
,
0001
0000
0000
0000
,
0100
0000
0010
0000
,
1000
0000
0000
0000
,
0100
0000
0000
0000
,
1000
0000
0000
0000
,
0100
0000
0010
0000
,
0001
0000
0000
0000
,
0010
0000
0000
0000
,
0001
0000
0000
0000
,
0010
0000
0100
0000
,
1000
0000
0000
0000
,
0001
0000
0001
0000
,
1000
0000
0000
0000
,
0010
0000
0010
0000
,
0100
0000
0000
0000
,
0001
0000
1000
0000
,
0001
0000
0000
0000
,
0010
0000
0010
0000
,
0100
0000
0000
0000
,
0010
0000
0001
0000
,
1000
0000
0000
0000
,
0010
0000
0100
0000
,
0001
0000
0000
0000
,
1000
0000
1000
0000
,
0100
0000
0000
0000
,
0010
0000
0001
0000
,
1001
0000
0000
0000
,
0001
0000
0000
0000
,
0100
0000
0000
0000
,
0010
0000
1000
0000
,
0100
0000
0000
0000
,
1000
0000
0000
0000
,
0001
0000
0000
0000
,
0100
0000
0010
0000
,
1000
0000
0000
0000
;
