#TITLE:Sin ~The Last Scene~;
#SUBTITLE:;
#ARTIST:ESTi;
#TITLETRANSLIT:;
#SUBTITLETRANSLIT:;
#ARTISTTRANSLIT:;
#CREDIT:;
#BANNER:bn.png;
#BACKGROUND:Gaheth.png;
#LYRICSPATH:;
#CDTITLE:;
#MUSIC:Knights of the Round 6 (Gaheth).ogg;
#OFFSET:-0.092;
#SAMPLESTART:9.680;
#SAMPLELENGTH:14.020;
#SELECTABLE:YES;
#BPMS:0.000=100.000,16.000=200.000,80.000=400.001,96.000=100.000,112.000=200.000,172.000=100.000,174.000=200.000,238.000=100.000,240.000=400.000,432.000=100.000,433.500=400.000,435.000=200.000;
#STOPS:;
#BGCHANGES:;

//---------------dance-single - ----------------
#NOTES:
     dance-single:
     :
     Hard:
     11:
     0.837,1.000,0.243,0.189,0.216: // measure 1
0000
0000
0000
0000
,  // measure 2
0000
0000
0000
0000
,  // measure 3
0001
0100
1000
0100
0001
0010
1000
0010
,  // measure 4
0001
0100
0010
1000
0100
0001
0100
1000
0220
0000
0000
0000
0000
0000
0330
0000
,  // measure 5
0001
1000
0100
0000
0100
1000
0010
0000
,  // measure 6
0100
0010
1000
0001
0010
0001
1000
0100
,  // measure 7
0010
0001
0100
0000
0010
0001
0100
0000
,  // measure 8
0100
1000
0010
0100
0001
0010
0001
1000
,  // measure 9
0100
0100
1000
0000
0100
0100
0010
0000
,  // measure 10
0010
0010
0001
0100
0010
1000
0100
0001
,  // measure 11
0100
1000
0010
1000
0010
0100
0001
0010
,  // measure 12
0100
0010
0001
1000
0001
0100
0001
0010
,  // measure 13
0100
0010
0001
1000
0001
0010
0100
1000
,  // measure 14
0001
0100
1000
0100
0001
0100
1000
0010
,  // measure 15
0100
0001
0100
0010
1000
0100
0010
0100
,  // measure 16
1000
0001
0010
0001
0100
0010
1000
0000
,  // measure 17
1000
0100
0010
0100
1000
0100
0010
0001
,  // measure 18
0010
0100
0010
0001
0100
0010
1000
0010
,  // measure 19
0100
0001
0100
0000
0010
0000
1000
0000
0100
1000
0100
0000
1000
0000
0010
0000
,  // measure 20
0100
0010
0100
0000
1000
0000
0001
0010
0001
0000
0100
0000
0010
1000
0200
0000
,  // measure 21
0000
0000
0000
0000
,  // measure 22
0000
0000
0000
0000
,  // measure 23
0000
0000
0000
0000
,  // measure 24
0020
0030
0000
0000
,  // measure 25
0301
0000
1000
0001
0100
0000
0100
0010
0100
0000
0001
0000
1000
0000
0010
0000
,  // measure 26
0011
1100
0101
1010
1010
1001
0011
1001
,  // measure 27
0001
0100
0010
1000
0100
1000
0010
0100
0001
0000
0100
0010
0100
0000
0100
0010
,  // measure 28
0100
0000
1000
0001
1000
0100
0010
0001
0100
0001
0010
0100
1000
0001
0100
0000
,  // measure 29
0010
0000
0100
0001
0100
0000
0010
1000
,  // measure 30
0010
0000
0100
0010
0100
0000
0010
1000
,  // measure 31
0010
0000
1000
0100
1000
0000
0100
0001
,  // measure 32
0010
0000
0010
0001
0100
1000
0100
0001
,  // measure 33
0010
0000
0100
1000
0100
0000
0010
0001
,  // measure 34
0010
0000
0001
0100
0010
0000
0100
0010
,  // measure 35
0100
0000
0010
1000
0010
0000
1000
0001
,  // measure 36
1000
0100
1000
0000
0010
0000
0002
0000
0020
0000
0033
0000
0000
0000
0000
0000
,  // measure 37
0020
0000
0000
0000
0030
0000
0100
0010
1000
0000
0100
0000
0010
0000
0100
0000
,  // measure 38
1000
1000
0001
0001
0010
1000
0010
0001
,  // measure 39
0200
0000
0000
0000
0300
0000
0010
1000
0100
0000
1000
0000
0010
0000
0100
0000
,  // measure 40
0001
0010
0001
0100
0001
1000
0100
1000
,  // measure 41
0010
0000
0000
0000
0000
0000
0100
0010
0100
0000
0010
0000
1000
0000
0001
0000
,  // measure 42
0010
0001
0100
0001
1000
0000
0100
0000
,  // measure 43
1000
0000
1000
0001
1000
0000
0010
0001
0010
0000
0001
0010
0001
0000
0100
0000
,  // measure 44
0010
1000
0001
0010
0200
0000
0000
0000
0310
0000
0100
0000
0010
0000
1000
0000
,  // measure 45
0001
0010
0001
0010
0010
0100
1000
0100
,  // measure 46
0010
1000
0010
0100
0010
0001
1000
0010
,  // measure 47
0100
0001
0010
0100
0010
0001
1000
0010
,  // measure 48
1000
0100
0010
0001
0010
0100
0010
0001
,  // measure 49
0010
0100
1000
0001
0100
0010
1000
0100
,  // measure 50
0010
0100
1000
0001
0100
0010
0100
0001
,  // measure 51
0010
0100
1000
0100
0010
0001
0010
0100
,  // measure 52
1000
0000
0001
0000
0010
0000
0000
0010
0001
0000
0000
0001
0010
0000
0000
1000
,  // measure 53
0100
0000
0000
0100
0010
0000
0010
0000
0100
0000
0000
0100
1000
0000
0000
1000
,  // measure 54
0001
0000
0000
0010
0001
0000
0100
0000
0010
0000
0000
0010
0100
0000
0000
0100
,  // measure 55
0001
0000
0000
1000
0100
0000
0000
0000
1000
0000
0010
0000
0001
0000
0010
0000
,  // measure 56
1000
0000
0100
0000
0001
0000
0100
0000
1000
0000
0000
1000
0100
0000
0000
0100
,  // measure 57
0010
0000
0000
0010
0001
0000
0100
0000
0010
0000
0000
0010
1000
0000
0000
1000
,  // measure 58
0100
0000
0000
1000
0001
0000
0010
0000
0200
0000
0000
0000
1300
0000
0010
0000
,  // measure 59
0200
0000
0310
1000
0001
0010
0100
1000
,  // measure 60
0001
0010
0100
1000
0000
0000
0000
0000
,  // measure 61
1001
0000
0001
0100
,  // measure 62
0010
0000
0110
0110
,  // measure 63
0000
0010
1000
0000
,  // measure 64
1000
0001
0010
0110
,  // measure 65
0110
0110
0000
0010
,  // measure 66
0001
0000
0001
0101
,  // measure 67
0002
0000
0103
0000
,  // measure 68
0020
0000
1030
0000
,  // measure 69
0110
0000
0010
1000
,  // measure 70
0100
0010
0100
1000
,  // measure 71
0000
1000
0100
0000
,  // measure 72
0001
0100
0010
1000
,  // measure 73
0002
0000
0000
0023
,  // measure 74
0000
0000
0032
0000
,  // measure 75
0000
0200
0000
0000
,  // measure 76
0000
0000
0303
0000
,  // measure 77
0101
0000
0100
0010
,  // measure 78
0100
0000
0010
1000
,  // measure 79
1001
0000
1000
0100
,  // measure 80
0010
0000
0001
0010
,  // measure 81
0110
0000
0100
1000
,  // measure 82
0010
0000
0010
0100
,  // measure 83
0010
0010
0010
0010
,  // measure 84
0010
0000
0000
0000
,  // measure 85
1001
0000
0000
0000
,  // measure 86
0101
0000
0000
0000
,  // measure 87
1010
0000
0000
0000
,  // measure 88
1100
0000
0000
0000
,  // measure 89
0011
0000
0000
0000
,  // measure 90
1001
0000
0000
0000
,  // measure 91
2020
0000
0000
0000
,  // measure 92
0000
0000
0000
3030
,  // measure 93
1000
0001
1000
0000
0001
1000
0001
0000
,  // measure 94
1000
0001
1000
0000
0001
1000
0001
0000
,  // measure 95
0100
0001
0100
0000
0001
0010
0001
0000
,  // measure 96
0100
1000
0100
0000
1000
0010
1000
0000
,  // measure 97
0100
0010
0100
0000
1000
0001
1000
0000
,  // measure 98
0001
0010
0001
0000
0100
0001
0100
0000
,  // measure 99
0010
0100
0010
0000
0100
0001
0100
0000
,  // measure 100
0001
1000
0001
0000
0000
0000
0000
0000
,  // measure 101
1000
0100
1000
0100
1000
0100
1000
0100
,  // measure 102
1000
0100
1000
0100
1000
0100
1000
0100
,  // measure 103
0010
0001
0010
0001
0010
0001
0010
0001
,  // measure 104
0010
0001
0010
0001
0010
0001
0010
0100
,  // measure 105
1000
0001
1000
0001
1000
0001
1000
0001
,  // measure 106
1000
0001
1000
0001
1000
0001
1000
0001
,  // measure 107
1000
0100
0010
0100
1000
0001
0010
0001
,  // measure 108
0100
0001
1000
0100
1000
0010
0100
0002
,  // measure 109
0020
0000
0000
0033
;

//---------------dance-single - ----------------
#NOTES:
     dance-single:
     :
     Medium:
     9:
     0.581,0.932,0.505,0.027,0.009:
0000
0000
0000
0000
,
0000
0000
0000
0000
,
1000
0001
0100
0001
0010
0001
0010
0100
,
1000
0010
0100
0010
2002
0000
0000
3003
,
0001
1000
0010
0000
0010
1000
0100
0000
,
0100
0010
0001
0000
0001
0010
0100
0000
,
0100
1000
0100
0000
1000
0010
1000
0000
,
0010
0100
0010
0100
0001
0010
0000
0100
,
1000
0100
0010
0000
0010
0001
0100
0000
,
0010
1000
0001
0000
0001
0010
0100
0000
,
0001
0000
0001
0100
0000
0100
0010
0000
,
0010
1000
0000
0001
1000
0000
0100
0000
,
0010
0001
0100
0000
0100
0010
1000
0000
,
1000
0001
0010
0000
0010
0100
1000
0000
,
0100
1000
0010
0000
0010
0100
0001
0000
,
0001
1000
0100
0000
1000
0100
0010
0001
,
0010
0100
0010
0000
0010
0001
0100
0000
,
0100
1000
0100
0000
0100
0010
1000
0000
,
1000
0010
0001
0000
0001
0010
1000
0000
,
1000
0100
0001
0100
1000
0010
0100
0001
,
0000
0000
0000
0000
,
0000
0000
0000
0000
,
0000
0000
0000
0000
,
0000
0000
0000
0000
,
1000
0000
0100
0000
0010
0001
0010
0001
,
0100
0100
0010
0010
1000
1000
0001
1000
,
0001
0000
0001
0100
1000
0100
0010
1000
,
0100
0000
0100
0010
0001
0000
1000
0000
,
1010
0010
0110
0010
,
1001
0010
0110
0010
,
1010
0010
0011
0010
,
0110
0000
0010
0000
0010
0100
1000
0010
,
0100
0010
1000
0001
,
0010
0000
0100
1000
0010
0000
0100
0010
,
1000
0001
1000
0001
,
0010
0100
1000
0000
,
0100
0000
0000
1000
0100
0000
0010
0000
,
0001
0010
0001
0000
0001
0100
0010
0000
,
0110
0000
0000
0010
1000
0000
0100
0000
,
1000
0100
0010
0000
0010
0001
0100
0000
,
0101
0000
0000
0001
0100
0000
0010
0000
,
1000
0100
0010
0001
,
0001
0010
0100
0010
0001
0010
0100
1000
,
0100
0010
0001
0010
0100
0000
0000
0000
0110
0000
0000
0000
0011
0000
0000
0000
,
0101
0000
0001
0100
0110
0000
0110
0000
,
0110
0000
0010
1000
1010
0000
1010
0000
,
1010
0000
1010
0000
0010
0100
0010
0000
,
0010
1000
0001
0000
1001
0000
1001
0000
,
1001
0000
0001
0100
0110
0000
0110
0000
,
0110
0000
0010
1000
1010
0000
1010
0000
,
1010
0000
1000
0000
1000
0100
0010
0001
,
0010
0100
1000
0000
1100
0000
0110
0000
,
0011
0000
0001
0010
0110
0000
1001
0000
,
0110
0000
0001
0100
0110
0000
1010
0000
,
1100
0000
1100
0000
1000
0100
0010
0001
,
0010
0100
1000
0000
1010
0000
0110
0000
,
1001
0000
0001
0100
0101
0000
0101
0000
,
0110
0000
0010
1000
1010
0000
0010
0100
,
0110
0000
0010
1000
0001
0010
1000
0010
,
0001
0100
0010
1000
0000
0000
0000
0000
,
1000
0000
0000
0000
,
0000
0000
0010
0010
,
0000
0000
0000
0000
,
0000
0000
0000
0100
,
0001
0100
0000
0000
,
0000
0000
0010
1000
,
0000
0000
0000
0000
,
0000
0000
0000
0000
,
1001
0000
0000
0000
,
0000
0000
0001
0001
,
0000
0000
0000
0000
,
0000
0000
0000
0000
,
1000
0000
0000
0010
,
0000
0000
0100
0000
,
0000
0010
0000
0000
,
0000
0000
0000
0000
,
0110
0000
0000
0000
,
0000
0000
0000
0000
,
1001
0000
0000
0000
,
0000
0000
0000
0000
,
0101
0000
0000
0000
,
0000
0000
0000
0000
,
0001
0100
0010
1000
,
0100
0000
0000
0000
,
1100
0000
0000
0000
,
0110
0000
0000
0000
,
0011
0000
0000
0000
,
0110
0000
0000
0000
,
1100
0000
0000
0000
,
0010
0000
0000
0000
,
0100
0000
0000
0000
,
0010
0000
0000
0000
,
0010
1000
0010
1000
,
0010
1000
0010
1000
,
0001
1000
0001
1000
,
0001
1000
0001
1000
,
0001
0100
0001
0100
,
0001
0100
0001
0100
,
0001
0010
0100
1000
,
0100
0000
0000
0000
,
0010
0100
0001
1000
,
0010
0100
0001
0010
,
0100
0010
0001
0010
,
0100
1000
0100
1000
,
0010
0100
0010
1000
,
0001
0100
0010
1000
,
0001
0001
1000
1000
,
0100
0100
0010
0010
,
0002
0000
0000
0003
;

//---------------dance-single - ----------------
#NOTES:
     dance-single:
     :
     Easy:
     6:
     0.453,0.637,0.442,0.144,0.000:
0000
0000
0000
0000
,
0000
0000
0000
0000
,
2002
0000
0000
3003
,
0220
0000
0000
0330
2002
0000
3003
0000
,
0001
0100
0001
0010
,
0100
1000
0100
0100
,
1000
0010
0100
0010
,
1000
0000
0001
0000
0100
0001
0100
0000
,
0010
1000
0100
1000
,
0010
0100
0001
0010
,
0200
0000
0000
2300
0000
0000
3020
0000
,
0000
0200
0000
0000
0000
0000
0330
0000
,
0010
1000
0010
0001
,
0010
1000
0010
0001
,
0001
0100
1000
0100
,
0001
0100
0100
0100
,
0010
1000
0010
1000
,
0001
0010
0100
1000
,
0200
0000
0000
2300
0000
0000
3020
0000
,
0000
0230
0000
0000
0301
0000
1000
0000
,
0000
0000
0000
0000
,
0000
0000
0000
0000
,
0000
0000
0000
0000
,
0000
0000
0000
0000
,
0001
0100
0010
1000
,
0010
0100
0010
0000
0001
1000
0001
0000
,
1000
0000
1000
0100
0010
0100
1000
0010
,
0100
0000
0010
1000
0001
0000
1000
0000
,
0001
0000
0100
0000
,
1000
0000
0100
0000
,
0010
0000
1000
0000
,
0001
0000
0000
0000
1000
0100
0010
0001
,
0010
0000
0000
0000
,
0010
0000
0100
0000
,
1000
0000
0000
0000
,
1001
0000
0000
0000
,
0001
0000
0000
0100
0010
0000
1000
0000
,
0001
0001
1000
1000
,
1010
0000
0000
0010
0100
0000
0100
0000
,
0010
1000
0001
0010
,
0110
0000
1100
0000
,
0110
0000
0011
0000
,
0001
0010
0100
1000
,
0100
1000
0010
0000
0100
0000
0010
0000
,
0100
0000
0010
0100
0010
0000
0100
0000
,
0010
0000
0100
0010
0100
0000
0010
0000
,
0100
0000
0010
0000
0100
0010
0100
0010
,
0100
0010
0100
0000
0001
0000
1000
0000
,
0001
0000
1000
0001
1000
0000
0001
0000
,
1000
0000
0001
1000
0001
0000
1000
0000
,
0001
0000
1000
0000
0001
0010
0100
1000
,
0100
0010
0001
0000
0001
0000
0100
0000
,
0010
0000
1000
0010
1000
0000
0010
0000
,
0100
0000
0001
1000
0001
0000
1000
0000
,
0100
0000
0010
0000
0001
0010
0100
1000
,
0100
0010
0001
0000
0001
0000
0100
0000
,
0010
0000
0100
0010
1000
0000
0001
0000
,
1000
0000
0001
0100
0010
0000
1000
0000
,
0100
0000
1000
0000
0010
0100
0001
1000
,
0010
0100
0001
1000
0000
0000
0000
0000
,
0010
0000
1000
0000
,
0010
0000
0100
0000
,
0010
0000
1000
0000
,
0001
0000
0010
0000
,
0100
0000
1000
0000
,
0100
0000
1000
0000
,
0010
0000
0010
0000
,
0100
0000
0000
0000
,
0010
0000
0100
0000
,
0010
0000
1000
0000
,
0001
0000
0010
0000
,
0100
0000
1000
0000
,
0100
0000
0100
0000
,
0010
0000
0010
0000
,
0001
0000
1000
0000
,
0001
0000
0000
0000
,
1001
0000
0000
0000
,
0000
0000
0000
0000
,
0110
0000
0000
0000
,
0000
0000
0000
0000
,
1001
0000
0000
0000
,
0000
0000
0000
0000
,
0010
0100
0010
0100
,
0010
0000
0000
0000
,
0101
0000
0000
0000
,
0000
0000
0000
0000
,
1100
0000
0000
0000
,
0000
0000
0000
0000
,
0011
0000
0000
0000
,
1010
0000
0000
0000
,
1001
0000
0000
0000
,
0000
0000
0000
0000
,
1001
0000
1001
0000
,
1001
0000
1001
0000
,
1001
0000
1001
0000
,
1001
0000
1001
0000
,
0110
0000
0110
0000
,
0110
0000
0110
0000
,
0110
0000
0110
0000
,
0110
0000
0000
0000
,
1010
0000
0101
0000
,
0011
0000
1100
0000
,
0110
0000
0011
0000
,
0110
0000
1100
0000
,
1010
0000
0101
0000
,
0110
0000
1001
0000
,
0101
0000
0101
0000
,
1010
0000
1010
0000
,
2002
0000
0000
3003
;

//---------------dance-single - ----------------
#NOTES:
     dance-single:
     :
     Beginner:
     3:
     0.193,0.341,0.036,0.000,0.000:
0000
0000
0000
0000
,
0000
0000
0000
0000
,
0000
0000
0000
0000
,
0000
0000
0000
0000
,
0010
0000
0000
0000
,
1000
0000
0001
0000
,
0010
0000
0000
0000
,
0100
0000
1000
0000
,
0010
0000
0000
0000
,
0100
0000
0001
0000
,
0010
0000
0000
0000
,
0100
0000
0000
0000
,
0010
0000
0000
0000
,
0001
0000
1000
0000
,
0010
0000
0000
0000
,
1000
0000
1000
0000
,
0001
0000
0000
0000
,
0010
0000
0100
0000
,
1000
0000
0000
0000
,
0001
0000
0000
0000
,
0000
0000
0000
0000
,
0000
0000
0000
0000
,
0000
0000
0000
0000
,
0000
0000
0000
0000
,
0010
0000
0000
0000
,
0100
0000
0000
0000
,
0001
0001
0001
0000
,
1000
1000
1000
0000
,
0010
0000
0000
0000
,
0100
0000
0000
0000
,
0001
0000
0000
0000
,
1000
0000
0010
0010
,
0010
0000
0000
0000
,
0100
0000
0100
0000
,
0010
0000
0000
0000
,
1000
0000
0000
0000
,
0001
0000
1000
1000
,
1000
0000
0001
0000
,
0100
0000
0010
0010
,
0010
0000
0100
0000
,
0001
0000
1000
0000
,
0100
0000
1000
0000
,
0010
0100
0010
1000
,
0001
0000
1000
0000
,
0000
0001
0001
0000
,
0000
0100
0100
0000
,
0000
0000
0010
0010
,
1000
0010
1000
0000
,
0000
0100
0100
0000
,
0000
0010
0010
0000
,
0000
0000
0010
0000
,
0100
0000
1000
0000
,
0000
1000
0001
0000
,
0000
0100
0010
0000
,
0000
0000
0100
0010
,
0100
0010
0100
0000
,
0000
0010
1000
0000
,
0000
0100
0010
0000
,
0000
0000
1000
0100
,
0010
0001
0000
0000
,
0001
0000
0000
0000
,
0000
0000
0000
0000
,
0000
0000
0000
0000
,
0000
0000
0000
0000
,
1000
0000
0000
0000
,
0000
0000
0000
0000
,
0000
0000
0000
0000
,
0000
0000
0000
0000
,
0010
0000
0000
0000
,
0000
0000
0000
0000
,
0000
0000
0000
0000
,
0000
0000
0000
0000
0000
0000
0000
0100
,
0000
0000
0000
0100
,
0000
0000
0100
0000
,
0000
0100
0000
0000
,
0000
0000
0000
0000
,
0010
0000
0000
0000
,
0000
0000
0000
0000
,
1000
0000
0000
0000
,
0000
0000
0000
0000
,
0001
0000
0000
0000
,
0000
0000
0000
0000
,
1001
0000
1001
0000
,
1001
0000
0000
0000
,
0010
0000
0000
0000
,
0100
0000
0000
0000
,
0010
0000
0000
0000
,
1000
0000
0000
0000
,
0001
0000
0000
0000
,
1000
0000
0000
0000
,
0001
0000
0000
0000
,
0000
0000
0000
0000
,
1000
0000
1000
0000
,
1000
0000
1000
0000
,
1000
0000
1000
0000
,
1000
0000
1000
0000
,
1000
0000
1000
0000
,
1000
0000
1000
0000
,
1000
0000
1000
0000
,
1000
0000
0000
0000
,
0001
0000
0001
0000
,
0001
0000
0001
0000
,
0001
0000
0001
0000
,
0001
0000
0001
0000
,
0001
0000
0001
0000
,
0001
0000
0001
0000
,
0001
0000
0100
0000
,
0010
0000
1000
0000
,
1001
0000
0000
0000
;
