#TITLE:She's my Love;
#SUBTITLE:;
#ARTIST:Command Strange;
#TITLETRANSLIT:;
#SUBTITLETRANSLIT:;
#ARTISTTRANSLIT:;
#GENRE:LIQUID DRUM & BASS;
#CREDIT:;
#BANNER:bn.png;
#BACKGROUND:bg.png;
#LYRICSPATH:;
#CDTITLE:;
#MUSIC:She's my Love.mp3;
#OFFSET:-0.051;
#SAMPLESTART:21.860;
#SAMPLELENGTH:12.000;
#SELECTABLE:YES;
#BPMS:0.000=88.000
,32.000=176.000
,280.000=88.000
;
#STOPS:;
#BGCHANGES:;
#KEYSOUNDS:;
#ATTACKS:;

//---------------dance-single - ----------------
#NOTES:
     dance-single:
     :
     Hard:
     8:
     0.460,0.486,0.000,0.428,0.000,326.000,0.000,50.000,0.000,0.000,0.000,0.460,0.486,0.000,0.428,0.000,326.000,0.000,50.000,0.000,0.000,0.000:
0000
0000
0000
0000
,
0000
0000
0000
0000
,
0000
0000
0000
0000
,
0000
0000
0000
0000
,
1000
0000
0010
0000
0100
0001
0010
0000
,
0100
1000
0001
0100
0000
0010
0000
0000
,
0100
0001
1000
0100
1000
0010
1000
0001
,
0010
0100
0000
0010
0000
0001
0000
0000
,
0010
0000
1000
0000
0100
1000
0100
0000
,
1000
0000
0010
0000
0100
0010
0100
0000
,
0010
0000
0100
0000
0001
0100
0001
0000
,
0010
0000
0100
0000
1000
0100
1000
0000
,
0100
0000
0010
0000
0001
0100
0010
0000
,
0100
0000
0010
0000
0100
0001
1000
0000
,
0001
0000
0100
0000
0010
1000
0100
0000
,
1000
0000
0010
0000
0100
0010
1000
0000
,
2000
3100
0200
0310
,
0020
0000
0031
0000
0001
0100
1000
0100
,
0020
1030
0200
0310
,
0200
0000
1300
0000
1000
0001
0010
0001
,
0200
0310
0020
1030
,
2000
0000
3100
0000
1000
0001
0010
0100
,
0020
0001
0100
1000
,
0100
0001
0100
1000
,
0130
0010
0001
0100
0010
1000
0200
0000
,
0000
0020
0000
0330
,
0100
1000
0001
0100
0001
0010
0200
0000
,
0000
0020
0000
0330
,
0100
1000
0001
0100
0001
0010
0200
0000
,
0000
2000
0000
3300
,
1000
0001
0100
0001
1000
0010
0200
0000
,
0000
0020
0000
0330
,
0010
1000
0001
1000
0010
0001
0020
0000
,
0000
2000
0000
3030
,
1000
0100
0010
0001
1000
0100
0020
0000
,
0000
0002
0000
0033
,
0001
0001
0100
0000
0010
0010
1000
0000
,
1000
1000
0001
0010
0100
0100
0010
0000
,
0001
0200
0000
2000
,
0000
0000
3300
0000
,
0200
0000
0010
0000
0310
1000
0200
0000
,
0010
0000
1000
0000
1300
0010
0200
0000
,
0001
0000
0010
0000
0310
1000
0002
0000
,
0010
0000
0010
0000
0013
0001
0200
0000
,
0010
0000
1000
0000
0310
1000
0200
0000
,
1000
0000
0010
0000
0310
0001
0200
0000
,
0010
0000
1000
0000
0301
1000
0002
0000
,
0010
0000
0100
0000
1003
0001
0020
0000
,
0100
0000
0001
0000
0130
0010
0002
0000
,
0100
0000
1000
0000
0013
0100
2000
0000
,
0010
0000
0100
0000
3001
0100
0020
0000
,
1000
0000
0100
0000
0031
0100
0010
0000
,
0100
0000
0010
1000
0020
0000
0130
0010
,
0200
0000
0310
0001
0200
0000
0310
1000
,
0200
2300
3020
0230
,
0000
0002
0000
0303
,
1000
0000
0001
0000
0100
0010
1000
0000
,
0100
0000
0010
0000
0100
1000
0010
0000
,
0100
0000
0001
0000
1000
0001
0010
0000
,
0100
0000
0010
0000
0001
0100
0010
0000
,
0100
0000
0010
0000
0100
0010
1000
0000
,
0001
0000
1000
0000
0100
0010
0001
0000
,
0010
0000
0100
0000
1000
0010
0100
0000
,
0010
0000
1000
0000
0001
1000
0100
0000
,
1000
0010
0100
0001
0010
0100
1000
0000
,
1000
0001
0100
0001
0010
0100
0010
0000
,
0100
0010
1000
0001
0100
0001
0010
0000
,
0010
0100
1000
0100
1000
0010
0100
0000
,
0020
0000
0130
0001
2000
0000
3001
0100
,
0020
0000
0130
0010
2000
0000
3001
0100
,
0010
1000
0100
0020
0000
0002
0000
0000
,
0033
0000
0000
0000
;

//---------------dance-single - ----------------
#NOTES:
     dance-single:
     :
     Medium:
     5:
     0.319,0.334,0.034,0.317,0.000,220.000,4.000,37.000,0.000,0.000,0.000,0.319,0.334,0.034,0.317,0.000,220.000,4.000,37.000,0.000,0.000,0.000:
0000
0000
0000
0000
,
0000
0000
0000
0000
,
0000
0000
0000
0000
,
0000
0000
0000
0000
,
1000
0002
0100
0013
,
0001
0100
0010
1000
0000
0000
0000
0000
,
0100
0010
0001
1000
,
0001
0100
0010
1000
0000
0000
0000
0000
,
1000
0001
0100
0020
,
0000
0200
0000
0330
,
0010
1000
0100
0020
,
0000
0200
0000
0330
,
0010
0001
0100
0002
,
0000
2000
0000
3003
,
0001
1000
0100
2000
,
0000
0020
0000
3030
,
0010
0100
0001
0020
,
0000
0200
0000
0330
,
0100
1000
0010
0200
,
0000
0002
0000
0303
,
0001
1000
0100
0020
,
0000
0200
0000
0330
,
0010
0001
1000
0002
,
0000
0000
0000
0003
,
0100
0010
1000
0100
,
0001
0000
0100
0000
1000
0010
0100
0000
,
0010
1000
0001
0100
,
0010
0000
1000
0000
0100
1000
0100
0000
,
1000
0010
0100
0001
,
0010
0000
0100
0000
1000
0100
1000
0000
,
0100
0010
0001
0100
,
0001
0000
1000
0000
0010
0100
0001
0000
,
1000
0001
0100
0010
,
1000
0000
0100
0000
0010
0100
1000
0000
,
0001
0100
0010
0100
,
0010
0000
1000
0000
0001
0010
0001
0000
,
0001
0100
1000
0100
,
0001
0000
0010
0000
0001
0100
0010
0000
,
0100
0020
0000
0200
,
0000
0000
0000
0330
,
1010
0000
0000
0000
1000
0100
0001
0000
,
0000
0000
0000
0001
,
0100
1000
0010
0200
,
0000
0002
0000
0303
,
0101
0000
0000
0000
0001
0100
1000
0000
,
0000
0000
0000
0000
0000
0000
1000
0100
,
0020
0000
0130
0020
,
0000
2030
0002
0000
0000
0000
3003
0000
,
0000
0000
0001
0100
0010
0000
1000
0000
,
0100
0000
0010
0000
0000
0000
0010
0100
,
0010
0001
0010
0200
,
0000
0020
0000
0330
,
0000
0000
0010
0100
0010
0000
0100
1000
,
0100
0000
1000
0100
1000
0000
0100
1000
,
0010
0100
0001
0020
,
0000
0200
0000
0330
,
0011
0000
0000
0000
0010
1000
0100
0000
,
0000
0000
0000
0100
,
1000
0010
0001
2000
,
0000
0200
0000
3300
,
1100
0000
0000
0000
0100
1000
0010
0000
,
0000
0000
0000
0000
0000
0000
0010
1000
,
0002
0000
1003
0002
,
0000
0003
0200
0000
0000
0000
0300
0000
,
0000
0000
0100
1000
0001
0000
0010
0000
,
1000
0000
0001
0000
0000
0000
0001
1000
,
0001
0100
0001
2000
,
0000
0002
0000
3003
,
0000
0000
0001
1000
0001
0000
1000
0010
,
1000
0000
0010
1000
0010
0000
1000
0010
,
0001
0100
0010
2000
0000
0200
0000
0000
,
3300
0000
0000
0000
;

//---------------dance-single - ----------------
#NOTES:
     dance-single:
     :
     Easy:
     3:
     0.160,0.213,0.000,0.026,0.000,128.000,0.000,3.000,0.000,0.000,0.000,0.160,0.213,0.000,0.026,0.000,128.000,0.000,3.000,0.000,0.000,0.000:
0000
0000
0000
0000
,
0000
0000
0000
0000
,
0000
0000
0000
0000
,
0000
0000
0000
0000
,
1000
0000
0000
0000
,
0001
0000
0000
0000
,
0100
0000
0000
0000
,
0010
0000
0000
0000
,
1000
0000
0000
0000
,
0001
0000
0001
0000
,
0100
0000
0000
0000
,
0010
0000
0010
0000
,
1000
0000
0000
0000
,
0001
0000
0001
0000
,
0010
0000
0000
0000
,
0100
0000
0100
0000
,
1000
0000
0000
0000
,
0010
0000
0010
0000
,
0100
0000
0000
0000
,
0001
0000
0001
0000
,
1000
0000
0000
0000
,
0010
0000
0010
0000
,
0100
0000
0000
0000
,
0010
0000
0000
0000
,
1000
1000
1000
0000
,
0001
0000
1000
0000
,
0010
0010
0010
0000
,
0100
0000
0001
0000
,
0010
0010
0010
0000
,
0100
0000
1000
0000
,
0010
0010
0010
0000
,
0100
0000
0001
0000
,
1000
1000
1000
0000
,
0001
0000
1000
0000
,
0100
0100
0100
0000
,
1000
0000
0010
0000
,
1000
1000
1000
0000
,
0001
0000
0100
0000
,
0010
1000
0000
0010
,
0000
0000
0000
0000
,
0000
0000
1000
1000
,
0000
0000
0000
0001
,
0100
0000
0000
0010
,
0000
0000
0000
0000
,
0000
0000
0010
0010
,
0000
0000
0000
0100
,
0001
0000
1000
0100
,
0000
1000
0000
0000
,
0000
1000
0100
0010
,
0001
0010
0000
0001
,
0010
1000
0010
0100
,
0000
0010
0000
0000
,
0000
0000
0010
0000
,
0001
0000
0100
0000
,
0010
1000
0100
0020
,
0000
0002
0000
0033
,
0001
0000
1000
0001
,
0000
0000
0000
0001
,
0100
0010
1000
0100
,
0000
0100
0000
0000
,
0100
0000
1000
0010
,
0000
0000
0000
0100
,
0001
0000
1000
0010
,
0000
0100
0000
0000
,
0000
0010
1000
0001
,
0010
0001
0000
0001
,
0001
0010
0100
1000
,
0000
0100
0000
0000
,
0000
0000
1000
0000
,
0010
0000
0100
0000
,
0002
0000
0000
0000
,
0003
0000
0000
0000
;

//---------------dance-single - ----------------
#NOTES:
     dance-single:
     :
     Beginner:
     1:
     0.071,0.150,0.000,0.000,0.000,58.000,0.000,0.000,0.000,0.000,0.000,0.071,0.150,0.000,0.000,0.000,58.000,0.000,0.000,0.000,0.000,0.000: // measure 0
0000
0000
0000
0000
,  // measure 1
0000
0000
0000
0000
,  // measure 2
0000
0000
0000
0000
,  // measure 3
0000
0000
0000
0000
,  // measure 4
0001
0000
0000
0000
,  // measure 5
1000
0000
0000
0000
,  // measure 6
0010
0000
0000
0000
,  // measure 7
0100
0000
0000
0000
,  // measure 8
0001
0000
0000
0000
,  // measure 9
0000
0000
0000
0000
,  // measure 10
1000
0000
0000
0000
,  // measure 11
0000
0000
0000
0000
,  // measure 12
0010
0000
0000
0000
,  // measure 13
0000
0000
0000
0000
,  // measure 14
0100
0000
0000
0000
,  // measure 15
0000
0000
0000
0000
,  // measure 16
0001
0000
0000
0000
,  // measure 17
0000
0000
0000
0000
,  // measure 18
1000
0000
0000
0000
,  // measure 19
0000
0000
0000
0000
,  // measure 20
0010
0000
0000
0000
,  // measure 21
0000
0000
0000
0000
,  // measure 22
1000
0000
0000
0000
,  // measure 23
0000
0000
0000
0000
,  // measure 24
0001
0000
0000
0000
,  // measure 25
0000
0000
0000
0000
,  // measure 26
0100
0000
0000
0000
,  // measure 27
0000
0000
0000
0000
,  // measure 28
0010
0000
0000
0000
,  // measure 29
0000
0000
0000
0000
,  // measure 30
1000
0000
0000
0000
,  // measure 31
0000
0000
0000
0000
,  // measure 32
0001
0000
0000
0000
,  // measure 33
0000
0000
0000
0000
,  // measure 34
0010
0000
0000
0000
,  // measure 35
0000
0000
0000
0000
,  // measure 36
0100
0000
0000
0000
,  // measure 37
0000
0000
0000
0000
,  // measure 38
1000
0000
0000
0000
,  // measure 39
0000
0000
0000
0000
,  // measure 40
0000
0000
0001
0001
,  // measure 41
0000
0000
0000
1000
,  // measure 42
1000
0000
0000
0000
,  // measure 43
0000
0000
0000
0000
,  // measure 44
0000
0000
0010
0010
,  // measure 45
0000
0000
0000
0100
,  // measure 46
0100
0000
0000
0000
,  // measure 47
0000
0000
0000
0000
,  // measure 48
0000
0000
0010
0000
,  // measure 49
0010
0000
0000
0000
,  // measure 50
0100
0000
0100
0100
,  // measure 51
0000
0100
0000
0000
,  // measure 52
0000
0000
0010
0000
,  // measure 53
0010
0000
0010
0000
,  // measure 54
0010
0010
0010
0010
,  // measure 55
0000
1000
0000
0000
,  // measure 56
0000
0000
0001
0001
,  // measure 57
0000
0000
0000
1000
,  // measure 58
1000
0000
0000
0000
,  // measure 59
0000
0000
0000
0000
,  // measure 60
0000
0000
0100
0100
,  // measure 61
0000
0000
0000
0000
,  // measure 62
0100
0000
0000
0000
,  // measure 63
0000
0000
0000
0000
,  // measure 64
0000
0000
0010
0000
,  // measure 65
0010
0000
0000
0000
,  // measure 66
1000
0000
1000
1000
,  // measure 67
0000
0000
0000
0000
,  // measure 68
0000
0000
0001
0000
,  // measure 69
1000
0000
0010
0000
,  // measure 70
0100
0000
0000
0000
;
