#TITLE:灼熱Beach Side Bunny;
#SUBTITLE:;
#ARTIST:DJ Mass MAD Izm*;
#TITLETRANSLIT:Shakunetsu Beach Side Bunny;
#SUBTITLETRANSLIT:;
#ARTISTTRANSLIT:;
#CREDIT:;
#BANNER:bn.png;
#BACKGROUND:bg.png;
#LYRICSPATH:;
#CDTITLE:cdtitle.png;
#MUSIC:Beach-Side-Bunny.mp3;
#OFFSET:-0.018;
#SAMPLESTART:6.260;
#SAMPLELENGTH:12.280;
#SELECTABLE:YES;
#BPMS:0.000=153.000;
#STOPS:14.000=0.392
;
#BGCHANGES:;

//---------------dance-single - ----------------
#NOTES:
     dance-single:
     :
     Hard:
     12:
     0.974,1.000,1.000,1.000,0.609:
0000
0000
0000
0000
,
0000
0000
0000
0000
,
0000
0000
0000
0000
,
0000
0000
1001
1000
,
0100
0000
0000
0000
1000
0000
0000
0010
0000
0000
0100
0000
0101
0000
0000
0000
,
1100
0000
0000
0000
1001
0000
0000
0101
0000
0000
0110
0000
1000
0000
0000
0000
,
0010
0000
0000
0000
0100
0000
0000
1000
0000
0000
0100
0000
0101
0000
0000
0000
,
1010
0000
0000
0000
1001
0000
0000
0101
0000
0000
0010
0000
0001
0000
0100
0000
,
0010
0000
1000
0000
0100
0000
0000
1100
0000
0000
1000
0000
0001
0000
0010
0000
,
0100
0000
1000
0000
1010
0000
0000
0100
0000
0000
0110
0000
0100
0000
0010
0000
,
1000
0000
0000
0000
0000
0000
1000
0000
0000
0001
0000
0000
0010
0000
0000
0000
0000
0000
0001
0000
0001
0000
0010
0000
,
0010
0001
0001
1000
1000
0100
0100
0000
0000
1100
0000
0000
,
0011
0000
0000
0000
1100
0000
0000
0011
0000
0000
1100
0000
0101
0000
0000
0000
,
1010
0000
0000
0000
0101
0000
0000
1010
0000
0000
0101
0000
1001
0000
0000
0000
,
0110
0000
0000
0000
1001
0000
0000
0110
0000
0000
1001
0000
0101
0000
0000
0000
,
1100
0000
0000
0000
0101
0000
0000
1100
0000
0000
0101
0000
1010
0000
0000
0000
,
0011
0000
0000
0000
1100
0000
0000
0011
0000
0000
1010
0000
1001
0000
0001
0000
,
0001
0000
1000
0000
1100
0000
0000
0010
0000
0000
0100
0000
0001
0000
0000
0000
,
1001
0000
1000
0100
0001
0100
1000
1000
,
0000
0010
1000
0001
1100
0000
0000
1000
,
0000
0001
0000
0000
0010
0000
0000
0100
0000
0000
1000
0000
0001
0000
0001
0000
,
0100
0000
0010
0000
1000
0000
0000
1100
0000
0000
0001
0000
1001
0000
0000
0000
,
0011
0000
0000
0000
0101
0000
0000
0110
0000
0000
1010
0000
0100
0010
1000
0000
,
1000
0001
0010
0000
0001
0000
0010
0000
0100
0000
1000
0000
0001
0000
0100
0000
,
0000
0010
0000
0000
1000
0000
0000
0100
0000
0000
0010
0000
0000
0000
0011
0000
,
0000
1100
0000
0000
1010
0000
0000
0101
0000
0000
1001
0000
1000
0000
0001
0000
,
0010
0000
0100
0000
0010
0000
0010
0100
0000
0100
1000
0000
0001
0000
0010
0000
,
1000
0000
0000
0100
0000
0000
1000
0000
0000
0001
0000
0000
0220
0000
0000
0330
0000
0000
1000
0100
1000
0100
0000
0000
,
1000
0000
0100
1000
0100
0000
1000
0000
2200
0000
3300
0000
0002
0000
0023
0000
,
0031
0000
0000
0010
0000
0000
0001
0000
0000
0010
0000
0000
0001
0000
0000
0000
0000
0000
0010
0000
0000
0000
0000
0000
0022
0000
0000
0000
0000
0000
0033
0000
0000
0000
0000
0000
0001
0000
1000
0000
0001
0000
1000
0000
0001
0000
1000
0000
,
0002
0000
0000
0000
0000
0000
2003
0000
0000
0000
0000
0000
3002
0000
0000
0003
0000
0000
0002
0000
0000
0003
0000
0000
2002
0000
0000
0000
0000
0000
3003
0000
0000
0000
0000
0000
0010
0000
0100
0000
0010
0000
0100
0000
0010
0000
0000
0000
,
0200
0000
0310
0000
0020
0000
2030
0000
3100
0000
0000
0000
2000
0000
3001
0100
,
0020
0000
0000
0000
0000
0000
0130
0000
0000
0000
0000
0000
0200
0000
0000
0300
0000
0000
0200
0000
0000
0300
0000
0000
2002
0000
0000
0000
0000
0000
3003
0000
0000
0000
0000
0000
0001
0000
0100
0000
0001
0000
0200
0000
0000
0000
0000
0000
,
0320
0000
0000
0000
0000
0000
1030
0000
0100
0000
1000
0000
0100
0000
0000
1000
0000
0000
0200
0000
0000
0000
0000
0000
0310
0000
0000
0000
0000
0000
0000
0000
0000
0000
0000
0000
0020
0000
0000
2030
0000
0000
3002
0000
0000
0203
0000
0000
,
0320
2030
3002
0003
2000
0000
0010
0000
0020
0000
3030
0000
0101
0000
1010
0000
,
0110
0000
0011
0000
0001
0100
0010
1000
0100
0010
0100
1000
1001
0000
0000
0000
,
0101
0000
0000
0000
0101
0000
0000
0110
0000
0000
1010
0000
1100
0000
0000
0000
,
0011
0000
0000
0000
0101
0000
0000
0110
0000
0000
1100
0000
0011
0000
0000
0000
,
0011
0000
0000
0000
0011
0000
0000
0101
0000
0000
1010
0000
1100
0000
0000
0000
,
0110
0000
0000
0000
0110
0000
0000
1100
0000
0000
0101
0000
0120
0000
0100
0000
,
0100
0000
0100
0000
0130
0000
0000
1001
0000
0000
0101
0000
0120
0000
0000
0000
,
1000
0000
0000
0000
0001
0000
0000
0001
0000
0000
0130
0000
1001
0000
1000
0001
,
0100
0000
0010
0000
1000
0000
0100
1000
0001
0000
1000
0000
0010
0000
0100
0000
,
0010
0000
0000
0000
0000
0000
0000
0000
0000
0000
0000
0000
0000
0000
0000
0000
0000
0000
0000
0000
0000
0000
0000
0000
1000
0000
0000
0000
0000
0000
0000
0000
0000
0000
0000
0000
0000
0000
0000
0000
0000
0000
0000
0000
0000
0000
0000
0000
0002
0000
0000
0000
0000
0000
0000
0000
0000
0000
0000
0000
2003
0000
0000
0000
0000
0000
0000
0000
0000
0000
0000
0000
3002
0000
0000
0000
0000
0000
0000
0000
0000
0000
0000
0000
0000
0000
0000
0000
0000
0000
0000
0000
0000
0000
0000
0003
0011
0000
0000
0000
0000
0000
0000
0000
0000
0000
0000
0000
0000
0000
0000
0000
0000
0000
0000
0000
0000
0000
0000
0000
0000
0000
0000
0000
0000
0000
0000
0000
0000
0000
0000
0000
0000
0000
0000
0000
0000
0000
0000
0000
0000
0000
0000
0000
0002
0000
0000
0000
0000
0000
0000
0000
0000
0000
0000
0000
0000
0000
0000
0000
0000
0000
0000
0000
0000
0000
0000
0000
0203
0000
0000
0000
0000
0000
0000
0000
0000
0000
0000
0000
0302
0000
0000
0000
0000
0000
0000
0000
0000
0000
0000
0000
,
0203
0302
0023
0000
0032
2003
3200
0000
1300
0000
0000
0000
2000
3002
0023
0230
,
0320
0030
0020
0032
0203
0320
2030
0000
3100
0000
0000
0000
2000
3002
0203
0302
,
0023
0030
0200
0000
2300
0000
3200
0000
0301
0000
0200
0000
1300
0000
2000
3002
,
0203
0320
1030
0000
2000
0000
0010
0000
0020
0000
3030
0000
0002
0023
0230
2300
,
3020
0000
0230
0320
0230
0320
2030
3000
0000
0000
2000
3002
0203
0320
2030
3200
,
2300
0000
3200
0000
2300
0000
3020
0000
0200
0000
0330
0000
0010
0000
0200
0320
,
2000
0030
3020
0000
0230
0301
0020
0000
0200
0000
0330
0000
0200
0320
2030
3200
,
2300
3002
2003
3010
2002
3003
1010
0000
,
0101
0000
0000
0000
1001
0000
0001
1000
0000
1000
0100
0000
1100
0000
0000
0000
,
0011
0000
0000
0000
0101
0000
0001
0100
0000
0100
0010
0000
1001
0000
0000
0000
,
1100
0000
0000
0000
1001
0000
0001
0100
0000
0100
0010
0000
0110
0000
1001
0000
,
1000
0001
0100
0000
0101
0000
0001
0100
0000
0010
1000
0000
1200
0000
0000
0000
,
1000
0000
0000
0000
0010
0000
0000
0001
0000
0000
1300
0000
0120
0000
0000
0000
,
1000
0000
0000
0000
1000
0000
0000
0001
0000
0000
0130
0000
1002
0000
0000
0000
,
0013
0000
0000
0000
0000
0000
0000
0000
2000
0000
0000
0000
0001
0000
0001
0000
0000
0000
3020
0030
0020
0000
0000
0000
1030
0000
0000
0000
0100
0000
0000
0000
,
0010
0001
0100
0010
2002
3003
0000
1000
,
0001
0000
0000
0001
0000
1000
0000
0001
0010
0000
0100
0000
1000
0000
0010
0000
,
0100
0000
0000
0000
0000
0000
0001
0000
0000
0010
0000
0000
0000
0000
0000
0100
0000
0000
0000
0000
0000
0100
0000
0000
1000
0000
0000
0001
0000
0000
1000
0000
0000
0000
0000
0000
0100
0000
1000
0000
0100
0000
1000
0000
0100
0000
1000
0000
,
0100
0000
1000
0000
0100
0000
1000
0000
0100
0000
1000
0000
0000
0000
0000
0001
0000
0000
0000
0000
0000
1000
0000
0000
0010
0000
0000
0000
0000
0000
0100
0000
0000
0000
0000
0000
0001
0000
0000
0000
0000
0000
1000
0000
0000
0000
0000
0000
,
0010
0000
0100
0000
0001
0000
0100
0010
0000
0010
1000
0000
0100
0000
0000
0000
,
0100
0000
0000
0000
1000
0000
0000
0010
0000
0000
0100
0000
0001
0000
0000
0000
,
0101
0000
0000
0000
0001
0000
0000
0100
0000
0000
0010
0000
1000
0000
0000
0000
,
1001
0000
0000
0000
1000
0000
0000
0010
0000
0000
0100
0000
0002
0000
0000
0000
,
0003
0000
0000
0000
0000
0000
0000
0000
0000
0000
0000
0000
0000
0000
0000
0000
0000
0000
0000
0000
0000
0000
0000
0000
2002
0000
0000
0000
0000
0000
0000
3003
,
2002
0000
0000
0000
0000
0000
0000
3003
2002
0000
0000
0000
0000
3003
2002
0000
0000
0000
0000
3003
2002
0000
0000
3003
0202
0000
0000
0000
0000
0000
0000
0303
,
0220
0000
0000
0000
0000
0000
0000
0330
2020
0000
0000
0000
0000
3030
2200
0000
0000
0000
0000
3300
0022
0000
0000
0033
0202
0000
0000
0000
0000
0000
0000
0303
,
2002
0000
0000
0000
0000
0000
0000
3003
0202
0000
0000
0000
0000
0303
0220
0000
0000
0000
0000
0330
2020
0000
0000
3030
2200
0000
0000
0000
0000
0000
0000
3300
,
2002
0000
0000
0000
0000
0000
0000
3003
0202
0000
0000
0000
0000
0303
0220
0000
0000
0000
0000
0330
2020
0000
0000
3030
1000
0000
0100
0000
1000
0000
0001
0000
,
0100
0010
1000
0001
0010
0001
0100
0010
1000
0000
0000
0000
0001
0010
0001
0100
,
0010
1000
0100
0010
0100
1000
0001
0010
0100
0000
0000
0000
1000
0001
0010
0001
,
0100
0010
1000
0100
0010
0100
1000
0001
0010
0000
0000
0000
0001
0100
0010
1000
,
0100
1000
0001
0100
0010
1000
0100
0022
0000
0000
0000
0000
0000
0000
0000
0030
,
0000
0003
0000
0000
;

//---------------dance-single - ----------------
#NOTES:
     dance-single:
     :
     Medium:
     9:
     0.783,0.956,0.817,1.000,0.217:
0000
0000
0000
0000
,
0000
0000
0000
0000
,
0000
0000
0000
0000
,
0000
0000
1001
0001
,
0200
0000
0000
0020
0000
0330
0010
0000
,
2000
0000
0000
0200
0000
3300
1000
0000
,
0002
0000
0000
0020
0000
0030
0013
0000
,
0200
0000
0000
0020
0000
0330
0001
0100
,
0010
1000
0002
0000
0013
0000
0001
0100
,
0010
1000
0200
0000
0310
0000
0001
0100
,
0010
0000
0000
0000
0000
0000
0010
0000
0000
1000
0000
0000
0100
0000
0000
0000
0000
0000
0001
0000
1000
0000
0001
0000
,
1000
0001
1000
0001
1000
0001
1000
0000
0000
0001
0000
0000
,
0001
0000
0000
0000
0001
0000
0000
0001
0000
0000
0001
0000
0100
0000
0000
0000
,
0100
0000
0000
0000
0100
0000
0000
0100
0000
0000
0100
0000
0010
0000
0000
0000
,
0010
0000
0000
0000
0010
0000
0000
0010
0000
0000
0010
0000
1000
0000
0000
0000
,
1000
0000
0000
0000
1000
0000
0000
1000
0000
0000
1000
0000
0100
0000
0000
0000
,
0010
0000
0000
0000
0001
0000
0000
0010
0000
0000
0100
0000
1000
0000
1000
0000
,
1000
0000
0000
0000
1000
0000
0000
0001
0000
0000
0010
0000
0001
0000
0000
0000
,
0101
0000
0000
0000
0100
0000
0000
0010
0000
0000
1000
0000
0001
0000
0010
0000
,
0000
0010
0001
0100
0220
0330
0010
1000
,
0000
0001
0000
0000
0010
0000
0000
0100
0000
0000
1000
0000
0000
0000
1000
0000
,
0000
0001
0000
0000
0010
0000
0000
0100
0000
0000
0010
0000
0000
0000
0001
0000
,
0000
0100
0000
0000
0010
0000
0000
1000
0000
0000
0001
0000
0000
0000
1000
0000
,
0000
0001
0000
0000
0010
0000
0000
0100
0000
0000
0010
0000
0001
0000
0000
0000
,
0101
0000
0000
0000
0010
0000
0000
0100
0000
0000
0010
0000
1001
0000
0000
0000
,
0110
0000
0000
0000
0110
0000
0000
0010
0000
0000
0010
0000
1000
0000
0000
0000
,
0101
0000
0000
0000
1100
0000
0000
0010
0000
0000
0001
0000
0100
0000
1000
0000
,
0000
1000
0100
0001
0022
0033
0002
2003
,
3200
2300
3020
0230
0002
0303
0002
0203
,
2300
3200
0302
0023
0200
0330
0200
2300
,
3020
0032
0023
2030
0200
3300
2000
3001
,
0002
1003
1001
0101
0022
0033
0002
0013
,
0002
1003
0002
0103
0202
0303
2000
3001
,
2000
3100
2000
3010
2020
3030
2000
3002
,
0023
2030
3020
0032
0200
0303
0001
1000
,
0001
0100
0110
1001
0101
0011
1100
0000
,
1100
0000
0000
0000
1100
0000
0000
1100
0000
0000
1100
0000
0110
0000
0000
0000
,
0110
0000
0000
0000
0110
0000
0000
0110
0000
0000
0110
0000
0011
0000
0000
0000
,
0011
0000
0000
0000
0011
0000
0000
0011
0000
0000
0011
0000
1001
0000
0000
0000
,
0010
0000
1000
0000
0001
0000
0000
1000
0000
0000
0100
0000
0010
0000
0010
0000
,
0001
0000
0001
0000
0011
0000
0000
1100
0000
0000
0001
0000
1001
0000
0000
0000
,
0110
0000
0000
0000
1001
0000
0000
0110
0000
0000
1001
0000
0101
0000
0200
0000
,
0302
0013
0100
2000
3020
0230
0301
1000
,
0100
0010
0001
0100
0010
0000
0020
2030
,
3200
0320
0032
0203
0020
0330
0020
2030
,
3002
0023
0032
0203
0020
0330
0200
0302
,
0023
2030
3020
0032
0203
0320
2030
3002
,
0023
2030
3020
0032
0200
0303
0002
2003
,
3200
2300
3020
0230
0002
0303
0002
2003
,
3200
0320
0230
2300
0002
3003
2000
3002
,
0023
0230
0320
0032
0200
0303
2000
3002
,
0023
0032
0203
0320
2000
3030
1001
0000
,
0110
0000
0000
0000
1001
0000
0000
0110
0000
0000
1001
0000
1100
0000
0000
0000
,
0011
0000
0000
0000
1100
0000
0000
0011
0000
0000
1100
0000
0101
0000
0000
0000
,
1010
0000
0000
0000
0101
0000
0000
1010
0000
0000
0101
0000
1001
0000
0000
0000
,
0001
0000
0010
0000
1100
0000
0000
0110
0000
0000
0011
0000
1001
0000
0000
0000
,
0101
0000
0000
0000
1010
0000
0000
0110
0000
0000
0011
0000
1100
0000
0000
0000
,
1001
0000
0000
0000
0101
0000
0000
0110
0000
0000
1010
0000
1100
0000
0000
0000
,
1001
0000
0000
0000
0101
0000
0000
0110
0000
0000
1001
0000
1100
0000
0000
0000
,
1000
0010
0220
0000
0330
0000
0000
0100
,
0100
0000
0000
0010
0000
0100
0000
0010
0100
0000
0001
0000
1000
0000
0001
0000
,
0010
0000
0000
0100
0000
1000
0000
0100
1000
0000
0100
0000
1000
0000
0010
0000
,
0100
0000
0001
0000
0010
0000
0001
0000
0100
0001
0000
0010
0100
0000
0000
0000
,
1000
0010
0200
0000
0001
0000
0310
0000
,
0010
0000
0000
0000
0010
0000
0000
1000
0000
0000
0001
0000
0010
0000
0000
0000
,
0100
0000
0000
0000
0100
0000
0000
0010
0000
0000
0001
0000
0100
0000
0000
0000
,
0010
0000
0000
0000
0010
0000
0000
1000
0000
0000
0002
0000
0020
0000
0000
0000
,
0033
0000
0000
1100
,
0110
0000
0000
0000
0011
0000
0000
0110
0000
0000
1100
0000
1001
0000
0000
0000
,
0101
0000
0000
0000
1001
0000
0000
1100
0000
0000
0110
0000
0011
0000
0000
0000
,
1001
0000
0000
0000
0101
0000
0000
1010
0000
0000
1001
0000
1100
0000
0000
0000
,
0110
0000
0000
0000
0011
0000
0000
1100
0000
0000
0101
0000
2000
0000
3002
0000
,
0023
2030
3020
0032
0103
0000
0200
0320
,
2030
3002
0023
0230
0320
0030
0002
0203
,
0320
2030
3002
0023
0032
0203
0320
2030
,
3200
0000
0320
0000
0032
0000
0003
2200
3300
0000
0000
0000
0000
0000
0000
0000
;

//---------------dance-single - ----------------
#NOTES:
     dance-single:
     :
     Easy:
     7:
     0.550,0.524,0.703,0.785,0.004: // measure 1
0000
0000
0000
0000
,  // measure 2
0000
0000
0000
0000
,  // measure 3
0000
0000
0000
0000
,  // measure 4
0000
0000
0000
0102
,  // measure 5
0100
0100
0103
2100
,  // measure 6
0100
0100
3100
0102
,  // measure 7
0100
0100
0103
2100
,  // measure 8
0100
0100
3100
2010
,  // measure 9
0010
0010
3010
0021
,  // measure 10
0001
0001
0031
0011
,  // measure 11
0010
0110
0010
0110
,  // measure 12
1001
0110
1001
0001
,  // measure 13
0100
1000
0100
0110
,  // measure 14
1001
0110
1001
0001
,  // measure 15
0001
1000
1000
0101
,  // measure 16
1100
0101
1100
0010
,  // measure 17
0010
0100
0100
0110
,  // measure 18
1001
0101
0011
0100
,  // measure 19
0100
1000
1000
1100
,  // measure 20
0010
0000
0011
0001
0100
0000
0110
0000
,  // measure 21
0001
1010
0010
0110
,  // measure 22
1001
0101
1100
1010
,  // measure 23
0001
1010
0001
1100
,  // measure 24
0010
0011
0001
1001
,  // measure 25
0010
0110
0110
0010
,  // measure 26
1001
1100
1100
0001
,  // measure 27
1001
0001
0101
0001
,  // measure 28
0100
0000
0010
1000
1001
0000
0002
0000
,  // measure 29
2003
3200
1300
0200
,  // measure 30
2300
3020
0130
0020
,  // measure 31
2030
3020
0130
0020
,  // measure 32
2030
3002
0013
0002
,  // measure 33
0023
0230
1300
0200
,  // measure 34
2300
3020
0130
0200
,  // measure 35
0320
0000
2030
0000
3002
0000
1003
0001
,  // measure 36
1000
0002
2000
0000
3003
0000
0102
0000
,  // measure 37
0100
0100
0103
0120
,  // measure 38
0100
0100
0130
2010
,  // measure 39
0010
0010
3010
0120
,  // measure 40
0100
0000
0100
0000
0130
0000
0010
1000
,  // measure 41
0010
1000
0010
0000
0000
0000
0120
0000
,  // measure 42
1000
0000
0100
0000
1000
0000
1030
0002
,  // measure 43
0010
0003
0001
0020
0001
0030
0001
0000
,  // measure 44
0100
0000
0010
0100
1001
0000
0002
0000
,  // measure 45
0203
0020
0330
0020
,  // measure 46
2030
0200
3300
2000
,  // measure 47
3020
0230
0320
2030
,  // measure 48
3002
0023
0100
0032
,  // measure 49
0023
0200
0330
0020
,  // measure 50
0230
2300
0001
3002
,  // measure 51
0203
2300
0100
3200
,  // measure 52
0320
0000
1000
0000
2000
0030
3010
0000
,  // measure 53
0100
0110
1001
0010
,  // measure 54
0010
1001
0110
0100
,  // measure 55
0100
1001
0101
0011
,  // measure 56
1010
0011
1010
1001
,  // measure 57
0010
1001
0110
0001
,  // measure 58
1010
0001
1100
0001
,  // measure 59
0110
0001
1001
0101
,  // measure 60
1100
0101
1001
0002
,  // measure 61
0203
0320
2030
3020
,  // measure 62
0230
0320
2030
0001
,  // measure 63
0001
3002
0203
0320
,  // measure 64
2030
3002
0103
1002
,  // measure 65
2003
3002
2003
0001
,  // measure 66
0001
0001
0001
3002
,  // measure 67
2003
3020
0230
0002
,  // measure 68
0303
0000
0000
0102
,  // measure 69
0013
1002
1003
2100
,  // measure 70
3010
0120
1030
0120
,  // measure 71
0130
2010
3100
1002
,  // measure 72
0103
0012
0013
0012
,  // measure 73
0100
0010
0103
2001
,  // measure 74
0100
0010
3100
1020
,  // measure 75
0001
1000
0031
0210
,  // measure 76
1000
0000
0000
0000
0301
0000
0000
1001
0000
0000
0000
0000
0000
0000
0000
0000
;

//---------------dance-single - ----------------
#NOTES:
     dance-single:
     :
     Challenge:
     13:
     1.000,1.000,0.605,0.866,1.000:
0000
0000
0000
0000
,
0000
0000
0000
0000
,
0000
0000
0000
0000
,
0000
0000
0000
0000
0000
0000
0000
0000
0000
0000
0000
0000
0000
0000
0000
0000
0020
0000
0000
0000
0000
0000
0000
0000
0000
0000
0000
0000
0000
0000
0000
0030
1001
0000
0000
0000
0000
0000
0000
0000
0000
0000
0000
0000
0000
0000
0000
0000
0001
0000
0000
0000
0000
0000
0000
0000
0100
0000
0000
0000
0000
0000
0000
0000
,
0010
0000
1000
0000
0001
0000
0001
0010
0000
0100
1000
0000
1000
0000
0100
0000
,
1000
0000
0010
0000
0100
0000
0001
0010
0000
0100
1000
0000
1000
0000
0001
0000
,
0100
0000
1000
0000
0100
0000
0010
0100
0000
0100
0001
0000
0001
0000
1000
0000
,
1000
0100
0010
0001
1000
0000
1000
0001
0000
0001
0100
0000
0010
0000
1010
0000
,
0010
0000
0110
0000
0010
0000
1000
0010
0000
0100
0001
0000
0001
0000
1100
0000
,
0001
0000
0000
0000
0000
0000
0110
0000
0000
0000
0000
0000
0010
0000
0000
0000
0000
0000
1000
0000
0000
0001
0000
0000
0000
0000
0000
0001
0000
0000
0010
0000
0000
0000
0000
0000
0100
0000
0000
0000
0100
0000
0000
0000
0010
0000
0000
0000
,
0001
0000
0000
0001
0001
0100
0010
0000
0000
0101
0100
0010
,
1000
0000
1010
0000
1000
0000
0100
0000
0010
0000
0110
0000
1001
0000
0000
0000
0000
0000
0001
0000
0000
2010
0000
0000
,
3001
0000
1002
0000
1003
0000
0001
0100
0010
0000
1000
0000
0120
0000
1030
0000
,
2010
0000
3010
0000
0210
0000
0310
1000
0001
0000
0010
0000
1200
0000
0310
0000
,
2100
0000
3001
0000
0102
0000
0013
0001
0010
0000
0100
0000
0021
0000
0031
0000
,
0001
0000
0000
0200
0000
0000
0010
0000
0000
0300
0000
0000
1000
0000
0000
0000
0000
0000
0001
0000
0000
0010
0000
0000
0000
0000
0000
0100
0000
0000
1000
0000
0000
0000
0000
0000
1000
0000
0001
0000
1000
0000
0001
0000
0000
1000
0000
0000
,
0001
0000
1000
0000
0001
0000
0100
0000
0000
0000
0000
0000
0010
0000
0000
0000
0000
0000
1000
0000
0000
0010
0000
0000
0100
0000
0000
0001
0000
0000
1000
0000
0000
0000
0000
0000
1000
0000
0000
0000
0000
0000
0100
0000
0000
0001
0000
0000
,
1000
0000
1000
0010
0100
0000
0100
0001
0000
0001
0010
0000
0001
0000
0010
0000
,
0100
0000
1000
0100
1000
0000
1000
0001
0100
0000
0001
0000
0010
0000
0100
0000
,
1000
0000
0001
0000
1000
0000
0010
0100
0110
0000
0100
0000
0001
0000
0001
0100
,
0000
0100
0010
0000
0110
0000
0010
1000
0000
1000
0100
0000
0110
0000
0110
0000
,
0110
0000
1001
0000
0101
0000
0001
0100
0000
0010
1000
0000
1000
0000
0010
0100
,
0000
0001
0010
0000
0010
0100
1000
0001
0100
0000
0001
0000
0001
0100
0010
1000
,
0100
0010
0100
1000
0001
0100
1000
0100
0010
1000
0001
0010
0100
0000
0100
0000
,
0010
0001
0000
0001
0100
0000
0100
0010
0000
0100
0010
0000
0010
1000
0001
0000
,
0010
0000
0100
0000
1000
0000
0001
0100
0000
0010
1000
0000
1000
0001
0100
0000
,
0001
0010
0100
0000
0100
1000
0010
0100
0001
0000
1000
0000
1001
0000
0101
0000
,
0011
0000
0110
0000
0010
1000
0001
0100
0002
0000
0003
0000
0001
0100
0001
0100
,
0001
0100
0001
0100
0010
0100
0010
0100
0010
0100
0010
0100
0010
1000
0010
1000
,
0010
1000
0010
1000
0100
1000
0100
1000
0100
1000
0100
1000
0001
1000
0001
1000
,
0001
1000
0001
1000
0001
0100
0001
0100
0001
0100
0001
0100
0001
0010
0100
1000
,
0100
0010
0001
0100
0010
1000
0001
0010
0100
0010
0001
1000
0010
0100
0010
0100
,
0010
0100
0010
0100
0001
0100
0001
0100
0001
0100
0001
0100
0010
1000
0010
1000
,
0010
1000
0010
1000
0010
1000
0001
1000
0001
1000
0001
1000
0001
1000
0100
0010
,
0001
0010
0100
1000
0100
0010
0001
0010
0100
1000
0001
0100
0101
0000
1010
0000
,
1001
0000
1100
0000
1000
0001
1000
0001
1000
0001
1000
0001
1001
0000
0001
0100
,
0010
0000
0010
1000
0001
0000
0001
0010
0000
0010
0001
0000
0001
0000
0100
0010
,
1000
0000
0000
0000
0000
0000
1000
0000
0000
0001
0000
0000
0010
0000
0000
0000
0000
0000
0100
0000
0000
1000
0000
0000
0000
0000
0000
0100
0000
0000
1000
0000
0000
0000
0000
0000
1000
0000
0001
0000
0100
0000
0001
0000
0010
0000
0100
0000
,
1000
0000
0100
0000
0010
0000
0100
0000
0000
0010
0000
0000
0000
0000
0000
0001
0000
0000
0000
0000
0000
0010
0000
0000
0001
0000
0000
0000
0000
0000
1000
0000
0000
0000
0000
0000
0001
0000
0000
0000
0000
0000
0100
0000
0000
0000
0000
0000
,
0100
0000
0010
0000
1000
0000
0010
1000
0000
0010
0100
0000
2001
0000
3001
0000
,
1002
0000
1003
0000
0110
0000
0010
0010
0000
1000
1000
0000
2001
0000
3001
0000
,
1002
0000
1003
0000
0101
0000
0001
0100
0000
0010
1000
0000
0100
0000
0010
0001
,
0100
0000
0010
0000
1000
0001
1000
0001
0100
0000
0001
0000
0001
0100
0010
1000
,
0100
0000
0010
0000
0002
2003
3002
2003
0020
0000
3030
0000
0020
0130
0020
2030
,
3200
0320
0230
1300
0020
0130
0002
0013
0100
0010
0001
0200
0320
2030
3002
0023
,
0230
0310
0002
0203
0320
2030
3002
0103
0020
1030
0001
0010
0200
2300
3200
0320
,
0230
1300
0020
0130
0002
1003
0002
0103
0001
0100
0020
0130
0020
1030
0020
2030
,
3200
0320
0230
1300
0002
0103
0020
1030
0002
0013
0100
0000
0020
0032
0203
0320
,
2030
3001
0020
0230
2300
3200
2300
3010
0100
0001
2000
3010
0200
0302
0023
0032
,
0203
0301
0200
0301
2000
3001
2000
3001
2000
3100
2000
3100
2000
3100
0020
0032
,
0023
0230
0320
0031
0020
0130
0020
0031
0020
0130
2000
3100
0020
0130
0002
2003
,
3200
0320
0230
1300
0020
0130
0002
1003
0020
0130
0002
1003
1001
0000
0001
0100
,
0101
0000
0001
0100
0110
0000
0010
1000
0000
0010
0100
0000
1001
0000
0001
0100
,
0101
0000
0100
0010
0110
0000
0010
1000
0000
0001
0100
0000
1001
0000
1000
0100
,
1100
0000
1000
0010
1010
0000
0010
1000
0000
0010
0100
0000
0010
1000
0001
0010
,
1000
0010
0001
0100
1000
0100
0010
1000
0001
0010
0100
1000
0001
0000
0100
0010
,
0110
0000
0010
0100
0110
0000
0010
1000
0000
1000
0001
0000
1001
0000
0001
0100
,
0101
0000
0100
0010
0110
0000
0010
1000
0000
1000
0100
0000
1100
0000
1000
0001
,
0101
0000
0001
0100
0110
0000
0010
1000
0000
0010
0100
0000
0010
1000
0001
0010
,
0100
0010
0001
1000
0010
1000
0001
0010
0002
0000
0000
0000
1003
0000
1000
0001
,
0100
0000
0010
1000
0000
0010
0100
0000
0010
1000
0001
0010
0100
0000
0100
0010
,
0001
0000
0000
0000
0000
0000
0001
0000
0000
0100
0000
0000
0000
0000
0000
0100
0000
0000
0010
0000
0000
0000
0000
0000
1000
0000
0000
0001
0000
0000
0010
0000
0000
0100
0000
0000
1000
0000
0100
0000
0010
0000
0001
0000
0010
0000
0100
0000
,
1000
0000
0100
0000
0010
0000
0001
0000
1000
0001
0000
0000
1000
0000
0000
0001
0000
0000
0000
0000
0000
0001
0000
0000
0100
0000
0000
0000
0000
0000
0010
0000
0000
0000
0000
0000
0100
0000
0000
0000
0000
0000
0010
0000
0000
0000
0000
0000
,
1000
0000
0001
0000
0010
0000
0100
1000
0000
1000
0100
0000
1100
0000
0000
0000
,
0101
0000
0000
0000
0110
0000
0000
1001
0000
0000
0101
0000
1010
0000
0000
0000
,
0110
0000
0000
0000
1001
0000
0000
1100
0000
0000
0110
0000
0011
0000
0000
0000
,
0101
0000
0000
0000
1010
0000
0000
0101
0000
0000
1010
0000
2002
0000
0000
0000
,
3003
0000
0000
0000
0000
0000
0000
0000
0000
0000
0000
0000
0001
0100
0010
0000
,
1000
0010
0100
0000
0010
1000
0002
0013
0100
0010
0001
0100
0010
0100
0010
0000
,
0010
0100
0010
0000
0100
0001
1000
0001
0010
0100
1000
0001
0100
0001
0010
0000
,
0010
0100
1000
0000
0100
1000
0010
0100
0010
1000
0001
0010
0001
0010
0100
0000
,
0100
1000
0010
0000
0100
0010
1000
0001
0010
0100
0010
0000
0001
0100
0010
1000
,
0100
0010
0100
1000
0010
0100
0001
0010
0100
0010
0001
0100
0010
1000
0100
0010
,
0100
1000
0010
0100
0001
0010
0100
0010
0001
0100
0010
1000
0100
0010
0100
1000
,
0010
0100
0001
0010
0100
0010
0001
0100
0010
1000
0001
0010
0100
1000
0001
0100
,
0010
1000
0001
0010
0100
1000
0000
2002
0000
0000
0000
0000
0000
0000
3000
0000
,
0000
0003
0000
0000
;

//---------------dance-single - ----------------
#NOTES:
     dance-single:
     :
     Beginner:
     4:
     0.395,0.555,0.997,0.278,0.004: // measure 1
0000
0000
0000
0000
,  // measure 2
0000
0000
0000
0000
,  // measure 3
0000
0000
0000
0000
,  // measure 4
0000
0000
1001
0010
,  // measure 5
0000
0000
0000
0100
,  // measure 6
0000
0000
0000
0001
,  // measure 7
0000
0000
0000
1000
,  // measure 8
0000
0000
0000
0010
,  // measure 9
0010
0010
0000
0100
,  // measure 10
0100
0100
0000
0110
,  // measure 11
0000
1001
0000
0110
,  // measure 12
0110
0110
1001
0110
,  // measure 13
0000
0000
0000
1001
,  // measure 14
0000
0000
0000
0110
,  // measure 15
0000
0000
0000
1001
,  // measure 16
0000
0000
0000
1001
,  // measure 17
0000
0010
0000
1001
,  // measure 18
0000
0100
0000
0110
,  // measure 19
0000
0100
0000
0110
,  // measure 20
0000
0100
0100
1001
,  // measure 21
0000
0001
0000
1000
,  // measure 22
1000
1001
0000
0110
,  // measure 23
0000
0010
0000
0110
,  // measure 24
0010
1001
0110
1001
,  // measure 25
0000
0100
0000
0110
,  // measure 26
0000
0010
0010
1001
,  // measure 27
0000
0100
0000
1001
,  // measure 28
0000
0010
0100
2002
,  // measure 29
0000
0000
3003
0220
,  // measure 30
0000
0000
0330
2002
,  // measure 31
0000
0000
3003
2002
,  // measure 32
0000
0000
3003
0220
,  // measure 33
0000
0000
0000
0330
0110
0000
2002
0000
,  // measure 34
0000
3003
1001
2002
,  // measure 35
0000
3003
0110
0110
,  // measure 36
1001
0010
0100
0110
,  // measure 37
0000
1001
0000
0010
,  // measure 38
0000
0100
0000
0110
,  // measure 39
0000
0010
0000
1001
,  // measure 40
0000
0010
0000
1001
,  // measure 41
1001
1001
0000
0110
,  // measure 42
0000
0110
0000
0010
,  // measure 43
0000
0100
0000
0010
,  // measure 44
0000
0100
0100
0110
,  // measure 45
0110
0110
0110
1001
,  // measure 46
1001
1001
1001
0110
,  // measure 47
1001
0110
1001
0110
,  // measure 48
0110
0110
0110
2002
,  // measure 49
3003
2002
3003
0220
,  // measure 50
0330
0220
0330
2002
,  // measure 51
3003
0220
0330
1001
,  // measure 52
0110
1001
0110
0001
,  // measure 53
0001
1000
1000
0010
,  // measure 54
0010
0100
0100
0010
,  // measure 55
1000
0010
1000
1001
,  // measure 56
0110
1001
0110
0001
,  // measure 57
0001
1000
1000
1001
,  // measure 58
1001
0110
0110
0010
,  // measure 59
0010
0100
0100
0110
,  // measure 60
1001
0110
1001
2002
,  // measure 61
0000
0000
3003
0220
,  // measure 62
0000
0000
0330
0220
,  // measure 63
0000
0000
0330
2002
,  // measure 64
0000
0000
3003
1001
,  // measure 65
0000
0000
0000
0010
,  // measure 66
0000
0000
0000
0100
,  // measure 67
0000
0000
0000
0010
,  // measure 68
1001
0000
0000
1001
,  // measure 69
1001
1001
1001
0110
,  // measure 70
0110
0110
0110
1001
,  // measure 71
1001
1001
1001
0110
,  // measure 72
0110
0110
0110
1001
,  // measure 73
0110
1001
0110
1001
,  // measure 74
0110
1001
0110
1001
,  // measure 75
1001
0110
0110
0110
,  // measure 76
1001
0000
0000
0000
0110
0000
0000
1001
0000
0000
0000
0000
0000
0000
0000
0000
;
