#TITLE:Scharfrichter;
#SUBTITLE:;
#ARTIST:Ashemu;
#TITLETRANSLIT:;
#SUBTITLETRANSLIT:;
#ARTISTTRANSLIT:;
#CREDIT:;
#BANNER:Scharfrichter bn.png;
#BACKGROUND:Scharfrichter bg.png;
#LYRICSPATH:;
#CDTITLE:;
#MUSIC:21 Scharfrichter.mp3;
#OFFSET:0.625;
#SAMPLESTART:77.060;
#SAMPLELENGTH:12.000;
#SELECTABLE:YES;
#BPMS:0.000=217.001;
#STOPS:276.000=1.106
;
#BGCHANGES:;

//---------------dance-single - ----------------
#NOTES:
     dance-single:
     :
     Hard:
     9:
     0.602,0.747,0.208,0.623,0.024: // measure 1
0000
0000
0000
0000
,  // measure 2
0000
0000
0000
0000
,  // measure 3
0000
0000
0000
0000
,  // measure 4
0000
0000
0000
0000
,  // measure 5
0000
0000
0000
0000
,  // measure 6
2002
0000
0000
0000
,  // measure 7
0000
0000
0000
0000
0000
0000
0000
3003
,  // measure 8
1000
1000
0000
0000
0000
0000
0000
0000
,  // measure 9
0000
0000
0000
0000
0000
0000
0000
0100
,  // measure 10
0000
0100
0010
0000
2000
0000
0000
3100
,  // measure 11
0010
0100
0000
0000
0000
0000
0000
0000
,  // measure 12
0010
0001
0000
1000
0000
0001
0000
0001
,  // measure 13
0100
0010
1000
0100
0010
0100
0000
0020
,  // measure 14
0000
0000
0032
0000
,  // measure 15
0203
0000
0000
0000
0320
0000
0000
2000
,  // measure 16
0000
0000
3030
0000
0010
1000
0001
0020
,  // measure 17
0000
0000
0000
0000
0130
0000
0000
1001
,  // measure 18
0000
0000
0001
0000
1000
0010
0000
0010
,  // measure 19
0000
0100
0010
1000
0010
1000
0001
0020
,  // measure 20
0000
0000
0130
0000
0000
0010
0000
0001
,  // measure 21
0000
1000
0010
1000
0001
0010
0000
0200
,  // measure 22
0000
0000
0000
0000
1300
0100
1000
0002
,  // measure 23
0000
0000
0000
0000
0203
0000
0000
0320
,  // measure 24
0000
0000
0230
0000
,  // measure 25
0302
0000
0000
0000
2003
0000
0000
3200
,  // measure 26
0000
0000
0000
0000
0000
0000
0010
0020
,  // measure 27
0000
0000
0000
0000
0000
0000
0000
0330
,  // measure 28
0010
0001
0100
1000
,  // measure 29
0100
0000
0010
0000
1000
0000
0001
0010
,  // measure 30
0000
0001
0100
0000
0010
0000
0100
0010
,  // measure 31
0000
1000
0000
0001
0000
0010
0100
0000
,  // measure 32
0010
0000
0010
0000
0100
0000
1000
0001
,  // measure 33
0000
0100
0000
0010
0000
0100
0001
0000
,  // measure 34
0001
0000
1000
0000
0100
0010
0000
0100
,  // measure 35
0000
1000
0000
1000
0010
0000
0100
0000
,  // measure 36
0010
0000
0100
0010
1000
0001
0010
0100
,  // measure 37
1000
0001
0010
0100
1000
0100
0010
0100
,  // measure 38
0010
0001
0100
1000
,  // measure 39
0100
0010
1000
0001
,  // measure 40
0010
0001
1000
0100
,  // measure 41
0010
0100
1000
0001
,  // measure 42
0100
0000
0100
0000
0100
0100
0000
0020
,  // measure 43
0000
0000
1030
0000
0001
0011
0000
0200
,  // measure 44
0000
0310
0001
0100
0010
1000
0001
0010
,  // measure 45
0001
0100
0010
1000
0100
0100
0000
0010
,  // measure 46
0000
0001
0100
0001
0010
0001
1000
0001
,  // measure 47
0100
0001
0010
0001
0100
0001
1000
0001
,  // measure 48
0010
0100
1000
0100
0010
0001
0010
0100
,  // measure 49
0010
0001
0100
0010
1000
0001
0010
0001
,  // measure 50
0000
1000
0100
1000
0010
1000
0001
1000
,  // measure 51
0100
1000
0010
1000
0001
1000
0100
0010
,  // measure 52
0001
0010
0100
1000
0010
0100
0010
0001
,  // measure 53
0010
1000
0100
0010
0100
1000
0001
0020
,  // measure 54
0000
0000
0000
0000
0000
0000
0000
0030
,  // measure 55
0000
0000
0000
0000
,  // measure 56
0000
0000
0000
0100
1000
0001
0100
0001
,  // measure 57
0000
0000
0000
0000
0100
0001
0010
0002
,  // measure 58
0000
0000
0000
0000
,  // measure 59
2003
0000
0000
0000
0100
3100
0010
0010
,  // measure 60
0000
0000
0001
0010
0000
0000
0100
0020
,  // measure 61
0000
0000
0031
0100
1000
0100
0010
1000
,  // measure 62
0001
0010
0001
1000
0100
1000
0010
0100
,  // measure 63
0001
0010
0200
0000
0010
0320
0000
0000
,  // measure 64
0031
0100
1000
0100
0001
0010
0001
0100
,  // measure 65
1000
0100
0000
0010
0010
0000
0010
0100
,  // measure 66
0001
2000
0000
3100
0000
0010
0110
0000
,  // measure 67
1001
0000
0000
0001
1000
0001
1000
0001
1000
0001
1000
0001
,  // measure 68
1000
0001
0000
0000
0001
1000
0000
0000
,  // measure 69
2000
0000
3010
0000
,  // measure 70
1001
0000
0010
0100
0001
1000
0010
2000
,  // measure 71
0000
0000
0000
0000
3020
0000
0130
0002
,  // measure 72
0000
0000
0000
0000
0013
0100
1000
0020
,  // measure 73
0000
0000
0000
0000
0000
0000
0130
0002
,  // measure 74
0000
0000
0000
0000
0000
0000
0013
0200
,  // measure 75
0000
0000
0000
0000
0000
1300
0100
1000
,  // measure 76
0020
0000
0000
0000
0130
0010
1000
0020
,  // measure 77
0000
0000
0000
0000
0000
0000
0230
0002
,  // measure 78
0000
0000
0000
0303
0001
0010
0100
2000
,  // measure 79
0000
0000
0000
0000
0000
0000
0000
3002
,  // measure 80
0000
0000
0000
0000
1003
0001
0010
0200
,  // measure 81
0000
0000
0000
0000
0000
1300
0100
2000
,  // measure 82
0000
0000
0000
0000
3002
0000
0000
0203
,  // measure 83
0000
0000
0000
0000
0000
0310
1000
0002
,  // measure 84
0000
0000
0000
0000
1003
0001
0010
0002
,  // measure 85
0000
0000
0013
0001
0100
0001
0010
0220
,  // measure 86
0000
0000
0000
0330
0110
0000
0000
2002
,  // measure 87
0000
0000
0000
3003
0202
0000
0300
0020
,  // measure 88
0000
0000
0033
0000
2002
0000
0003
0200
,  // measure 89
0000
0000
3300
0000
0010
1000
0002
0020
,  // measure 90
0000
0000
0000
0033
0202
0000
0003
0020
,  // measure 91
0000
0000
0330
0000
0010
1000
0001
0010
,  // measure 92
0000
0010
0000
0010
0100
1000
0000
1002
,  // measure 93
0000
0000
0013
0000
0000
0001
0000
1001
,  // measure 94
0000
0001
0010
0100
0010
0001
0000
0220
,  // measure 95
0000
0000
0300
0130
0001
0010
0200
2000
,  // measure 96
0000
0000
3300
0000
2002
0000
0003
0020
,  // measure 97
0000
0000
0000
3030
0100
0001
0100
0002
,  // measure 98
0000
0000
0000
0000
2000
0000
0003
3100
,  // measure 99
0000
0000
0010
0000
0001
0000
0100
0110
,  // measure 100
0000
0000
1000
0000
0001
0000
0100
0110
,  // measure 101
0000
0000
0010
0000
1000
0000
0001
0020
,  // measure 102
0000
0000
0000
0000
0230
0000
0000
1300
,  // measure 103
0000
1000
1001
0000
0101
0000
0011
0000
,  // measure 104
0110
0000
0010
0100
1000
0100
0010
0100
,  // measure 105
1100
0000
0011
0000
0101
0000
1010
0020
,  // measure 106
0000
0130
0001
1000
0001
0100
0002
0020
,  // measure 107
0000
0003
0000
0000
,  // measure 108
0000
0000
0000
0000
,  // measure 109
0000
0000
0000
0000
,  // measure 110
0000
0000
0000
0000
,  // measure 111
0230
0300
0000
0000
0000
0000
0000
0000
;

//---------------dance-single - ----------------
#NOTES:
     dance-single:
     :
     Medium:
     8:
     0.506,0.703,0.120,0.279,0.000:
0000
0000
0000
0000
,
0000
0000
0000
0000
,
0000
0000
0000
0000
,
0000
0000
0000
0000
,
0000
0000
0000
0000
,
2002
0000
0000
0000
,
0000
0000
0000
0000
,
3000
0003
0000
0000
0000
0000
0000
0000
,
0000
0000
0000
0000
,
0000
0000
0000
0000
,
0000
0000
0000
0000
,
0000
0000
0000
0000
,
0000
0000
0000
0000
0000
0000
0000
0020
,
0000
0000
0000
0000
0000
0130
0000
0000
,
0200
0000
0000
0000
0310
0000
0000
2000
,
0000
0000
0000
0000
3001
0010
0001
0020
,
0000
0000
0000
0000
0031
0000
0000
0011
,
0000
0000
0001
0000
0100
0010
0000
1000
,
0000
0001
1000
0010
0100
0001
0100
0020
,
0000
0000
0130
0000
0000
0010
0000
1000
,
0000
0001
0000
0010
0001
0100
0000
0010
,
0000
1000
0010
0000
0100
0000
0001
0000
,
0010
1000
0010
0001
,
1000
0010
1000
0010
,
0100
0000
0001
0000
0010
0010
0100
0000
,
0010
0001
1000
0010
,
0100
0000
0001
0000
1000
0100
1000
0000
,
0001
0100
0001
0000
0001
0010
0100
0010
,
0001
1000
0010
1000
0001
1000
0001
1000
,
0000
0000
0100
0000
0010
0000
0001
0010
,
0000
0001
0000
0100
0000
0010
1000
0000
,
0001
0000
1000
0000
0100
0000
0100
0010
,
0000
0100
0000
1000
0000
0010
0100
0000
,
0001
0000
1000
0000
1000
0100
0000
1000
,
0000
0010
0000
0100
0001
0000
0010
0000
,
0100
0000
0010
0000
0001
1000
0010
1000
,
0010
0001
0010
1000
0100
1000
0001
0010
,
0000
0001
0100
0000
0010
1000
0010
0000
,
0100
0010
0100
0000
0010
1000
0001
0000
,
0001
0010
0100
0000
0100
1000
0010
0000
,
0100
0000
0100
0000
0100
0001
1000
0100
,
0000
0100
0000
0100
1000
0010
0000
0220
,
0000
0000
0000
0000
0000
0330
0000
0010
,
0000
1000
0001
1000
0001
1000
0001
1000
,
0001
1000
0001
1000
0001
1000
0000
0010
,
0000
0100
0001
0000
1000
0001
0010
0000
,
0010
0100
1000
0000
0100
1000
0010
0000
,
0100
0001
0010
0000
0001
1000
0100
0000
,
1000
0001
0010
0100
0010
0001
1000
0020
,
0000
0130
0001
0000
0001
1000
0100
0000
,
0100
0010
0100
0000
1000
0010
0100
0000
,
0010
1000
0001
0000
0010
0100
1000
0000
,
0100
1000
0010
0000
0100
0001
0010
0200
,
0000
0000
0000
0000
0000
0000
0000
0300
,
0000
0000
0000
0000
,
0000
0000
0000
0000
0020
0000
0000
0030
,
0000
0000
0000
0000
0010
0100
0001
0100
,
0000
0000
0000
0000
,
2000
0000
0000
0000
3100
0100
1000
0010
,
0000
0000
0100
0001
0000
0000
0001
0020
,
0000
0030
0110
0000
0110
0000
0110
0000
,
0110
1001
1001
1001
,
1001
0000
1001
0000
0001
0100
0000
0100
,
1000
0100
0010
0000
0100
0000
0010
1000
,
0001
0010
0000
0100
0100
0000
1000
0002
,
0010
0023
0230
1300
,
0011
0000
0001
0100
0010
1000
0001
0100
,
0001
0001
0000
0000
1000
1000
0000
0000
,
0020
0000
0130
0000
,
1001
0000
0010
0100
0001
1000
0010
1000
,
0000
0000
0000
0000
0010
0000
0100
0001
,
0000
0000
0000
0000
0010
0100
1000
0010
,
0000
0000
0000
0000
0000
0000
0100
0001
,
0000
0000
0000
0000
0000
0000
0010
0100
,
0000
0000
0000
0000
0000
1000
0100
1000
,
0010
0000
0000
0000
0100
0010
1000
0010
,
0000
0000
0000
0000
0000
0000
0100
0001
,
0000
0000
0000
0000
0001
0010
0100
1000
,
0000
0000
0000
0000
0000
0000
0000
0001
,
0000
0000
0000
0000
1000
0001
0010
0100
,
0000
0000
0000
0000
0000
1000
0100
1000
,
0000
0000
0000
0000
0001
0000
0000
0100
,
0000
0000
0000
0000
0000
0010
1000
0001
,
0000
0000
0000
0000
1000
0001
0010
0001
,
0000
0000
0010
0001
0100
0001
0010
0100
,
0000
0000
0000
0010
0001
1000
0001
0200
,
0000
0000
0000
0000
0302
0000
0000
2003
,
0000
0000
0000
0000
3200
0000
0000
0320
,
0000
0000
0000
0000
0130
0010
0001
2000
,
0000
0000
0000
0000
3002
0000
0000
0103
,
0000
0000
0000
0000
0010
1000
0001
0010
,
0000
0010
0000
0010
0100
1000
0000
0002
,
0000
0000
0103
0000
0000
0010
0000
0110
,
0000
0100
0000
0010
1000
0010
0000
0200
,
0000
0000
0000
0310
1000
0001
1000
0200
,
0000
0000
0000
0000
0320
0000
0000
0032
,
0000
0000
0000
0000
1003
0001
1000
0002
,
0000
0000
0000
0000
0203
0000
0000
0310
,
0000
0100
0010
0000
1000
0000
0001
1000
,
0000
0000
0100
0000
0010
0000
0001
0010
,
0000
0000
0100
0000
1000
0010
0010
2000
,
0000
0000
0000
0000
3200
0000
0000
0310
,
0000
0001
0100
1000
,
0100
0010
1000
0001
,
0010
0000
0100
0000
0010
0000
0001
1000
,
0000
0001
0010
0100
1000
0100
1000
0020
,
0000
0000
0000
0000
,
0000
0000
0000
0000
,
0000
0000
0000
0000
,
0000
0000
0000
0000
,
0030
0000
0000
0000
;

//---------------dance-single - ----------------
#NOTES:
     dance-single:
     :
     Easy:
     6:
     0.385,0.571,0.032,0.303,0.000:
0000
0000
0000
0000
,
0000
0000
0000
0000
,
0000
0000
0000
0000
,
0000
0000
0000
0000
,
0000
0000
0000
0000
,
2002
0000
0000
0000
,
0000
0000
0000
0000
,
3000
0003
0000
0000
0000
0000
0000
0000
,
0000
0000
0000
0000
,
0000
0000
0000
0000
,
0000
0000
0000
0000
,
0000
0000
0000
0000
,
0000
0000
0000
0000
0000
0000
0000
0020
,
0000
0130
0010
1000
,
0001
0010
0001
1000
,
0100
1000
0001
1000
,
0010
0000
1000
0000
0001
0000
0000
1001
,
0000
0010
0001
0100
,
0010
1000
0100
0010
,
0100
0000
1000
0000
0000
0001
0000
0100
,
0000
0010
0000
1000
0001
1000
0000
0002
,
0000
0103
0001
0010
,
1000
0010
0001
0100
,
0010
1000
0001
0010
,
0001
1000
0100
1000
,
0010
0100
0100
0010
,
1000
0001
0010
0001
,
1000
0010
1000
0100
,
1000
0001
0010
0100
,
1000
0000
0001
0000
0100
0000
0000
0010
,
0000
1000
0000
0010
0000
0000
0100
0000
,
0001
0000
0010
0000
0000
0100
0000
1000
,
0000
0100
0000
0000
1000
0000
0001
0000
,
0100
0000
0000
0010
0000
0010
0000
0010
,
0000
0100
0010
1000
,
0000
0001
0000
1000
0000
0100
0010
0000
,
0001
0000
0010
0000
1000
0000
0010
0001
,
0000
0001
0100
0000
0010
0000
1000
0000
,
0001
0010
0100
0010
,
0001
1000
0010
1000
,
0001
1000
0100
1000
,
0001
0000
1000
0000
0010
0010
0000
0200
,
0000
0000
0000
0300
0020
0000
0000
1030
,
0000
0001
1000
0000
0100
0000
0001
0000
,
0100
0000
1000
0000
0100
0010
0000
1000
,
0000
0001
0020
0000
0130
0000
0200
0000
,
1300
2000
3010
0200
,
0301
0002
0013
0020
,
0130
0000
0200
0000
1300
0000
0001
0100
,
0000
0100
0020
0000
1030
0000
2000
0000
,
3100
0200
0310
0020
,
0130
2000
3001
0002
,
0103
0000
0200
0000
0310
0100
0001
0200
,
0000
0000
0000
0000
0000
0000
0000
0300
,
0000
0000
0000
0000
,
0000
0000
0010
0000
,
0000
0000
1000
0000
,
0000
0000
0000
0000
,
0001
0000
0000
0000
1000
0000
0000
1000
,
0000
0010
0000
0100
,
0000
0001
1000
0001
,
0001
1000
1000
0010
,
0100
0000
0010
0000
0000
1000
0000
0000
,
0010
0100
0001
0010
,
0100
0010
0000
0001
0000
1000
0000
0001
,
0100
0100
0001
1001
,
1001
0010
1000
0010
,
0100
0001
0000
0000
0001
0100
0000
0000
,
0100
0000
0020
0000
,
0130
0000
0010
0000
1000
0000
0001
1000
,
0000
0000
0000
0000
0000
0000
0000
0010
,
0000
0000
0000
0000
0100
0000
0000
0010
,
0000
0000
0000
0000
0000
0000
0000
1000
,
0000
0000
0000
0000
0000
0000
0000
0001
,
0000
0000
0000
0010
,
0001
0000
0000
0000
0010
0000
0000
0100
,
0000
0000
0000
0000
0000
0000
0100
0010
,
0000
0000
0000
0000
0000
0010
0100
1000
,
0000
0000
0000
0000
0000
0000
0000
0001
,
0000
0000
0000
0000
0100
0010
0100
0010
,
0000
0000
0000
0000
0000
0000
0000
0010
,
0000
0000
0000
0000
0100
0000
0000
0010
,
0000
0000
0000
0000
1000
0000
0000
0001
,
0000
0000
0000
0000
0010
0000
0000
0001
,
0000
0000
0010
0000
0100
0000
1000
0020
,
0000
0000
0000
0000
0230
0000
0000
0301
,
0000
0000
0000
0000
0200
0000
0000
0310
,
0000
0000
0000
0000
0020
0000
0000
1030
,
0000
0000
0000
0000
2000
0000
0000
3100
,
0000
0000
0000
0000
2000
0000
0000
3010
,
0000
0100
0010
1000
,
0001
0010
0100
0010
,
0001
1000
0001
0100
,
0010
0000
1000
0000
0001
0000
0010
0002
,
0000
0000
0000
0000
0100
0000
0000
0200
,
0003
0000
0000
0000
0010
0000
0000
0320
,
0000
0000
0000
0000
1000
0000
0000
2030
,
0000
0000
0000
0000
0001
0000
0000
3002
,
0000
0000
0000
0000
0100
0000
0000
0203
,
0000
0000
0000
0000
0010
0000
0000
0320
,
0000
0000
0000
0000
1000
0000
0000
2000
,
0000
0000
0030
0000
0010
0000
0000
3010
,
0000
0010
0100
0000
0010
0000
1000
0000
,
0001
0010
0100
0010
,
0001
0000
0010
0000
0100
0000
1000
0100
,
0000
0100
0010
0000
0001
0000
2000
0002
,
0000
0000
0000
0000
,
0000
0000
0000
0000
,
0000
0000
0000
0000
,
0000
0000
0000
0000
,
3003
0000
0000
0000
;

//---------------dance-single - ----------------
#NOTES:
     dance-single:
     :
     Beginner:
     3:
     0.140,0.211,0.016,0.000,0.000:
0000
0000
0000
0000
,
0000
0000
0000
0000
,
0000
0000
0000
0000
,
0000
0000
0000
0000
,
0000
0000
0000
0000
,
0001
0000
0000
0000
,
0000
0000
0000
0000
,
1000
0000
0000
0000
,
0000
0000
0000
0000
,
0000
0000
0000
0000
,
0000
0000
0000
0000
,
0000
0000
0000
0000
,
0000
0000
0000
0000
0000
0000
0000
1000
,
0000
0000
0001
0000
,
0001
0000
0000
0000
1000
0000
0000
1000
,
0000
0000
0010
0000
,
0000
0000
0000
0000
0100
0000
0000
0100
,
0000
0000
0010
0000
,
0000
0000
1000
0000
0000
0000
0000
0001
,
0000
0001
0000
0000
,
0000
0000
0000
0000
0000
0000
0000
0100
,
0000
0000
0000
0000
0010
0000
0000
0010
,
0000
0000
0000
0000
1000
0000
0000
1000
,
0000
0000
0001
0000
,
1000
0000
0000
0000
0010
0000
0000
0010
,
0000
0000
0000
0000
0000
0000
0000
0100
,
0000
0000
0000
0000
,
0000
0000
0000
0000
,
0000
0000
0000
0000
,
0010
0000
0000
0000
,
1000
0000
0000
0000
,
0001
0000
0000
0000
,
0100
0000
0000
0000
,
0010
0000
0000
0000
,
1000
0000
0000
1000
,
0000
0001
0000
0100
,
0100
0100
0000
0000
,
0010
0000
0000
0000
,
1000
0000
0000
0000
,
0001
0000
0000
0000
,
0100
0000
0000
0000
,
0010
0000
0000
0000
0000
0000
0000
0100
,
0000
0000
0010
0000
,
1000
0000
0000
0000
,
0000
0000
0000
0000
0001
0000
0000
0100
,
0000
0000
0000
0000
,
0010
0000
0000
0000
,
1000
0000
0000
0000
,
0001
0000
0000
0000
0001
0000
0000
1000
,
0000
0000
0000
0000
,
0001
0000
0000
0000
,
0100
0000
0000
0000
,
0010
0000
0000
0000
0000
0000
0000
0100
,
0000
0000
0000
0000
,
0000
0000
0000
0000
,
0000
0000
0010
0000
,
0000
0000
1000
0000
,
0000
0000
0000
0000
,
0001
0000
0000
0000
,
1000
0000
0000
1000
,
0000
1000
0000
0000
,
0000
0001
0000
0000
,
0000
0100
0000
0000
,
0000
0010
0000
0000
,
0000
0010
0000
0000
,
0100
0000
0000
0100
,
0000
0000
0000
0000
,
0010
0000
0010
0000
,
1000
0000
0001
0000
,
0001
0000
0000
0000
0000
0000
0000
1000
,
0000
0000
0000
0000
0000
0000
0000
0010
,
0000
0000
0000
0000
0100
0000
0000
0100
,
0000
0000
0000
0000
0000
0000
0000
0010
,
0000
0000
0000
0000
1000
0000
0000
1000
,
0000
0000
0000
0000
,
0001
0000
0000
0000
1000
0000
0000
0010
,
0000
0000
0000
0000
0000
0000
0000
0100
,
0000
0000
0000
0000
0000
0000
0000
0010
,
0000
0000
0000
0000
0000
0000
0000
0100
,
0000
0000
0000
0000
0001
0000
0000
0001
,
0000
0000
0000
0000
0000
0000
0000
1000
,
0000
0000
0000
0000
0010
0000
0000
0010
,
0000
0000
0000
0000
,
0100
0000
0000
0000
0010
0000
0000
1000
,
0000
0000
0000
0000
0001
0000
0000
0001
,
0000
0000
0000
0000
1000
0000
0000
1000
,
0000
0000
0000
0000
0010
0000
0000
0010
,
0000
0000
0000
0000
0100
0000
0000
0100
,
0000
0000
0000
0000
0010
0000
0000
0010
,
0000
0000
0000
0000
1000
0000
0000
1000
,
0000
0000
0000
0000
0001
0000
0000
0001
,
0000
0000
1000
0000
,
0000
0001
0000
0000
,
0100
0000
0010
0000
,
1000
0000
0000
0000
,
0010
0000
0000
0000
,
0100
0000
0000
0000
,
0001
0000
0000
0000
,
1000
0000
0000
0000
,
0100
0000
0000
0000
0000
0000
0000
0010
,
0000
0000
0000
0000
0000
0000
0000
0001
,
0000
0000
0000
0000
0000
0000
0000
0110
,
0000
0000
0000
0000
,
0000
0000
0000
0000
,
0000
0000
0000
0000
0000
0000
0000
0010
,
0000
0000
0000
0000
0000
0000
0000
1001
;

//---------------dance-single - ----------------
#NOTES:
     dance-single:
     :
     Challenge:
     9:
     0.772,0.746,0.447,0.152,0.028:
0000
0000
0000
0000
,
0000
0000
0000
0000
,
0000
0000
0000
0000
,
0000
0000
0000
0000
,
0000
0000
0000
0000
,
1001
0000
1000
0000
0010
0100
0000
0010
,
0100
0001
0010
0100
,
1100
1000
0001
0000
0010
0001
0010
0100
,
0020
0000
0001
0000
0130
0000
0010
0001
,
0000
0100
0001
0000
1000
0000
0001
0100
,
0010
1000
0010
0000
0100
0000
0001
0000
,
2000
0100
0000
3100
0000
1000
0100
0010
,
0001
1000
0010
1000
0001
0100
0000
0101
,
0000
0100
0010
0000
1000
0010
1000
0000
,
0001
0010
0001
0000
1000
0100
1000
0001
,
0000
0100
0001
0000
1000
0010
1000
0000
,
0001
0010
0001
0000
1000
0100
1000
0010
,
0000
0100
0001
0000
0100
0001
0100
0000
,
0010
1000
0010
0000
1000
0100
1000
0001
,
0000
1000
0010
0000
0100
0001
0100
0010
,
0000
1000
0001
0010
0001
1000
0000
1001
,
0000
1000
0010
0000
0100
0000
0101
0000
,
0001
0000
0011
0000
0010
0000
0100
1000
,
0100
0010
0001
0000
0010
0000
0011
0000
,
0001
0000
1001
0000
1000
0010
1000
0001
,
0000
1000
0100
0000
1000
0000
1010
0000
,
0010
0000
0110
0000
0100
0001
0010
0001
,
0000
1000
0100
0000
1000
0001
0010
0001
,
1000
0100
1000
0100
0001
0100
0001
0200
,
0000
1300
0100
0000
1100
0000
0100
0010
,
0000
0011
0000
0101
0000
0100
0020
0000
,
1030
0000
1001
0000
0101
0000
0100
0010
,
0000
1010
0000
1000
0010
0100
0102
0000
,
1003
2100
3001
0012
,
1003
2010
3001
2100
,
3010
0000
1000
0010
0100
0001
1000
0100
,
0000
0010
0001
0010
0100
1000
0001
0200
,
0000
0310
1000
0000
0001
0100
0001
0000
,
1000
0100
1000
0000
0010
1000
0010
0100
,
0000
0001
0100
0000
0001
0010
0001
0000
,
1000
0010
1000
0000
0010
0100
0010
1000
,
0001
0001
1000
1000
0010
0100
0000
1001
,
0000
1000
0010
0100
0001
0100
0000
0110
,
0000
0010
2010
0000
3001
0000
0012
0000
,
1003
1000
0010
0010
0100
0001
0000
1001
,
0000
1000
0010
0000
0100
0001
0100
0000
,
0001
0010
0001
0000
1000
0010
1000
0001
,
0100
0010
0100
0000
0010
1000
0010
0000
,
1000
0100
1000
0000
0100
0010
0001
1001
,
0000
1000
0010
0000
1010
0000
1010
0000
,
0101
0101
0011
0011
,
1100
1100
1001
1001
,
1000
0010
0100
0001
1000
0100
0010
0002
,
0000
0000
0000
0000
1003
0000
0000
0010
,
1000
0001
0100
0000
0010
2000
0000
3000
,
0001
0000
0000
0001
0100
0000
0010
0000
,
1000
0001
0000
0001
1000
0010
0100
0010
,
1000
0001
0000
0001
0100
0010
1000
0010
,
0100
0000
0000
0000
0100
0000
0001
0000
0000
0000
0001
0000
1000
0000
0000
0010
0000
0000
1000
0000
0000
0001
0000
0000
,
0000
0100
0010
1000
0000
0100
0010
0002
,
0000
0003
1001
0000
1000
0010
1000
0001
,
0010
0001
1000
0100
1000
0001
0100
0001
,
0010
0001
0100
0000
0010
1000
0000
0010
,
0100
0001
1000
0100
1000
0100
0001
0100
,
0001
0100
0000
1000
0010
0000
1000
0100
,
0010
0001
1000
0001
0100
0001
1001
0000
,
1001
0000
0000
1000
0000
1000
0010
0000
0010
0100
0000
0100
,
0001
1001
0000
0000
0010
0110
0000
0000
,
1000
0010
0100
0001
1000
0100
0010
0001
,
1000
1000
0000
0000
0000
0000
0000
0000
0000
0000
0000
0000
1000
0000
0000
0000
0001
0000
0000
0000
0000
0000
0000
0000
1000
0000
0000
0000
0000
0000
0000
0000
0010
0000
0000
0000
0000
0000
0000
0000
0100
0000
0000
0000
0000
0000
0000
0000
0001
0000
0000
0000
0000
0000
0000
0000
1000
0000
0000
0000
0000
0000
0000
0000
,
0000
0001
0100
0000
0010
1000
0100
0000
,
0010
0001
0100
0000
0010
1000
0001
0100
,
0000
0001
0010
0000
0100
1000
0010
0000
,
0100
0001
1000
0000
0010
1000
0001
0010
,
0000
0001
0100
0000
0010
1000
0001
0000
,
0010
0001
0100
0000
0010
1000
0100
1000
,
0000
0001
0100
0000
0010
1000
0100
1000
,
0000
0010
0100
0100
0001
0001
1000
0010
,
0000
1000
0001
0000
0010
0001
0100
0000
,
0010
1000
0100
0000
1000
0100
0001
0100
,
0000
1000
0010
0000
0001
0010
1000
0000
,
0100
0010
0001
0000
1000
0001
0100
0001
,
0000
0010
0100
0000
1000
0010
0100
0000
,
0001
0010
0100
0000
1000
0010
0001
0010
,
0000
1000
0100
0000
0010
0001
0100
0001
,
0000
0010
0100
0100
1000
1000
0001
0010
,
0000
0001
0100
0000
0010
1000
0100
1000
,
0001
0010
0001
0000
0100
0010
1000
0010
,
0100
0001
1000
0000
0001
0010
0100
1000
,
0010
1000
0100
0000
1000
0010
0100
0001
,
0000
1000
0001
0000
0010
0001
0100
0010
,
1000
0010
0100
0000
0001
0010
0100
1000
,
0100
0010
0001
0000
1000
0010
0100
0001
,
0000
0010
1000
0010
0001
0101
0000
0110
,
0000
0010
1000
0000
0100
1000
0001
0010
,
1000
0010
0001
0000
0100
0010
1000
0010
,
0100
0001
1000
0000
0001
0100
0010
1000
,
0010
0100
0001
0000
1000
0100
1000
1001
,
0000
1000
0010
0000
0100
0001
0010
0011
,
0000
0001
0010
0000
0100
1000
0010
0110
,
0000
0100
0001
0000
1000
0010
1000
0001
,
0000
1000
0010
0100
0001
1000
0100
0020
,
0000
0030
0011
0000
0101
0000
0110
0000
,
1010
1100
1001
0011
,
1001
0000
1001
0000
1000
0010
0100
0020
,
0000
1030
0100
0010
0001
1000
0010
0200
,
0000
0300
0020
0000
0000
0000
0000
0000
,
0000
0000
0000
0000
,
0000
0000
0000
0000
,
0000
0000
0000
0000
,
0130
0000
0000
0000
;
