#TITLE:聖人の塔;
#SUBTITLE:;
#ARTIST:Beridzebeth;
#TITLETRANSLIT:SEIJIN NO TOU;
#SUBTITLETRANSLIT:;
#ARTISTTRANSLIT:;
#CREDIT:;
#BANNER:bnj.png;
#BACKGROUND:bgj.png;
#LYRICSPATH:;
#CDTITLE:;
#MUSIC:SEIJIN NO TOU.mp3;
#OFFSET:-10.290;
#SAMPLESTART:20.160;
#SAMPLELENGTH:12.000;
#SELECTABLE:YES;
#BPMS:0.000=97.000,16.000=194.000,208.000=97.000,224.000=194.000,288.000=97.000,300.000=194.000;
#STOPS:;
#BGCHANGES:;

//---------------dance-single - ----------------
#NOTES:
     dance-single:
     :
     Hard:
     9:
     0.630,1.000,0.272,0.520,0.136:
0002
0000
0000
0203
,
0000
0000
0320
2030
,
3002
2000
0000
0000
,
0000
0000
3003
0000
,
1001
0000
0001
0100
0000
0010
0000
1000
,
0000
0001
0010
0000
0001
1000
0010
1000
,
0001
0000
0010
0100
0000
1000
0000
0100
,
0000
1000
0010
0001
0010
0100
0001
0010
,
0100
0000
0010
0001
0000
1000
0000
0010
,
0000
1000
0100
0010
0100
1000
0001
1000
,
0010
0000
0100
0010
0000
1000
0000
0001
,
0000
0001
0010
0100
0010
0001
1000
0010
,
2000
0000
0000
3010
1000
0100
1000
0001
,
1000
0100
0010
0100
1000
0010
0100
0001
,
1000
0001
0100
0001
1000
0100
1000
0001
,
2000
3200
0320
0032
,
1003
0000
0000
0001
0000
0000
0100
0000
0000
0001
0000
0000
0010
0000
0100
0000
,
1000
0000
0000
0001
0000
0000
0100
0000
0000
0001
0000
0000
0010
0000
0100
0000
,
1000
0000
0100
0010
0100
1000
0100
0001
,
0100
0010
0001
0010
1000
0010
0100
0001
,
1000
0000
0001
0001
0000
0100
0000
0110
,
0000
0010
0100
0100
0100
0000
0010
0000
,
1000
0000
0001
0010
0000
0100
0000
1100
,
0000
0100
1000
1000
1000
0000
0100
0000
,
1000
0000
0010
0100
0000
0100
0000
1010
,
0000
1000
0001
0001
0001
0000
1000
0000
,
0001
0000
0100
0001
0000
0010
0000
1100
,
0000
1000
0100
0100
0100
0000
1000
0000
,
0020
0000
0000
0130
0001
1000
0100
0001
,
0100
0010
0001
0010
1000
0010
0001
0100
,
0010
1000
0100
1000
0001
0100
0001
0010
,
0200
0320
0032
2003
,
3001
0000
0000
0100
0000
0000
0001
0000
0000
0010
0000
0000
0010
0000
0100
0000
,
1000
0000
0000
0001
0000
0000
0100
0000
0000
0010
0000
0000
1000
0000
0010
0000
,
1000
0000
0100
0010
0001
0010
0001
1000
,
0010
0001
0010
0100
0001
1000
0100
0010
,
0001
0000
1000
2000
0000
0010
3020
0000
,
0100
0230
0000
0001
0302
0000
1000
2003
,
0000
0001
3002
0000
1000
2003
0000
0001
,
3002
0000
1000
2003
0000
0001
3001
0000
,
0110
0000
0010
0020
0000
1000
2030
0000
,
0010
3020
0000
0100
0230
0000
0001
0302
,
0000
0010
0023
0000
0100
0230
0000
0010
,
0320
0000
0001
0032
0000
1000
1003
0000
,
1001
0000
0001
0200
0000
0310
2000
0000
,
3001
0200
0000
0310
2000
0000
3001
0020
,
0000
0130
2000
0000
3100
0020
0000
0031
,
0002
0000
0013
0020
0000
0130
1000
0000
,
1001
0000
0001
0002
0000
0103
0200
0000
,
0310
0020
0000
1030
2000
0000
3001
0020
,
0000
0130
2000
0000
3100
0020
0000
0130
,
0020
0000
0031
2000
0000
3001
2000
0000
,
3200
0000
0000
0310
0000
0000
0200
0000
0000
1300
0000
0000
0100
0000
0001
0000
,
0200
0000
0000
0310
0000
0000
0002
0000
0000
0103
0000
0000
1000
0000
0100
0010
,
2000
0000
0000
0000
0000
0000
0000
0000
3002
0000
0000
1003
0000
0000
0100
0000
,
2000
0000
0000
3010
0000
0000
0100
0000
0002
0000
0000
0000
1003
0001
0010
0100
,
1000
1000
0100
1000
0001
0100
0001
0010
,
0001
0100
0010
1000
0100
0010
0100
1000
,
0001
0100
1000
0100
0010
1000
0001
0010
,
0001
0100
0001
1000
0100
0010
0100
1000
,
0001
0010
0100
1000
0001
0010
0100
1000
,
0100
0010
0001
0010
0100
0010
0001
1000
,
0001
0100
0010
1000
0100
0010
0100
1000
,
0001
0010
0100
0010
0001
1000
0010
1000
,
1100
0000
0000
0011
0000
0000
0101
0000
,
0000
1001
0000
0000
1010
0000
0000
0011
,
0000
0000
1100
0000
0000
0101
0000
0000
,
0110
0000
0000
1001
0000
0000
0110
0000
,
1001
0001
0010
0000
0100
0100
0000
0010
,
0010
0000
0001
0001
0000
1000
1000
0000
,
1001
1001
0000
0101
0101
0000
1010
1010
,
0000
0110
0110
0000
1001
1001
0000
1100
,
1100
0100
0010
0100
1000
0100
0010
0001
0010
0100
0010
1000
0001
0010
0100
1000
,
0100
1000
0010
0100
0001
0010
0100
0001
1000
0001
0010
0100
1000
0100
0010
0001
,
2002
0000
0000
0000
,
3003
0000
0000
0000
;

//---------------dance-single - ----------------
#NOTES:
     dance-single:
     :
     Medium:
     7:
     0.449,0.526,0.281,0.264,0.008:
0002
0000
0000
2003
,
0000
0000
3002
0203
,
0302
2000
0000
0000
,
0000
0000
3003
0000
,
0101
0000
0001
0100
0000
0010
0000
1000
,
0000
0010
0100
0000
0010
1000
0010
1000
,
0010
0000
1000
0100
0000
1000
0000
0010
,
0000
0100
0010
0000
1000
0100
0010
0000
,
0100
0000
1000
0100
0000
1000
0000
0010
,
0000
0100
0010
0000
0010
1000
0001
0000
,
1000
0000
0001
0010
0000
0100
0000
1000
,
0000
0100
1000
0000
0010
0100
0001
1000
,
0002
0000
0000
1003
0001
0000
0100
0000
,
0001
0100
1000
0100
,
0010
0000
1000
0000
0001
0000
0010
0100
,
1000
0100
0010
0001
,
1000
0001
0100
0000
0010
0000
0110
0000
,
0010
1000
0001
0000
0010
0000
1100
0000
,
1000
0100
0010
0000
0010
0100
1000
0000
,
0010
0100
0001
1000
0010
0100
0001
1000
,
0002
1003
2000
3100
,
0200
0310
0020
0031
,
0002
0103
0200
0310
,
0020
0000
1030
0000
0020
0000
0130
0001
,
2000
3001
2000
3001
,
0002
0103
0002
0103
,
0020
0130
0020
0130
,
0020
1030
0020
0130
,
0020
0000
0130
1000
,
1000
0000
0100
0000
0010
0000
0100
1000
,
0010
0000
0100
0000
0001
0000
1000
0001
,
0010
0100
1000
0100
,
1000
0100
0010
0011
,
0001
0100
0010
0110
,
0010
1000
0001
0000
0001
0010
0100
0000
,
0010
0100
1000
0100
0010
0100
1000
0010
,
0100
0000
0000
0010
0000
0000
1000
0000
,
0000
0001
0000
0000
0010
0000
0000
1100
,
0000
0000
0011
0000
0000
0101
0000
0000
,
0110
0000
0000
1001
0000
0000
1100
0000
,
1001
0000
0000
0101
0000
0000
0010
0000
,
0000
1001
0000
0000
0100
0000
0000
0110
,
0000
0000
1010
0000
0000
0011
0000
0000
,
1100
0000
0000
0011
0000
0000
0101
0000
,
0001
0000
0000
1000
0000
0000
0001
0000
,
0000
0100
0000
0000
0001
0000
0000
0011
,
0000
0000
0100
0000
0000
0010
0000
0000
,
0100
0000
0000
0010
0000
0000
1000
0000
,
1001
0000
0000
1000
0000
0000
1100
0000
,
0000
0100
0000
0000
0110
0000
0000
0010
,
0000
0000
0011
0000
0000
1100
0000
0000
,
0101
0000
0000
1010
0000
0000
1001
0000
,
1000
0000
0001
0000
0100
0001
0010
0000
,
0100
0000
0110
0000
0010
0001
1000
0010
,
0200
0000
0320
2030
,
3200
0000
0000
0000
0320
0000
0000
0000
0032
0000
0000
0000
1003
0001
1000
0001
,
0100
0001
0100
0000
0001
0000
0100
0000
,
0010
1000
0010
0000
0100
0010
0100
0000
,
0010
1000
0001
0000
0010
0000
0100
0000
,
1000
0100
0010
0000
0100
1000
0010
0000
,
0100
0010
1000
0000
0001
0000
1000
0000
,
0001
0100
0010
0000
0100
0010
1000
0000
,
0001
0010
0100
0000
0100
1000
0010
0000
,
0100
0010
1000
0000
0001
0010
0100
0000
,
1000
0000
0000
1000
0000
0000
0001
0000
,
0000
0001
0000
0000
1000
0000
0000
0010
,
0000
0000
0100
0000
0000
0001
0000
0000
,
0010
0000
0000
0100
0000
0000
1000
0000
,
0100
1000
0100
0000
1000
0100
0000
0010
,
0001
0000
0001
0100
0000
0010
1000
0000
,
0010
0100
0000
0001
1000
0000
0001
0100
,
0000
0010
1000
0000
1000
0100
0000
0100
,
0010
0001
0011
0000
0001
0000
0101
0000
,
0001
0100
0110
0000
0010
0000
1000
0000
,
2002
0000
0000
0000
,
3003
0000
0000
0000
;

//---------------dance-single - ----------------
#NOTES:
     dance-single:
     :
     Easy:
     5:
     0.316,0.371,0.132,0.017,0.000:
0001
0000
0000
1000
,
0000
0000
0100
1000
,
0010
0100
0000
0000
,
0000
0000
0000
0000
,
1001
0000
0000
0001
0000
1000
0000
0001
,
0000
0100
0100
0001
,
1000
0000
0000
0100
0000
1000
0000
0100
,
0000
1000
0010
0100
,
0001
0000
0000
1000
0000
1000
0000
1000
,
0000
0001
0100
0001
,
0010
0000
0000
0100
0000
0100
0000
0100
,
0000
0010
0001
1000
,
0001
1000
0100
1000
,
0001
0100
0001
1000
,
0100
1000
0001
0100
,
0001
0010
0100
1000
,
0100
0100
1000
1000
,
0100
0100
1000
1000
,
0100
0010
0001
0010
,
0001
0100
0010
1000
,
0001
0000
0000
1000
0000
1000
0000
1000
,
0000
0001
0100
0010
,
0100
0000
0000
0010
0000
0010
0000
0010
,
0000
0100
0001
1000
,
1100
0000
0000
0100
0000
0010
0000
0001
,
0000
0010
0001
0100
,
1000
0000
0000
0100
0000
0010
0000
1000
,
0000
0001
1000
0100
,
1000
0000
0100
1000
,
0010
0100
0010
1000
,
0001
0010
0001
0010
,
0001
0100
1000
0100
,
0010
0010
0100
0100
,
0001
0001
1000
1000
,
0001
0010
0100
1000
,
0001
0010
0100
1000
,
0001
0000
0000
1000
0000
0000
0001
0000
,
0000
0100
0000
0000
0001
0000
0000
0010
,
0000
0000
0010
0000
0000
0010
0000
0000
,
0010
0000
0000
0010
0000
0000
0010
0000
,
0100
0000
0000
1000
0000
0000
0100
0000
,
0000
1000
0000
0000
0010
0000
0000
0100
,
0000
0000
0001
0000
0000
1000
0000
0000
,
0100
0000
0000
1000
0000
0000
0010
0000
,
0100
0000
0000
0100
0000
0000
0010
0000
,
0000
0010
0000
0000
1000
0000
0000
0001
,
0000
0000
0001
0000
0000
0100
0000
0000
,
0001
0000
0000
0010
0000
0000
0001
0000
,
1000
0000
0000
0100
0000
0000
1000
0000
,
0000
0010
0000
0000
0100
0000
0000
0010
,
0000
0000
1000
0000
0000
0001
0000
0000
,
0010
0000
0000
0010
0000
0000
0100
0000
,
1000
0000
0100
0000
1000
0000
0010
0100
,
0001
0000
1000
0000
0001
0000
0010
0100
,
1000
0000
0100
1000
,
0010
0000
0100
0000
0001
0000
1000
0001
,
0100
0000
0000
0001
0000
0100
0000
0010
,
0000
0100
0010
1000
,
0001
0000
0000
1000
0000
0100
0000
0010
,
0000
0010
0100
1000
,
0001
0000
0000
1000
0000
0001
0000
0100
,
0000
0001
0100
0000
0001
0000
0100
0000
,
0010
0000
0000
0100
0000
0010
0000
1000
,
0000
0001
1000
0000
0001
0000
0100
0000
,
0010
0000
0000
0110
0000
0000
0010
0000
,
0000
1001
0000
0000
0010
0000
0000
0101
,
0000
0000
0010
0000
0000
1100
0000
0000
,
0010
0000
0000
0011
0000
0000
0001
0000
,
1001
0000
0001
0000
0000
0101
0000
0000
,
1010
0000
0000
1000
0000
0000
0100
0000
,
0000
1100
0000
0000
0011
0000
0000
0101
,
0000
0000
1010
0000
0000
1001
0000
0000
,
0001
0000
1000
0000
0100
1000
0100
0000
,
1000
0000
0010
0000
0100
0001
0100
0000
,
0220
0000
0000
0000
,
0330
0000
0000
0000
;

//---------------dance-single - ----------------
#NOTES:
     dance-single:
     :
     Beginner:
     3:
     0.157,0.305,0.149,0.000,0.000: // measure 1
0001
0000
0000
1000
,  // measure 2
0000
0000
0001
0000
,  // measure 3
1000
0100
0000
0000
,  // measure 4
0000
0000
0000
0000
,  // measure 5
0010
0000
0000
0000
0000
0000
0000
1000
,  // measure 6
0000
0000
0000
0000
,  // measure 7
0001
0000
0000
0000
0000
0000
0000
1000
,  // measure 8
0000
0000
0000
0000
,  // measure 9
0010
0000
0000
0000
0000
0000
0000
0100
,  // measure 10
0000
0000
0000
0000
,  // measure 11
0100
0000
0000
0000
0000
0000
0000
0010
,  // measure 12
0000
0000
0000
0000
,  // measure 13
1000
0000
0000
0000
,  // measure 14
0001
0000
0000
0000
,  // measure 15
0100
0000
0000
0000
,  // measure 16
0001
0000
1000
0000
,  // measure 17
0010
0000
0000
0000
,  // measure 18
0100
0000
0000
0000
,  // measure 19
0010
0000
0000
0000
,  // measure 20
1000
0000
0000
0000
,  // measure 21
1001
0000
0000
0000
,  // measure 22
0000
0010
0000
0100
,  // measure 23
0100
0000
0000
0000
,  // measure 24
0000
0010
1000
0001
,  // measure 25
1000
0000
0000
0000
,  // measure 26
0000
0001
0000
1000
,  // measure 27
1000
0000
0000
0000
,  // measure 28
0001
0000
0100
0000
,  // measure 29
0110
0000
0000
0000
,  // measure 30
0010
0000
0000
0000
,  // measure 31
1000
0000
0000
0000
,  // measure 32
0001
0001
1000
1000
,  // measure 33
0010
0000
0000
0000
,  // measure 34
0100
0000
0000
0000
,  // measure 35
0001
0000
1000
0000
,  // measure 36
0100
0100
0100
0000
,  // measure 37
1000
0000
0000
0001
,  // measure 38
0000
0000
0100
0000
,  // measure 39
0000
0010
0000
0000
,  // measure 40
1000
0000
0000
0100
,  // measure 41
0100
0000
0000
0010
,  // measure 42
0000
0000
0001
0000
,  // measure 43
0000
1000
0000
0000
,  // measure 44
0010
0000
0000
0100
,  // measure 45
0100
0000
0000
0001
,  // measure 46
0000
0000
0000
1000
,  // measure 47
0000
0000
0000
0000
,  // measure 48
0100
0000
0000
0000
,  // measure 49
1000
0000
0000
0010
,  // measure 50
0000
0000
0100
0000
,  // measure 51
0000
0010
0000
0000
,  // measure 52
1000
0000
0000
1000
0000
0000
1000
0000
,  // measure 53
0001
0000
0000
0000
,  // measure 54
1000
0000
0000
0000
,  // measure 55
0010
0000
0100
0100
,  // measure 56
0100
0010
1000
0001
,  // measure 57
1000
0000
0000
0000
0000
0000
0000
0001
,  // measure 58
0000
0000
0100
0100
,  // measure 59
0010
0000
0000
0000
0000
0000
0000
1000
,  // measure 60
0000
0000
0100
0100
,  // measure 61
1000
0000
0000
0000
0000
0000
0000
0001
,  // measure 62
0000
0000
0100
0100
,  // measure 63
0100
0000
0000
0000
0000
0000
0000
0010
,  // measure 64
0000
0000
0100
0100
,  // measure 65
1001
0000
0000
0110
,  // measure 66
0000
0000
1001
0000
,  // measure 67
0000
1001
0000
0000
,  // measure 68
0110
0000
0000
0110
,  // measure 69
1001
0000
1001
0000
,  // measure 70
1001
0000
1001
0000
,  // measure 71
0110
0000
0110
0000
,  // measure 72
0110
0000
0110
0000
,  // measure 73
1001
0000
0000
0000
,  // measure 74
0010
0000
0100
0000
,  // measure 75
1001
0000
0000
0000
;
