#TITLE:Run Away;
#SUBTITLE:(Moldova);
#ARTIST:Sunstroke Project & Olia Tira;
#TITLETRANSLIT:;
#SUBTITLETRANSLIT:;
#ARTISTTRANSLIT:;
#CREDIT:;
#BANNER:bn.png;
#BACKGROUND:bg.png;
#LYRICSPATH:;
#CDTITLE:;
#MUSIC:Run Away (Moldova).mp3;
#OFFSET:-0.072;
#SAMPLESTART:79.900;
#SAMPLELENGTH:12.000;
#SELECTABLE:YES;
#BPMS:0.000=130.000;
#STOPS:;
#BGCHANGES:;

//---------------dance-single - ----------------
#NOTES:
     dance-single:
     :
     Hard:
     7:
     0.408,0.427,0.199,0.255,0.016:
0000
0000
0000
0000
,
0000
0000
0000
0000
,
0000
0000
0000
0000
,
0000
0000
0000
0000
,
0000
0000
0000
0000
,
1001
0001
0100
0100
,
0010
1000
0100
0100
,
1000
0001
0010
0010
,
0001
0100
1000
0100
,
0000
0000
2002
0000
3003
1000
0001
0010
,
0000
0001
0100
0010
0000
0100
0100
0010
,
0000
0100
0100
0010
0000
0000
0000
0100
,
0001
1000
0100
1000
0001
0100
0001
0010
,
0000
0000
0220
0000
0330
0010
0001
0100
,
0000
0100
0010
1000
0000
0001
0001
0100
,
0000
0100
0100
0010
0000
0000
0000
0100
,
0010
1000
0001
0010
0100
1000
0001
1000
,
0020
0000
0000
0000
,
0030
0000
0000
0000
,
1002
1000
1000
1003
,
2001
0001
0001
3001
,
1002
1000
1000
1003
,
2001
0001
0001
3001
,
0120
0100
0100
0130
,
0210
0010
0010
0310
,
0120
0100
0100
0130
,
0210
0010
0010
0310
,
0100
0010
1000
0001
0001
0000
0001
1000
,
0001
0010
0000
0000
0000
0100
1000
0001
,
0010
0000
0000
0000
0000
0010
0001
0100
,
2000
0000
3000
0000
,
0100
0010
1000
0001
1000
0100
0001
0100
,
0010
0001
0000
0000
0000
0001
0100
0010
,
0100
0000
0000
0000
0000
0010
1000
0002
,
0000
0003
0000
0000
0000
0000
0000
0000
,
0001
0100
0010
0000
0100
0010
1000
0002
,
0000
0013
0000
0002
0000
0103
0101
0000
,
0001
0100
0010
1000
0100
0001
0100
0020
,
0000
0001
0000
0100
0000
0130
0110
0000
,
0100
0010
0001
0010
0100
0001
1000
0020
,
0000
1030
0000
2000
0000
3001
1001
0000
,
0001
1000
0001
0100
0001
1000
0010
2000
,
0000
0200
0000
0000
0000
0000
3300
0000
,
0000
0000
0022
0000
0033
0001
0100
0010
,
0000
0100
0010
1000
0000
0001
0001
0100
,
0000
0001
0001
0100
0000
0000
0000
0010
,
1000
0001
0010
0100
1000
0001
0010
0100
,
0010
0000
2200
0000
3300
1000
0010
0100
,
0000
0100
0001
0010
0000
0010
0010
0100
,
0000
0010
0010
0100
0000
0000
0000
0100
,
0010
0001
1000
0001
1000
0100
1000
0001
,
0100
0000
2020
0000
3030
0010
1000
0001
,
0000
0001
0010
0100
0000
1000
1000
0100
,
0000
1000
1000
0100
0000
0000
0000
0100
,
0010
0100
0001
0100
0010
0100
0001
1000
,
0010
0000
2002
0000
3003
0001
0100
1000
,
0000
1000
0100
0001
0000
0001
0001
0100
,
0000
0001
0001
0100
0000
0000
0000
0100
,
0010
0000
1000
0010
0000
0100
0001
0010
,
0110
0000
0000
0000
0010
0001
0200
0000
,
0301
0000
0000
0000
0001
1000
0020
0000
,
0130
0000
0000
0110
0000
1001
0000
1100
,
0000
0011
0000
0001
0010
0100
0010
0001
,
1001
0000
0000
0000
0000
0000
0000
0000
0001
0000
1000
0001
1000
0001
0000
0000
,
1000
0000
0000
0000
0000
0000
0000
0000
0001
0000
1000
0001
1000
0001
0000
0000
,
1000
0000
0000
0001
0000
0100
0000
1000
,
0000
0100
0000
0010
1000
0100
0010
0001
,
1001
0000
0000
0000
;

//---------------dance-single - ----------------
#NOTES:
     dance-single:
     :
     Medium:
     6:
     0.315,0.320,0.080,0.120,0.000:
0000
0000
0000
0000
,
0000
0000
0000
0000
,
0000
0000
0000
0000
,
0000
0000
0000
0000
,
0000
0000
0000
0000
,
0001
1000
0001
1000
,
0010
0100
0010
0100
,
0010
1000
0010
1000
,
0001
1000
0001
1000
,
0000
0000
0102
0000
0000
0103
0010
0100
,
0000
0010
0000
1000
0000
0010
0100
0010
,
0000
0100
0010
0100
0000
0000
0000
0010
,
1000
0000
0001
0010
0000
0001
0010
0100
,
0000
0000
0220
0000
0000
0000
0000
0330
,
0000
0010
0000
0001
0000
0001
0100
0010
,
0000
0100
0010
1000
0000
0000
0000
0001
,
0100
0000
0100
0010
0000
0010
1000
0200
,
0000
0000
0000
0000
,
0300
0000
0000
0000
,
1000
1000
1000
1000
,
0001
0001
0001
0001
,
1000
1000
1000
1000
,
0001
0001
0001
0001
,
0100
0100
0100
0100
,
0010
0010
0010
0010
,
0100
0100
0100
0100
,
0010
0010
0010
0010
,
1000
0000
0001
0000
0010
0000
0010
0001
,
0100
1000
0000
0000
0000
1000
0100
0010
,
1000
0000
0000
0000
0000
1000
0010
0100
,
0002
0000
0000
0003
,
1000
0000
0001
0000
0100
0010
1000
0100
,
0010
0001
0000
0000
0000
0001
0010
0100
,
1000
0000
0000
0000
0000
0100
1000
0010
,
0000
0000
0000
0000
,
0100
0010
0100
0000
0010
0000
1000
0001
,
0000
0010
0000
0001
0000
0100
0010
0000
,
0100
0010
1000
0000
0010
0000
0100
0010
,
0000
1000
0000
0001
0000
0010
0110
0000
,
0010
0001
0010
0000
0001
0100
1000
0100
,
0000
0010
0000
0100
0000
0010
1000
0000
,
0010
0100
0010
0000
1000
0000
0001
0020
,
0000
0200
0000
0000
0000
0000
0000
0000
,
0330
0000
2002
0000
0000
0000
0000
3003
,
0000
0001
0000
0001
0000
0001
1000
0001
,
0000
0001
1000
0001
0000
0000
0000
0001
,
0100
0000
0100
0010
0000
0010
1000
0010
,
0000
0000
0202
0000
0000
0000
0000
0303
,
0000
0001
0000
1000
0000
0010
1000
0010
,
0000
0100
0010
0100
0000
0000
0000
0010
,
1000
0000
1000
0100
0000
0100
0010
0001
,
0000
0000
0220
0000
0000
0000
0000
0330
,
0000
0010
0000
0010
0000
0010
0100
1000
,
0000
0010
0100
1000
0000
0000
0000
0100
,
1000
0000
1000
0010
0000
0010
0100
0001
,
0000
0000
2002
0000
0000
0000
0000
3003
,
0000
0001
0000
0001
0000
1000
0001
0100
,
0000
0001
1000
0100
0000
0000
0000
0100
,
0010
0000
0010
0001
0000
0001
0010
0100
,
1000
0000
0001
0100
,
0110
0000
0010
1000
,
1100
0000
0000
1000
0000
0001
0000
0100
,
0000
1000
0000
0100
0010
1000
0001
0010
,
1000
0000
0000
0000
1000
0010
0001
0010
,
0001
0000
0000
0000
0001
0010
0100
1000
,
0100
0000
0000
1000
0000
0100
0000
0010
,
0000
0001
0000
0001
0010
0100
1000
0001
,
1001
0000
0000
0000
;

//---------------dance-single - ----------------
#NOTES:
     dance-single:
     :
     Easy:
     3:
     0.227,0.267,0.151,0.143,0.004:
0000
0000
0000
0000
,
0000
0000
0000
0000
,
0000
0000
0000
0000
,
0000
0000
0000
0000
,
0000
0000
0000
0000
,
0002
0000
0000
0003
,
2000
0000
0000
3000
,
0002
0000
0000
0003
,
0200
0000
0000
0300
,
0000
0220
0000
0000
,
0330
0000
0000
0000
,
0010
0000
1000
0000
,
0001
1000
0100
1000
,
0000
0220
0000
0000
,
0330
0000
0000
0000
,
0010
0000
1000
0000
,
0001
1000
0001
0100
,
2000
0000
0000
0000
,
3000
0000
0000
0000
,
0100
0000
0010
0010
,
0010
0000
0010
0010
,
0010
0000
0010
0000
,
1000
0000
0001
0000
,
0100
0000
0100
0100
,
0100
0000
0100
0100
,
0100
0000
0100
0000
,
0010
0000
1000
0001
,
0010
0000
0001
0100
,
1000
0100
0000
0010
,
1000
0000
0000
1000
,
0002
0000
0000
0003
,
1000
0001
0100
0001
,
0010
0100
0000
0100
,
0010
0000
0000
0001
,
0100
0000
0000
0000
,
0010
1000
0010
1000
,
0010
1000
0010
1010
,
0010
0100
0010
0100
,
0001
0010
0100
1100
,
0100
0010
0001
1000
,
0001
0100
0001
0011
,
0001
0010
0100
1000
,
0100
0010
0000
0000
,
0000
2002
0000
0000
,
3003
0001
1000
0001
,
0100
0100
0010
0010
,
1000
0010
0001
0010
,
0100
2002
0000
0000
,
3003
0001
1000
0100
,
1000
0010
0100
0000
,
0010
1000
0001
0010
,
0100
0022
0000
0000
,
0033
0001
0100
1000
,
0100
0010
1000
0000
,
0001
1000
0100
1000
,
0010
0220
0000
0000
,
0330
0010
0100
0010
,
1000
0001
0010
0001
,
0010
1000
0010
0001
,
0101
0000
0001
0100
,
0110
0000
0010
1000
,
1100
0000
0100
0000
,
0010
0000
0001
1000
,
0110
0000
0010
0010
,
1001
0000
0100
0100
,
1001
0000
0110
0000
,
1001
0001
0101
0010
,
0000
1001
0000
0000
0000
0000
0000
0000
0000
0000
0000
0000
0000
0000
0000
0000
0000
0000
0000
0000
0000
0000
0000
0000
0000
0000
0000
0000
0000
0000
0000
0000
0000
0000
0000
0000
0000
0000
0000
0000
0000
0000
0000
0000
0000
0000
0000
0000
0000
0000
0000
0000
0000
0000
0000
0000
0000
0000
0000
0000
0000
0000
0000
0000
0000
0000
0000
0000
0000
0000
0000
0000
0000
0000
0000
0000
0000
0000
0000
0000
0000
0000
0000
0000
0000
0000
0000
0000
0000
0000
0000
0000
0000
0000
0000
0000
0000
0000
0000
0000
0000
0000
0000
0000
0000
0000
0000
0000
0000
0000
0000
0000
0000
0000
0000
0000
0000
0000
0000
0000
0000
0000
0000
0000
0000
0000
0000
0000
0000
0000
0000
0000
0000
0000
0000
0000
0000
0000
0000
0000
0000
0000
0000
0000
0000
0000
0000
0000
0000
0000
0000
0000
0000
0000
0000
0000
0000
0000
0000
0000
0000
0000
0000
0000
0000
0000
0000
0000
0000
0000
0000
0000
0000
0000
0000
0000
0000
0000
0000
0000
0000
0000
0000
0000
0000
0000
0000
0000
0000
0000
0000
0000
;

//---------------dance-single - ----------------
#NOTES:
     dance-single:
     :
     Beginner:
     1:
     0.087,0.133,0.024,0.000,0.000: // measure 1
0000
0000
0000
0000
,  // measure 2
0000
0000
0000
0000
,  // measure 3
0000
0000
0000
0000
,  // measure 4
0000
0000
0000
0000
,  // measure 5
0000
0000
0000
0000
,  // measure 6
1000
0000
0000
0000
,  // measure 7
1000
0000
0000
0000
,  // measure 8
0001
0000
0000
0000
,  // measure 9
0001
0000
0000
0000
,  // measure 10
0000
0100
0000
0000
,  // measure 11
0000
0000
0000
0000
,  // measure 12
0010
0000
0010
0000
,  // measure 13
0010
0000
0000
0000
,  // measure 14
0000
1001
0000
0000
,  // measure 15
1000
0000
0000
0000
,  // measure 16
0001
0000
0001
0000
,  // measure 17
0001
0000
0000
0000
,  // measure 18
0110
0000
0000
0000
,  // measure 19
0000
0000
0000
0000
,  // measure 20
0010
0000
0000
0000
,  // measure 21
0010
0000
0000
0000
,  // measure 22
0010
0000
0000
0000
,  // measure 23
0010
0000
0000
0000
,  // measure 24
0100
0000
0000
0000
,  // measure 25
0100
0000
0000
0000
,  // measure 26
0100
0000
0000
0000
,  // measure 27
0100
0000
0000
0000
,  // measure 28
0001
0000
0000
0000
,  // measure 29
1000
0000
0000
0000
,  // measure 30
0010
0000
0000
0000
,  // measure 31
0100
0000
0100
0000
,  // measure 32
0100
0000
0000
0000
,  // measure 33
0010
0000
0000
0000
,  // measure 34
1000
0000
0000
0000
,  // measure 35
0100
0000
0000
0000
,  // measure 36
1000
0000
0000
0000
,  // measure 37
0001
0000
0000
0000
,  // measure 38
0100
0000
0000
0000
,  // measure 39
0010
0000
0010
0000
,  // measure 40
0010
0000
0000
0000
,  // measure 41
1000
0000
0000
0000
,  // measure 42
0001
0000
0000
0000
,  // measure 43
0010
0000
0000
0000
,  // measure 44
0100
0100
0000
0000
,  // measure 45
0010
0000
0000
0000
,  // measure 46
0001
0000
0000
0000
,  // measure 47
1000
0000
0000
0000
,  // measure 48
0010
0010
0000
0000
,  // measure 49
0100
0000
0000
0000
,  // measure 50
0010
0000
0000
0000
,  // measure 51
1000
0000
1000
0000
,  // measure 52
1000
0001
0000
0000
,  // measure 53
0001
0000
0000
0000
,  // measure 54
0100
0000
0000
0000
,  // measure 55
0010
0000
0000
0000
,  // measure 56
0010
0100
0000
0000
,  // measure 57
0100
0000
0000
0000
,  // measure 58
0010
0000
0000
0000
,  // measure 59
1000
0000
1000
0000
,  // measure 60
1000
0000
0000
0000
,  // measure 61
0001
0000
0000
0000
,  // measure 62
0100
0000
0000
0000
,  // measure 63
0010
0000
0010
0000
,  // measure 64
0010
0000
0000
0000
,  // measure 65
1000
0000
0000
0000
,  // measure 66
0001
0000
0000
0000
,  // measure 67
0010
0000
0010
0000
,  // measure 68
1001
0000
0000
0000
;
