#TITLE:Rottel Da Station;
#SUBTITLE:;
#ARTIST:sampling masters CHANG;
#TITLETRANSLIT:;
#SUBTITLETRANSLIT:;
#ARTISTTRANSLIT:;
#CREDIT:;
#BANNER:bn.png;
#BACKGROUND:bg.png;
#LYRICSPATH:;
#CDTITLE:;
#MUSIC:Knights of the Round 8 (Gawain).mp3;
#OFFSET:-0.034;
#SAMPLESTART:9.620;
#SAMPLELENGTH:12.000;
#SELECTABLE:YES;
#BPMS:0.000=200.000,188.000=100.000,190.000=200.000,226.000=100.000,228.000=200.000,232.000=100.000,234.000=200.000,237.000=100.000,237.500=200.000,240.500=100.000,241.000=200.000,297.000=100.000,305.000=200.000;
#STOPS:;
#BGCHANGES:;

//---------------dance-single - ----------------
#NOTES:
     dance-single:
     :
     Hard:
     11:
     0.884,1.000,0.733,0.075,0.275: // measure 1
0000
0000
0000
0000
,  // measure 2
0000
0000
0000
0000
,  // measure 3
0000
0000
0000
0000
,  // measure 4
0000
0000
0000
0000
,  // measure 5
0101
0010
1000
0100
0010
0000
0000
0000
,  // measure 6
0010
1000
0001
0010
0001
0100
1000
0010
,  // measure 7
1010
0101
0001
1000
0100
0000
0000
0000
,  // measure 8
0010
1000
0001
0010
0100
1000
0002
0000
,  // measure 9
0103
0010
1000
0001
0010
1000
0010
0001
,  // measure 10
0100
0010
1000
0100
0001
0100
1000
0010
,  // measure 11
1000
0001
0010
1000
0010
0001
0100
0010
,  // measure 12
1000
0100
0001
0100
1000
0100
1000
0100
,  // measure 13
0001
0010
0001
0100
0010
1000
0001
0010
,  // measure 14
0001
0100
1000
0100
0010
1000
0010
1000
,  // measure 15
0100
1000
0001
0100
1000
0100
0001
0010
,  // measure 16
0011
1100
0101
1010
,  // measure 17
0001
0200
1000
0000
1300
0200
0001
0000
,  // measure 18
0301
0020
0100
0000
0130
2000
0001
0000
,  // measure 19
3001
0001
0100
0010
1010
0000
0010
1000
,  // measure 20
1001
0000
0001
0011
0000
0100
1001
0000
,  // measure 21
0001
0020
1000
0000
1030
0020
0001
0000
,  // measure 22
0031
0200
0010
0000
0310
2000
0001
0001
,  // measure 23
3100
1000
0100
0000
0110
0000
0010
0001
,  // measure 24
1000
0001
1000
0001
,  // measure 25
0101
1010
1100
1001
,  // measure 26
0001
0100
0010
1000
0100
0001
0100
0010
,  // measure 27
0011
0110
1100
0101
,  // measure 28
0001
0000
0100
0000
1000
0000
0100
0000
0010
0000
1000
0000
0001
0000
0010
0001
,  // measure 29
0010
1100
0101
0110
,  // measure 30
0010
0001
0010
1000
0100
1000
0001
0100
,  // measure 31
0001
0100
1000
0100
0001
0010
1000
0010
,  // measure 32
0001
0000
0001
0000
1000
0000
1000
0000
0010
0000
0010
0000
0100
0000
0010
1000
,  // measure 33
0100
1000
1100
1000
0001
0101
0000
0000
,  // measure 34
0001
0100
0110
0010
1000
1001
0001
0010
,  // measure 35
0001
0100
0110
0010
1000
1010
0000
0000
,  // measure 36
1000
0000
0010
0000
0110
0000
0010
0000
1000
0000
1001
0000
0001
1000
0001
1000
,  // measure 37
0000
1000
0010
0110
0010
1000
0000
0000
,  // measure 38
1010
1000
0010
0110
0100
0001
0010
0001
,  // measure 39
1001
1000
0010
0110
0100
0001
0000
0000
,  // measure 40
0101
0001
1000
1100
1000
0100
0010
0001
,  // measure 41
1000
1000
0001
0001
0100
0010
0110
0000
,  // measure 42
0010
0010
0100
0100
0001
1000
1100
0000
,  // measure 43
1000
1000
0010
0010
0100
0001
0101
0000
,  // measure 44
0001
0000
0100
0000
1000
0000
0100
0000
0010
0000
1000
0000
0001
0000
0010
0001
,  // measure 45
0010
0010
0010
0001
0001
0100
0100
1000
,  // measure 46
1000
0100
0100
0010
0010
1000
1000
0001
,  // measure 47
0100
0100
0100
0100
0100
0100
0100
0100
,  // measure 48
0010
0000
0000
0000
1000
0000
0000
0000
0001
0000
0000
0001
0000
0000
0000
0000
1000
0000
0000
0000
0000
0000
0000
0000
0001
0000
0000
0000
0100
0000
0000
0000
,  // measure 49
0000
0010
0000
0100
0000
0010
1000
0000
,  // measure 50
0001
0000
0000
0001
0000
0000
0001
0000
0000
1000
0000
0001
1000
0000
0000
0010
0000
0000
0100
0000
0000
0001
0000
0000
,  // measure 51
0000
0010
0010
0000
0100
1000
0001
0100
,  // measure 52
1000
0000
0010
0000
0100
0010
0001
1000
0001
0000
0000
0000
1000
0000
0100
0000
,  // measure 53
0000
0010
0000
0001
0000
0001
0001
0000
,  // measure 54
0001
0100
0010
0100
0001
0010
1000
0010
,  // measure 55
0001
0010
0100
1000
0001
1000
0001
0000
,  // measure 56
1000
0000
0001
0000
0000
0000
1000
0001
1000
0000
1100
0000
0100
0000
0010
0000
,  // measure 57
0011
0000
0001
0000
0010
0000
0110
0000
1100
0000
0000
1001
0000
0000
0010
0100
,  // measure 58
0110
0010
1000
0100
0110
0010
0001
0011
,  // measure 59
1001
0001
0000
0001
0000
0000
0100
0100
0110
0000
0000
0000
0000
0000
0101
0000
,  // measure 60
0000
0000
0000
0000
0001
0100
0110
0000
0000
0000
0000
0000
1001
0000
0000
0000
,  // measure 61
0000
0000
0001
0010
0011
0000
0000
0000
0010
0000
0100
0000
1100
0000
0000
0000
,  // measure 62
1000
0001
0101
1010
1100
0011
0101
0110
,  // measure 63
1100
0000
0000
0101
0000
0000
1001
0000
0000
0000
0001
0000
0100
0000
0000
0000
0100
0000
0010
0000
0000
0000
0010
0000
,  // measure 64
1000
0000
1000
0001
0000
0001
1000
0000
1000
0001
0000
0001
,  // measure 65
1000
0000
1000
0010
0000
0100
0001
0000
0001
0010
0000
0010
,  // measure 66
0100
0000
0100
1000
0000
1000
0010
0000
0100
0001
0000
0001
,  // measure 67
0010
0000
0001
0100
0000
0010
1000
0000
1000
0100
0000
0100
,  // measure 68
0010
0000
0010
0001
0000
0001
1000
0000
1000
0001
0000
0001
,  // measure 69
1000
0000
1000
0100
0000
0100
0010
0000
0010
0001
0000
0001
,  // measure 70
0100
0000
0010
1000
0000
1000
0100
0000
0010
0001
0000
0001
,  // measure 71
0100
0000
0000
0000
0100
0000
0010
0000
0000
0100
0000
0000
0010
0000
0000
1000
0000
0000
0001
0000
0000
0010
0000
0000
,  // measure 72
0001
1000
0010
0100
0001
0010
0100
1000
,  // measure 73
0100
1000
0010
0100
0001
0010
0001
0100
,  // measure 74
0010
1000
0100
0001
0100
1000
0010
0100
,  // measure 75
0001
0000
0000
0000
0001
0100
0010
1000
0010
0001
0010
0100
0001
0100
1000
0100
,  // measure 76
0010
0001
0100
0010
1000
0001
0010
1000
0010
0001
1000
0100
1000
0001
0100
0010
,  // measure 77
1000
0000
0000
0000
1000
0001
1000
0001
0100
0000
0000
0000
0010
0000
0000
0000
1000
0000
0000
0000
0001
0000
0000
0000
0010
0000
0000
0000
1000
0000
0000
0000
,  // measure 78
0010
0001
0100
0010
1000
0100
0001
0100
,  // measure 79
1000
0010
1000
0001
0010
1000
0010
0001
,  // measure 80
0100
0010
1000
0100
0001
0100
1000
0100
,  // measure 81
1000
0100
0001
0010
0001
0100
0010
1000
,  // measure 82
0001
0010
0001
0100
1000
0100
0010
1000
,  // measure 83
0010
1000
0100
1000
0001
0100
1000
0100
,  // measure 84
0001
0010
0100
0110
0000
1001
1001
0000
,  // measure 85
0110
0000
1001
0001
0000
0100
0100
0000
,  // measure 86
0000
0000
0010
1000
0010
0001
0010
0100
,  // measure 87
0001
0010
0011
1100
0000
1001
1001
0000
,  // measure 88
0000
0000
1000
0001
0010
1000
0010
0001
,  // measure 89
0010
0100
1100
0000
0000
1001
0000
0000
,  // measure 90
0000
0000
0001
0100
1000
0100
0010
1000
,  // measure 91
0001
0010
0011
1100
0000
0001
1001
0000
,  // measure 92
0000
0000
0001
0100
0010
1000
0001
0100
,  // measure 93
0010
1000
1010
0000
0000
0101
0000
0000
,  // measure 94
1100
0000
0000
0011
0000
0000
0110
0000
,  // measure 95
0000
1001
0000
0000
0110
0000
0000
1010
,  // measure 96
0000
0101
0000
0000
;

//---------------dance-single - ----------------
#NOTES:
     dance-single:
     :
     Medium:
     9:
     0.689,0.714,0.591,0.275,0.042:
0000
0000
0000
0000
,
0000
0000
0000
0000
,
0000
0000
0000
0000
,
0000
0000
0000
0000
,
1001
0000
0001
0100
0010
0000
0000
0000
,
0100
0010
1000
0001
0010
0100
1000
0001
,
0101
0101
0000
0010
0010
0000
0000
0000
,
0100
0010
1000
0001
0010
0100
0020
0000
,
0031
0000
0001
0010
0000
0100
1000
0000
,
1010
0000
1000
0010
0000
0010
0100
0000
,
0110
0000
0010
1000
0000
1000
0001
0000
,
0001
0010
0100
0010
0001
0100
1000
0100
,
0110
0000
0010
1000
0000
1000
0001
0000
,
0011
0000
0001
0010
0000
0010
0100
0000
,
1100
0000
1000
0010
0000
0010
0100
0000
,
0001
0100
1000
0100
0001
0010
1000
0010
,
0001
0100
0010
0000
0100
0010
1000
0000
,
1000
0001
0010
0000
0010
0100
1000
0000
,
0100
1000
0110
0010
,
1000
0001
0010
0001
,
0001
0100
0010
0000
0010
1000
0100
0000
,
0100
0001
0100
0000
0100
0010
0001
0000
,
0001
0000
0100
0000
0110
0000
0010
1000
,
0001
1000
0001
1000
,
1001
0110
1010
0101
,
0001
0100
0101
0000
0110
0000
1001
0000
,
1100
0011
0110
1001
,
0001
0100
0010
1000
0100
0010
0100
1000
,
1100
0110
0011
0110
,
0010
0100
0010
0000
0010
0100
0010
0000
,
0110
0011
0110
1010
,
0001
1000
0001
1000
0001
1000
0001
0000
,
0001
0000
0001
0200
0000
0010
0000
0310
,
0000
0000
0010
2000
0000
0100
0000
3100
,
0000
0000
1000
0200
0000
0010
0000
0310
,
0000
0000
0010
0100
1000
0010
0100
0001
,
1000
0100
0100
1000
0100
0100
1000
0000
,
0010
0100
0100
0010
0100
0100
0100
0000
,
0100
0001
0001
0100
0001
0001
0001
0000
,
0001
0100
0010
1000
0100
0010
0100
1000
,
0001
0000
0001
0200
0000
0310
0000
1001
,
0000
0000
0001
2000
0000
3100
0000
0011
,
0000
0000
0001
0200
0000
0310
0000
1001
,
0000
0000
0001
0100
0010
1000
0001
0010
,
0100
0000
0100
1000
1020
0000
0130
0000
,
0010
0000
0010
1000
1002
0000
0013
0000
,
0001
1000
0001
1000
0001
1000
0001
1000
,
0001
0000
0000
0000
0100
0000
0001
0010
,
0000
0100
0000
0010
0000
0001
0100
0000
,
0010
1000
0000
0001
1000
0010
1000
0001
,
0010
0100
1000
0000
0001
0100
1000
0000
,
1000
0100
0010
0000
0100
0000
0010
1000
,
0000
0001
0000
1000
0000
0001
0100
0000
,
0010
0100
0010
1000
0100
1000
0100
1000
,
0100
0000
0010
0001
0010
0100
0100
0000
,
0100
0100
0000
0110
0000
0011
0000
0000
,
1001
0000
0000
0000
0000
0000
0100
0000
2002
0000
0000
0000
3003
0000
1000
0100
,
0010
0001
0000
0000
0010
0000
0001
0100
,
0220
0000
0000
0000
0330
0000
0100
0010
2020
0000
0000
0000
0000
0000
0000
0000
,
3030
0000
0000
0000
0001
1000
2200
0000
0000
0000
0000
0000
0000
0000
0000
0000
,
3300
0000
1000
0100
0010
0000
0000
0000
0010
0000
0001
0000
1000
0000
0000
0000
,
1000
0100
0010
0001
0010
0100
0010
0001
,
0010
0100
0210
0000
0310
0000
0012
0000
,
0103
2001
3100
2010
,
3010
2010
3010
1002
,
0013
0012
0100
0010
,
0103
0201
0310
2010
,
3100
2100
3001
0201
,
0310
0120
1000
0100
,
0031
0021
0100
1000
,
0100
0000
1030
0010
0100
0001
1000
0010
,
0001
0010
0100
1000
0010
0100
0010
0100
,
0010
0000
0010
1000
0001
0010
0100
0010
,
0001
0010
0100
0010
1000
0001
0100
0000
,
0000
0000
0000
0000
0000
0000
0100
0010
1000
0001
0010
0100
1000
0000
0000
0000
,
0000
0000
0000
0000
0000
0000
1000
0100
0010
0100
0010
1000
0020
0000
0000
0000
,
0000
0030
0100
0000
0010
0001
0000
0010
,
0000
1001
0000
0000
0010
1000
0000
0001
,
0000
0011
0000
0000
0001
0010
0000
0100
,
0000
0110
0000
0000
0011
0000
0011
0000
,
0011
0000
0001
0000
0001
0100
0000
0010
,
0000
1001
0000
0000
0001
0100
0000
0010
,
0000
0100
0010
0100
0010
1000
0010
1000
,
0010
1000
0010
0010
0000
0010
0010
0000
,
0100
0000
0110
0110
0000
0000
0000
0000
,
0000
0000
0010
1000
0001
0010
0100
1000
,
0100
1000
1100
1100
0000
0000
0000
0000
,
0000
0000
1000
0001
0100
0010
1000
0100
,
0010
0001
0011
0000
0000
0000
0000
0000
,
0000
0000
0001
0100
0010
1000
0001
0010
,
0100
1000
1100
1100
0000
0011
0011
0000
,
0001
0000
0001
0100
1000
0100
0010
1000
,
0001
2000
0002
0000
0000
0000
0000
0000
,
0000
0000
0000
0000
,
0000
0000
0000
0000
,
0000
3003
0110
0000
0000
0000
0000
0000
;

//---------------dance-single - ----------------
#NOTES:
     dance-single:
     :
     Easy:
     7:
     0.496,0.576,0.500,0.083,0.000:
0000
0000
0000
0000
,
0000
0000
0000
0000
,
0000
0000
0000
0000
,
0000
0000
0000
0000
,
1001
0000
0000
0000
,
0010
1000
0010
0100
,
0110
0000
0000
0000
,
0010
1000
0001
1000
,
0001
0000
0101
0000
0000
1100
0000
0000
,
0000
0000
1010
0000
0000
0101
0000
0000
,
0000
0000
0110
0000
0000
1001
0000
0000
,
0000
0000
0001
0000
0100
0010
0100
0010
,
0100
0000
1010
0000
0000
0101
0000
0000
,
0000
0000
1001
0000
0000
0011
0000
0000
,
0000
0000
1001
0000
0000
0101
0000
0000
,
0001
0100
0010
1000
,
0010
0100
0010
0000
0100
0010
0100
0000
,
0010
0100
0010
0000
0100
0010
0100
0000
,
0010
1000
0001
0010
,
0100
0010
0001
1000
,
0001
0100
0001
0000
0100
0001
0100
0000
,
0001
0100
0001
0000
0100
0001
0100
0000
,
0001
0100
0110
0010
,
2002
0000
0000
3003
,
0000
0000
0000
0000
0001
0100
0010
1000
,
0200
0000
0000
0300
,
0000
0000
1000
0100
0010
0100
1000
0010
,
0200
0000
0000
0300
,
0000
0000
0010
1000
0001
0010
0100
0010
,
0002
0000
0000
0003
,
0000
0000
0001
0100
0010
1000
0001
1000
,
0002
0000
0000
0003
,
0000
0000
1001
0000
0000
0110
0000
0000
,
0000
0000
1001
0000
0000
0110
0000
0000
,
0000
0000
0110
0000
0000
1001
0000
0000
,
0000
0101
1100
0101
,
0000
0000
1001
0000
0000
1001
0000
0000
,
0000
0000
0110
0000
0000
0110
0000
0000
,
0000
0000
1001
0000
0000
1001
0000
0000
,
0001
0100
0010
1000
,
0010
1000
0010
1000
0010
1000
0010
0000
,
1000
0001
1000
0001
1000
0001
1000
0000
,
0001
0100
0001
0100
0001
0100
0001
0000
,
0001
0010
0100
1000
0100
0010
0001
0000
,
0001
1000
0010
1000
0001
1000
0010
0000
,
0001
1000
0010
1000
0001
1000
0010
0000
,
0100
0010
0100
0010
0100
0010
0100
0010
,
0100
0000
0000
0000
0010
0000
1000
0010
,
0000
0100
0000
0010
0000
1000
0001
0000
,
1000
0000
0000
0000
0001
0100
0000
0001
,
0000
0100
0010
0000
0100
0000
0000
0000
,
0010
0000
0000
0000
0100
0000
0010
1000
,
0000
0001
0000
1000
0000
0001
1000
0000
,
0001
1000
0000
0001
1000
0001
0000
0001
,
1000
0001
0000
0001
0100
0000
0010
0000
,
0100
0010
1000
0001
,
1000
0100
1100
0000
,
1000
0001
0100
0010
,
1001
0000
0000
0001
0101
0000
0000
0000
,
0000
0000
0010
1001
0000
0000
0000
0000
,
0000
0010
1001
0000
0010
0000
1001
0000
,
0010
1001
0110
1001
,
0110
0001
0100
1000
,
0100
0001
0100
1000
,
0100
0001
0100
1000
,
0100
1000
0100
1000
,
0100
0010
0001
0010
,
1000
0010
0001
0010
,
1000
0010
0010
0010
,
0010
0110
1001
0110
,
1001
0000
0001
0000
0000
0000
0001
0100
,
0010
1000
0200
0000
0000
0000
0000
0000
,
0300
0000
0000
0000
0100
0010
0100
1000
,
0010
0200
0000
0000
,
0300
0000
0000
0010
1000
0001
0020
0000
,
0000
0030
0000
0100
1000
0010
0200
0000
,
0000
0300
0010
0000
1001
0000
0000
0101
,
0000
0000
0000
0000
0011
0000
0000
1100
,
0000
0000
0000
0000
1001
0000
0000
0110
,
0000
0000
0101
1010
,
0101
0000
0000
0000
1001
0000
0000
0110
,
0000
0000
0000
0000
1010
0000
0000
0101
,
0000
0001
0100
0010
,
1000
0000
0001
1000
0001
1000
0001
1000
,
0001
0000
0101
0000
0000
0001
0100
0000
,
0000
0000
0010
1000
0010
1000
0010
0100
,
0010
0100
0010
0010
0000
0100
0100
0000
,
0000
0000
0010
1000
0001
0010
0100
1000
,
0100
1000
0000
0000
1000
0100
0010
0000
,
0000
0000
0010
0100
1000
0010
0100
0001
,
0010
0100
1000
1000
0000
0100
0100
0000
,
0000
0000
1000
0100
0010
0001
0010
0100
,
1000
1001
0000
0000
;

//---------------dance-single - ----------------
#NOTES:
     dance-single:
     :
     Beginner:
     4:
     0.225,0.461,0.208,0.017,0.000:
0000
0000
0000
0000
,
0000
0000
0000
0000
,
0000
0000
0000
0000
,
0000
0000
0000
0000
,
1001
0000
0000
0000
,
0010
0000
0010
0000
,
1001
0000
0000
0000
,
0010
0000
0010
0100
,
1001
0000
0000
0000
,
0001
0000
0000
0000
,
0100
0000
0000
0000
,
0010
0000
0100
0000
,
1001
0000
0000
0000
,
1000
0000
0000
0000
,
0001
0000
0000
0000
,
0100
0000
0010
0000
,
1000
1000
1000
0000
,
0001
0001
0001
0000
,
0100
0000
0010
0000
,
1001
0000
0110
0000
,
0100
0010
0100
0000
,
0001
1000
0001
0000
,
1000
0000
0010
0000
,
1001
0000
0000
0000
,
0000
0000
0010
1000
,
0010
0000
0000
0000
,
0000
0100
0100
0010
,
1000
0000
0000
0000
,
0001
0000
1000
0000
,
0010
1000
0010
0000
,
0100
0000
0001
0000
,
1001
0000
0000
0000
,
1000
1000
1000
0000
,
0001
0001
0001
0000
,
0100
0100
0100
0000
,
0010
0000
0100
0000
,
0010
0000
0000
0000
,
0000
0000
0000
0000
,
0000
0000
0000
0000
,
0100
0000
0010
0000
,
1000
0001
0100
0000
,
0001
1000
0010
0000
,
1000
0001
0100
0000
,
0001
1000
0010
0100
,
0001
1000
0001
0000
,
0001
1000
0100
0000
,
0010
0010
0010
0010
,
0010
0000
0100
0000
,
0000
0000
0010
0000
,
0000
0000
0001
0000
,
0001
0000
1000
0000
,
0010
0000
1000
0000
,
0000
0000
0010
0000
,
0000
0000
0100
0000
,
0100
0000
0110
0000
,
0000
0000
1001
0000
,
0000
0000
0010
0000
,
1001
0000
0000
0000
,
0100
0000
1001
0000
,
0000
0000
0000
1001
0000
0000
0000
0000
,
0000
1001
0000
1001
,
0000
1001
0110
1001
,
0110
0010
0000
0000
,
0000
0100
0000
0000
,
0000
0010
0000
0010
,
0000
0100
0100
0100
,
0000
0001
0000
0000
,
0000
1000
0000
0000
,
0000
1000
0000
0001
,
0000
0100
0100
0100
,
0000
0000
0000
0010
,
0010
0020
0000
0000
,
0030
0000
0100
0010
,
0100
0200
0000
0000
,
0300
0000
0000
0000
,
0000
0000
0000
0000
,
0000
1000
0001
0100
,
0000
0001
1000
0100
,
0000
1000
0001
0100
,
0000
0010
0000
0100
,
0000
0010
0010
0010
,
0000
0100
0100
0100
,
0000
0001
0000
1000
,
0000
1001
0000
0000
,
0000
0110
0000
0000
,
0000
0100
0000
0000
,
0000
1001
0000
0000
,
0000
0010
0000
0000
,
0000
1001
0000
0000
,
0000
0100
0000
0000
,
0000
1001
0000
0000
,
0000
0010
0000
0000
,
0000
1001
0000
0000
;
