#TITLE:Rondo Alla Turca (Ryu☆ Remix);
#SUBTITLE:;
#ARTIST:Ryu☆;
#TITLETRANSLIT:;
#SUBTITLETRANSLIT:;
#ARTISTTRANSLIT:;
#CREDIT:;
#BANNER:bn.png;
#BACKGROUND:bg.png;
#LYRICSPATH:;
#CDTITLE:;
#MUSIC:Rondo Alla Turca (Ryu Remix).mp3;
#OFFSET:-0.058;
#SAMPLESTART:14.820;
#SAMPLELENGTH:12.000;
#SELECTABLE:YES;
#BPMS:0.000=142.000;
#STOPS:;
#BGCHANGES:;

//---------------dance-single - ----------------
#NOTES:
     dance-single:
     :
     Hard:
     8:
     0.438,0.491,0.278,0.015,0.000:
0000
0000
0000
0000
,
0000
0000
0000
0000
,
0000
0000
0000
0000
,
0000
0000
0000
0000
,
0000
0000
0000
0000
,
0000
0000
0000
0000
,
0000
0000
0000
0000
,
0000
0000
0000
0000
,
1001
0000
0000
0000
0000
0000
0001
0100
,
0001
0000
0100
0001
0100
0000
0001
0100
,
0001
0100
0001
0100
0001
0000
0001
0010
,
0100
0010
0001
0010
0100
0010
0001
0100
,
0010
1000
0010
0100
0001
0000
0100
0010
,
0100
0000
0010
0100
0010
0000
0100
0010
,
0100
0010
0100
0010
0100
0000
0100
1000
,
0001
0010
0001
1000
0010
1000
0001
0010
,
0001
0010
0100
1000
0100
0000
1000
0000
,
0100
0000
0010
0001
0100
0000
0010
0000
,
1000
0000
1000
0001
0010
0000
0100
0000
,
1000
0000
0100
0010
0001
0000
0010
0000
,
0001
0000
0001
0100
0010
0000
1000
0010
,
1000
0000
0010
1000
0010
0000
1000
0010
,
1000
0010
1000
0010
1000
0000
1000
0001
,
0010
0001
0100
0001
0010
0001
1000
0100
,
1000
0000
0010
0000
0100
0000
0010
1000
,
0010
0000
1000
0010
1000
0000
0010
1000
,
0010
0000
0100
0000
0001
0000
0010
0100
,
0010
0000
0100
0010
0100
0000
0100
0010
,
0001
1000
0001
0100
0001
0000
0001
0000
,
1001
0000
0001
0100
0010
0000
0001
0100
,
0010
0000
0100
0000
0010
0000
1000
0100
,
1000
0000
0100
1000
0100
0000
1000
0001
,
0100
0010
1000
0000
,
0001
0001
0001
0001
,
1000
1000
1000
0110
,
0100
0100
0100
0100
,
0010
0010
0010
1001
,
0001
0100
0010
1010
,
0010
1000
0100
0110
,
0010
0011
0001
0101
,
1001
0101
0110
1001
,
1000
0100
0010
0000
0010
0100
1000
0000
,
0100
1000
0010
0100
0001
0010
0001
0000
,
0001
0100
0010
0000
0100
0010
1000
0000
,
0001
1000
0100
0010
0001
0100
0001
0000
,
0001
0100
0010
0000
0100
0010
1000
0000
,
0100
1000
0010
0100
0001
0010
0100
0000
,
0010
0001
0100
0000
0010
1000
0001
0000
,
0001
0010
0001
0100
0020
0000
0030
0000
,
1000
0001
1000
0000
0001
0100
0001
0000
,
0100
0010
1000
0001
0010
1000
0010
0000
,
0010
0001
0100
0000
0100
0010
1000
0000
,
1000
0001
0010
0001
0100
1000
0100
0000
,
0100
0010
1000
0000
1000
0001
0010
0000
,
0001
1000
0100
1000
0001
0100
0010
0000
,
0100
0010
1000
0000
1000
0001
0010
0000
,
0001
0010
0100
1000
0100
0000
0000
0000
,
1001
0000
0001
0000
,
1000
0001
0100
0010
,
1010
0000
0010
0000
,
0110
0110
0110
0000
,
1001
0000
0001
0000
,
1001
0000
1000
0000
,
1100
0100
0110
0010
,
0011
0110
1100
0000
,
1001
0110
1001
0000
,
0101
1010
0101
0000
,
0011
1100
0011
0000
,
0101
0000
1010
0000
1001
0000
0001
1000
,
0001
0000
0001
0100
0001
0000
0001
0100
,
0010
0100
0010
0100
0010
1000
0010
0100
,
0010
0000
1000
0010
1000
0000
0010
1000
,
0010
0100
0001
0010
0100
0000
0100
0010
,
0001
0000
0001
0010
0001
0000
0100
0010
,
1000
0010
1000
0010
0001
0010
0100
0010
,
0110
0000
0010
1000
0010
1000
0010
0100
,
0010
1000
0100
0010
0002
0000
0003
0000
,
0100
0000
0000
0000
;

//---------------dance-single - ----------------
#NOTES:
     dance-single:
     :
     Challenge:
     9:
     0.569,0.664,0.158,0.045,0.158:
0000
0000
0000
0000
,
0000
0000
0000
0000
,
0000
0000
0000
0000
,
0000
0000
0000
0000
,
0000
0000
0000
0000
,
0000
0000
0000
0000
,
0000
0000
0000
0000
,
0000
0000
0000
0000
,
1001
0000
0000
0000
0000
0000
0000
0000
0000
0000
0000
0000
0001
0100
0001
0100
,
0001
0000
0000
0000
0100
0001
0100
0001
0100
0000
0000
0000
0001
0100
0001
0100
,
0001
0100
0001
0100
0001
0100
0001
0100
0001
0000
0000
0000
0001
0000
0100
0000
,
0110
0010
1000
0100
0110
0010
0001
0010
,
0110
0000
0010
0000
0001
0000
0100
0000
0020
0000
0000
0000
1030
0010
1000
0010
,
1000
0000
0000
0000
1000
0010
1000
0010
1000
0000
0000
0000
1000
0010
1000
0010
,
1000
0010
1000
0010
1000
0010
1000
0010
1000
0000
0000
0000
1000
0000
0001
0000
,
0011
0001
0100
0010
0110
0010
1000
0100
,
0110
0010
0001
0010
0200
0000
0310
0001
,
0100
0000
0010
0000
0100
0010
0100
0010
0100
0000
0000
0000
0010
0000
1000
0000
,
0001
0000
0010
0000
0100
1000
0100
1000
0100
0000
0000
0000
1000
0000
0001
0000
,
0010
0000
0001
0000
0100
0001
0100
0001
0100
0000
0000
0000
0001
0000
0100
0000
,
0010
0000
1000
0000
0100
1000
0100
1000
0100
0000
0000
0000
1000
0001
1000
0001
,
1000
0000
0000
0000
1000
0001
1000
0001
1000
0000
0000
0000
1000
0001
1000
0001
,
1000
0001
1000
0001
1000
0001
1000
0001
1000
0000
0000
0000
0001
0000
0010
0000
,
0100
0010
0001
0100
1000
0100
0010
1000
,
1100
0000
0110
0000
0011
0000
0001
0100
,
1000
0000
0001
0100
1000
0100
1000
0100
,
0001
0100
1000
0100
0001
0100
1000
0100
,
0001
0000
0001
0100
1000
0100
1000
0100
,
0001
0100
1000
0100
0020
0000
0130
0100
,
0010
0000
0010
1000
0010
0001
0010
1000
,
0010
0001
0010
0001
0010
0001
0010
0001
,
0010
0000
0010
1000
0010
0001
0010
1000
,
0010
0001
0010
1000
0200
0000
0310
0000
,
0100
0010
0001
0100
,
0010
1000
0100
0011
,
0100
0010
0001
0100
,
0010
0000
1000
0000
0001
1000
1001
0000
,
0001
0000
0100
0000
0010
1000
1010
0000
,
0010
0000
1000
0000
0100
1000
1100
0000
,
1000
0100
0110
0000
0010
0001
0011
0000
,
0001
0000
0001
0100
0000
0100
0010
0000
1000
0000
0001
0000
0011
0000
0000
0000
,
0001
1000
0100
1000
0001
0100
0001
0010
,
0001
0100
0010
1000
0100
0100
1000
0000
,
1000
0001
0010
0001
0100
0001
1000
0100
,
1000
0100
0010
0001
0010
0000
0001
0010
,
0100
0010
0001
0100
0001
0100
0010
1000
,
0100
0010
0100
1000
0100
0001
0100
0001
,
0100
0010
0001
0100
0010
1000
0001
0010
,
0001
0100
0010
1000
0100
0000
0100
1000
,
1000
0001
0010
0001
1000
0010
1000
0100
,
1000
0010
0100
0001
0010
0010
0001
0000
,
0001
1000
0100
1000
0010
1000
0001
0010
,
0001
0010
0100
1000
0100
0000
1000
0100
,
0010
0100
1000
0010
1000
0010
0100
0001
,
0010
0100
0010
0001
0010
1000
0010
1000
,
0010
0100
1000
0010
0100
0001
1000
0100
,
1000
0010
0100
0001
0010
0000
0010
0100
,
1000
0000
1000
0100
0010
0001
0010
0100
,
1000
0100
0010
0001
0010
0100
1000
0100
,
1000
0000
1000
0100
0010
0100
1000
0001
,
0100
0001
0010
0100
1000
0000
1000
0001
,
0100
0000
0100
0001
0010
0001
0100
0010
,
1000
0100
0010
0001
1000
0100
0010
0001
,
0010
0000
0001
0010
0100
0010
1000
0001
,
1000
0100
0010
0001
1000
0000
0000
0000
,
1000
0100
0010
0001
1000
0000
0000
0000
,
1000
0100
0010
0001
1000
0000
0000
0000
,
1000
0100
0010
0001
1000
0000
0000
0000
,
1001
0000
0000
0101
0000
0001
0100
0000
0110
0000
0000
0000
0000
0000
0000
0000
,
1010
0000
0010
1000
0001
0010
0001
0100
,
1000
0100
0010
1000
0001
0010
0100
0010
,
0001
0000
0010
0001
0100
1000
0100
0010
,
1000
0001
0010
0100
2000
0000
3001
0100
,
0001
0000
0001
0100
0010
1000
0100
0001
,
0100
0010
0001
0100
1000
0100
0010
1000
,
0001
0000
0010
0001
0100
0010
1000
0100
,
0010
0100
1000
0001
0020
0000
0000
0000
,
0130
0000
0000
0000
;

//---------------dance-single - ----------------
#NOTES:
     dance-single:
     :
     Medium:
     6:
     0.373,0.433,0.488,0.000,0.000:
0000
0000
0000
0000
,
0000
0000
0000
0000
,
0000
0000
0000
0000
,
0000
0000
0000
0000
,
0000
0000
0000
0000
,
0000
0000
0000
0000
,
0000
0000
0000
0000
,
0000
0000
0000
0000
,
1001
0000
0000
1000
,
1000
0001
0001
1000
,
1000
1000
1000
0010
,
0110
0010
0110
0010
,
0110
0110
0110
0010
,
1001
0010
1001
0010
,
1001
0101
1001
0001
,
0101
0010
0101
0010
,
0101
1100
1001
0000
,
0001
0100
0110
0000
,
0010
1000
1100
0000
,
1000
0010
0110
0000
,
0010
1000
1001
0001
,
0001
1000
1000
0001
,
0001
1000
1000
0010
,
0100
0001
0010
0100
,
1100
0000
0110
0000
0011
0000
0001
1000
,
0001
0000
1000
0001
1000
0000
0001
1000
,
0001
0000
0001
0000
0001
0000
0001
0100
,
0010
0000
0010
0100
0010
0000
0010
0100
,
0010
0000
0010
0000
0010
0000
0010
1000
,
1001
0000
1000
0001
1000
0000
1000
0001
,
1000
0000
0001
0000
0100
0000
0001
0010
,
0001
0000
0001
0010
0001
0000
0010
0000
,
0011
1100
1001
0000
,
0001
0100
0001
1000
,
0100
1000
0010
0110
,
0010
1000
0010
0100
,
0001
0000
0010
0000
0100
1000
1100
0000
,
1000
0001
0100
0101
,
0001
1000
0100
1100
,
0110
0010
0011
0010
,
0110
1001
0110
0000
,
0001
0100
0010
1000
,
0010
0000
0100
0000
0001
1000
0001
0000
,
0100
0010
1000
0100
,
0010
0100
0010
0100
0010
0000
0010
0001
,
0010
0001
0100
1000
,
0100
0000
0010
0000
0100
0010
1000
0000
,
0001
1000
0100
1000
,
0010
1000
0010
1000
0010
0000
0100
0000
,
0010
0100
0010
1000
,
0001
0000
0010
0000
0100
1000
0010
0000
,
0100
0001
0100
0010
,
0100
0010
1000
0001
0010
0000
0010
0100
,
1000
0100
1000
0010
,
0100
0000
0001
0000
0010
0100
1000
0100
,
1000
0100
0010
0001
,
0010
0000
0100
0000
1000
0000
0001
1000
,
0001
0000
0001
0000
,
1000
0001
0100
0010
,
1000
0000
1000
0000
,
1010
0101
1001
0000
,
1001
0000
0001
0000
,
1001
0000
1000
0000
,
1001
0000
0110
0000
,
0101
0101
0101
0000
,
1100
1100
1100
0000
,
0011
0011
0011
0000
,
1010
1010
1010
0000
,
1001
0000
1001
0000
1001
0000
0001
1000
,
1001
0001
0100
0010
,
0100
0010
1000
0100
,
0110
0010
0001
0010
,
0110
0000
1001
0000
0110
0000
0010
0001
,
0010
0001
0100
1000
,
0100
0010
1000
0001
,
0011
0001
0100
1000
,
0100
0010
1000
0001
0010
0000
0000
0000
,
1001
0000
0000
0000
;

//---------------dance-single - ----------------
#NOTES:
     dance-single:
     :
     Easy:
     4:
     0.265,0.347,0.188,0.000,0.000:
0000
0000
0000
0000
,
0000
0000
0000
0000
,
0000
0000
0000
0000
,
0000
0000
0000
0000
,
0000
0000
0000
0000
,
0000
0000
0000
0000
,
0000
0000
0000
0000
,
0000
0000
0000
0000
,
1001
0000
0000
0000
,
0001
1000
0001
1000
,
0001
0001
0001
1000
,
0001
0100
0010
1000
,
0010
0010
0010
0100
,
0110
0010
1000
0010
,
1000
0010
1000
0001
,
0100
0010
1000
0001
,
0010
0010
0010
0000
,
0010
0001
0100
0000
,
0001
0010
0100
0000
,
0100
0010
0001
0000
,
1000
0010
0100
0010
,
1000
0010
1000
0010
,
1000
1000
1000
0001
,
0010
0001
0100
1000
,
0100
0010
0100
0000
,
0010
0000
1000
0000
,
0001
1000
0100
1000
,
0010
0000
0100
0000
,
0100
0010
1000
0001
,
1000
0000
0001
0000
,
0010
0001
0100
0010
,
1000
0000
1000
0000
,
1000
1000
1000
0000
,
0001
0000
1000
0000
,
0010
0000
0100
0110
,
0010
0000
0100
0000
,
0001
0000
1000
1001
,
0001
0000
0000
1000
,
1100
0000
0000
0001
,
0101
0000
0110
0000
,
1001
0110
1001
0000
,
0001
1000
0100
1000
,
0001
0100
0001
1000
,
0100
1000
0001
0100
,
0001
0001
0001
1000
,
0001
1000
0100
1000
,
0001
0100
0001
1000
,
0100
1000
0001
0100
,
0001
0001
0001
0000
,
1000
0001
0010
0001
,
1000
0010
1000
0001
,
0010
0001
1000
0010
,
1000
1000
1000
0001
,
1000
0010
1000
0010
,
1000
0001
0010
1000
,
0010
0010
0100
0100
,
0010
1000
0001
1000
,
1100
0000
0000
0000
,
0000
0000
0000
0000
,
0110
0000
0000
0000
,
1001
1001
1001
0000
,
0110
0000
0000
0000
,
0010
0000
0000
0000
,
0101
0000
0001
0000
,
1000
1000
1000
0000
,
1000
1000
1000
0000
,
1000
1000
1000
0000
,
1000
1000
1000
0000
,
1000
1000
1000
0001
,
0101
0001
0100
0010
,
1000
0100
1000
0010
,
0100
0010
1000
0001
,
0010
0010
0010
0001
,
0011
0001
0100
0010
,
1000
1000
0001
0001
,
1001
0001
0110
0010
,
1010
0101
0011
0000
,
1001
0000
0000
0000
;

//---------------dance-single - ----------------
#NOTES:
     dance-single:
     :
     Beginner:
     1:
     0.103,0.201,0.000,0.000,0.000: // measure 1
0000
0000
0000
0000
,  // measure 2
0000
0000
0000
0000
,  // measure 3
0000
0000
0000
0000
,  // measure 4
0000
0000
0000
0000
,  // measure 5
0000
0000
0000
0000
,  // measure 6
0000
0000
0000
0000
,  // measure 7
0000
0000
0000
0000
,  // measure 8
0000
0000
0000
0000
,  // measure 9
0000
0000
0000
0000
,  // measure 10
1000
0000
0000
0000
,  // measure 11
0001
0000
0000
0000
,  // measure 12
1000
0000
0000
0000
,  // measure 13
0001
0000
0000
0000
,  // measure 14
0100
0000
0000
0000
,  // measure 15
0100
0000
0000
0000
,  // measure 16
0010
0000
0010
0000
,  // measure 17
0010
0000
0000
0000
,  // measure 18
1000
0000
0000
0000
,  // measure 19
0001
0000
0000
0000
,  // measure 20
1000
0000
0000
0000
,  // measure 21
0010
0000
0000
0000
,  // measure 22
0100
0000
0000
0000
,  // measure 23
0100
0000
0000
0000
,  // measure 24
0010
0000
0010
0000
,  // measure 25
0010
0010
0010
0000
,  // measure 26
1000
0000
0000
0000
,  // measure 27
1000
0000
0000
0000
,  // measure 28
0001
0000
0000
0000
,  // measure 29
0001
0000
0001
0000
,  // measure 30
0001
0000
0000
0000
,  // measure 31
0100
0000
0000
0000
,  // measure 32
0010
0000
0000
0000
,  // measure 33
1000
0000
0000
0000
,  // measure 34
0001
0000
0000
0000
,  // measure 35
0000
0000
0000
1000
,  // measure 36
1000
0000
0000
0000
,  // measure 37
0000
0000
0000
0010
,  // measure 38
0010
0000
0000
0100
,  // measure 39
0000
0000
0000
0010
,  // measure 40
0000
1000
0000
0001
,  // measure 41
1000
1000
1000
0000
,  // measure 42
0001
0000
0000
0000
,  // measure 43
1000
0000
0000
0000
,  // measure 44
0010
0000
0000
0000
,  // measure 45
0100
0100
0100
0000
,  // measure 46
0010
0000
0000
0000
,  // measure 47
1000
0000
0000
0000
,  // measure 48
0100
0000
0000
0000
,  // measure 49
1000
0000
0000
0000
,  // measure 50
0001
0000
0000
0000
,  // measure 51
0100
0000
0000
0000
,  // measure 52
0010
0000
0000
0000
,  // measure 53
1000
0000
1000
0000
,  // measure 54
1000
0000
0000
0000
,  // measure 55
0001
0000
0000
0000
,  // measure 56
0100
0000
0000
0000
,  // measure 57
0010
0000
0010
0000
,  // measure 58
0010
0000
0000
0000
,  // measure 59
0000
0000
0000
0000
,  // measure 60
0100
0000
0000
0000
,  // measure 61
0001
0001
0001
0000
,  // measure 62
1000
0000
0000
0000
,  // measure 63
0100
0000
0000
0000
,  // measure 64
1000
0000
0000
0000
,  // measure 65
0001
0000
0000
0000
,  // measure 66
1000
0000
0000
0000
,  // measure 67
0010
0000
0000
0000
,  // measure 68
0100
0000
0000
0000
,  // measure 69
0010
0010
0010
0100
,  // measure 70
0010
0000
1000
0000
,  // measure 71
1000
0000
1000
0000
,  // measure 72
0001
0000
0001
0000
,  // measure 73
0001
0001
0001
0000
,  // measure 74
0100
0000
0100
0000
,  // measure 75
0100
0100
0100
0000
,  // measure 76
0010
0000
0010
0000
,  // measure 77
0010
0010
0010
0000
;
