#TITLE:Rock Da House;
#SUBTITLE:;
#ARTIST:M-Project;
#TITLETRANSLIT:;
#SUBTITLETRANSLIT:;
#ARTISTTRANSLIT:;
#CREDIT:;
#BANNER:bn.png;
#BACKGROUND:bg.png;
#LYRICSPATH:;
#CDTITLE:;
#MUSIC:Rock Da House.mp3;
#OFFSET:-0.042;
#SAMPLESTART:23.344;
#SAMPLELENGTH:12.000;
#SELECTABLE:YES;
#BPMS:0.000=175.000;
#STOPS:;
#BGCHANGES:;

//---------------dance-single - ----------------
#NOTES:
     dance-single:
     :
     Hard:
     9:
     0.594,0.630,0.486,0.486,0.182:
0000
0000
0000
0000
,
0000
0000
0000
0000
,
0000
0000
0000
0000
,
0000
0000
0000
0000
,
0000
0000
0000
0000
,
0001
0100
0020
0130
,
0001
1000
0200
0310
,
1000
0001
0200
0301
,
1000
0100
0022
0033
,
0001
0000
0000
0001
0000
0000
0001
0000
1000
0000
0000
0000
0101
0000
0000
0000
,
0010
0000
0000
0010
0000
0000
0010
0000
1000
0000
0000
0000
0110
0000
0000
0000
,
0100
0000
0000
0001
0000
0000
0010
0000
0100
0000
0000
0000
1100
0000
0000
0000
,
1000
0000
0000
0001
0000
0000
0010
0000
0100
0000
1000
0000
0100
0000
0001
0000
,
0100
0000
0000
1000
0000
0000
0010
0000
0200
0000
0000
0000
0301
0000
0000
0000
,
0010
0000
0000
0010
0000
0000
0010
0000
0200
0000
0000
0000
0310
0000
0000
0000
,
0101
1100
0101
1100
,
1001
0000
1001
0000
1001
0110
1001
0000
,
0100
0020
0000
1030
0002
0000
0013
0000
,
0100
2000
0000
3010
0200
0000
0310
0000
,
0100
0002
0000
0013
0200
0000
1300
0000
,
0100
0020
0000
0031
0200
0000
0301
0000
,
0200
0000
0300
0021
0000
0030
0100
0000
,
1200
0000
0300
0012
0000
0003
0100
0000
,
0210
0000
0300
2010
0000
3000
0100
0000
,
0012
0000
0003
1020
0000
0030
0100
0000
,
0010
0010
0010
0000
,
0100
0100
0100
0000
,
0001
0001
0010
0000
,
0010
0000
0001
0000
0100
0000
0000
0001
,
0100
0000
0100
0000
0100
0000
0000
0100
,
0010
0000
0010
0000
0010
0000
0000
1000
,
0100
0000
0100
0000
0100
0000
0000
0100
,
0010
0000
0010
0000
0010
0000
0000
1000
,
0100
0010
0002
0000
0200
0000
0303
0001
,
0010
0001
0010
0200
0000
0000
0300
0000
,
0100
1000
0020
0000
0200
0000
0330
0010
,
1000
1000
0001
0020
0000
0100
0130
0000
,
0100
0010
0002
0000
2000
0000
3003
1000
,
0010
1000
2000
0002
0000
0000
3003
0000
,
0001
0100
0020
0000
0200
0000
0330
1000
,
0001
0010
0200
2000
0000
0000
0000
3300
,
1100
0000
1100
0000
1100
0000
0000
0010
,
1001
0000
1001
0000
1001
0000
0000
0010
,
0101
0000
0101
0000
0101
0000
0000
0100
,
0011
0000
0011
0000
0011
0000
0000
0010
,
1100
0000
1100
0000
1100
0000
0000
0010
,
1001
0000
1001
0000
1001
0000
0000
1000
,
0110
0000
0110
0000
0110
0000
0000
0001
,
0110
0000
0000
0000
0110
0000
0000
0000
0010
0000
0000
0010
0000
0000
0010
0000
,
0100
1000
0100
0010
0200
0000
0301
1000
,
0100
0010
0100
1000
0002
0000
0013
0001
,
0100
0010
1000
0001
0020
0000
0130
1000
,
0100
0010
0001
0010
0020
0000
0031
0010
,
0100
1000
0001
0200
0000
1000
0000
0301
,
0000
0010
1000
0002
0000
0010
0000
0103
,
0000
0010
0100
2000
0000
0100
0000
3100
,
0000
0100
0001
0020
0000
0200
0000
0330
,
1001
0000
0000
0001
0000
0000
0100
0000
0010
0000
0000
1000
0000
0000
0001
0000
,
0010
0000
0000
1000
0000
0000
0010
0000
0001
0000
0000
0100
0000
0000
0010
0000
,
1000
0000
0000
0100
0000
0000
1000
0000
0010
0000
0000
0100
0000
0000
0010
0000
,
1000
0000
0000
0001
0000
0000
0010
0000
0001
0000
0000
0100
0000
0000
0010
0000
,
1000
0000
0000
1000
0000
0000
0001
0000
0010
0000
0000
0001
0000
0000
0100
0000
,
0010
0000
0000
1000
0000
0000
1000
0000
0001
0000
0000
0010
0000
0000
0100
0000
,
1000
0000
0000
0100
0000
0000
0001
0000
0100
0000
0000
1000
0000
0000
1000
0000
,
0010
0000
0000
0100
0000
0000
0001
0000
1000
0000
0000
0100
0000
0000
1000
0000
,
1001
0000
0000
1000
0000
0000
1000
0000
0001
0000
0000
0100
0000
0000
0010
0000
,
1000
0000
0000
1000
0000
0000
0100
0000
0001
0000
0000
0100
0000
0000
1000
0000
,
0100
0000
0000
0010
0000
0000
0001
0000
1000
0000
0000
1000
0000
0000
0010
0000
,
0100
0000
0000
0001
0000
0000
0010
0000
0001
0000
0000
1000
0000
0000
1000
0000
,
0010
0000
0000
0100
0000
0000
0001
0000
0010
0000
0000
0001
0000
0000
1000
0000
,
0010
0000
0000
0100
0000
0000
0010
0000
1000
0000
0000
0100
0000
0000
1000
0000
,
0010
0000
0000
0100
0000
0000
0001
0000
0010
0000
0000
1000
0000
0000
0010
0000
,
0001
0000
0000
1000
0000
0000
0010
0000
0100
0000
0000
0001
0000
0000
1000
0000
,
0100
0000
1000
0000
2002
3003
0202
0303
,
1001
0000
0110
0000
1001
0110
2002
0000
,
3003
0000
0000
0000
;

//---------------dance-single - ----------------
#NOTES:
     dance-single:
     :
     Medium:
     6:
     0.447,0.525,0.318,0.103,0.000:
0000
0000
0000
0000
,
0000
0000
0000
0000
,
0000
0000
0000
0000
,
0000
0000
0000
0000
,
0000
0000
0000
0000
,
0001
1000
0100
1100
,
1000
0010
0100
0110
,
0010
1000
0001
1001
,
0002
0203
0020
0330
,
0010
0000
1000
0010
0100
0000
0110
0000
,
0010
0000
0010
1000
0001
0000
0011
0000
,
0001
0000
0010
0100
1000
0000
1100
0000
,
1000
0000
0100
1000
0010
0000
0100
0010
,
0100
0000
0010
1000
0001
0000
0011
0000
,
0001
0000
0001
0100
0010
0000
0100
0000
,
1010
0011
1010
0011
,
1001
0000
0110
0000
1001
0001
0001
0000
,
0001
0000
0000
0100
0000
0000
1000
0000
,
0100
0000
0000
0010
0000
0000
0001
0000
,
0010
0000
0000
1000
0000
0000
0100
0000
,
0001
0000
0000
0100
0000
0000
1000
0000
,
0010
0000
0000
0001
0000
0000
0010
0000
,
0100
0000
0000
0001
0000
0000
0010
0000
,
1000
0000
0000
0100
0000
0000
0001
0000
,
0100
0000
0000
1000
0000
0000
0010
0000
,
0100
0100
0100
0000
,
0010
0010
0010
0000
,
1000
1000
1000
0000
,
0001
0001
0001
0000
,
1000
0100
1000
0000
,
0100
0010
0100
0000
,
0010
0001
0010
0000
,
0001
0100
0001
0000
,
0001
0100
0010
0000
0200
0000
0000
0000
,
0010
0010
0020
0330
,
0010
1000
0100
0000
0020
0000
0000
0000
,
0100
0100
0200
0330
,
0010
0001
1000
0000
0002
0000
0000
0000
,
1000
1000
2000
3003
,
0001
1000
0010
0000
0200
0000
0000
0000
,
0001
0000
0001
0000
0002
0000
0003
0300
,
0001
0000
0100
0000
0010
0000
0000
0010
,
1000
0000
0010
0000
0100
0000
0000
0010
,
1000
0000
0100
0000
0010
0000
0000
0010
,
0001
0000
0010
0000
0100
0000
0000
0100
,
1000
0000
0010
0000
0100
0000
0000
0010
,
1000
0000
0100
0000
0010
0000
0000
0010
,
0100
0000
0001
0000
0010
0000
0000
0010
,
0100
1000
0100
1000
,
0000
0001
1000
0001
0000
1000
0000
1000
,
0000
0001
0100
0001
0000
0100
0000
0100
,
0000
0010
0100
0010
0000
0100
0000
0100
,
0000
0010
1000
0010
0000
0100
0000
0010
,
0000
1000
0001
0010
0000
0100
0000
1000
,
0000
0100
0001
0100
0000
0010
0000
0100
,
0000
0100
1000
0010
0000
0100
0000
0010
,
0000
0100
0010
1000
0000
0000
0001
0000
,
1000
0000
0001
0000
0100
0010
1000
0000
,
0010
0000
0100
0000
0010
1000
0001
0000
,
0010
0000
0100
0000
1000
0100
0010
0000
,
0100
1000
0010
0100
0001
0010
0100
1000
,
0100
0000
1000
0000
0100
1000
0010
0000
,
0100
0000
0010
0000
0100
0010
1000
0000
,
0001
0000
0010
0000
0100
0010
0001
0000
,
0011
0000
1100
0000
,
1001
0000
0110
0000
0010
1000
0010
0000
,
0100
0000
0110
0000
0010
1000
0001
0000
,
0010
0000
1100
0000
1000
0100
0010
0000
,
0011
1100
0011
1100
,
0001
0000
0010
0100
1000
0000
1100
0000
,
1000
0000
0010
0100
0001
0000
1001
0000
,
0001
0000
0100
0001
0100
0000
0001
0000
,
0100
1000
0100
0010
,
0110
1001
0101
0101
,
0101
0000
1010
0000
0101
0010
1000
0000
,
1001
0000
0000
0000
;

//---------------dance-single - ----------------
#NOTES:
     dance-single:
     :
     Easy:
     4:
     0.294,0.454,0.149,0.047,0.000:
0000
0000
0000
0000
,
0000
0000
0000
0000
,
0000
0000
0000
0000
,
0000
0000
0000
0000
,
0000
0000
0000
0000
,
0001
1000
0100
0100
,
1000
0001
0100
0100
,
0001
1000
0100
0100
,
2000
0000
0000
3000
,
0001
0100
0110
0110
,
0010
1000
1010
1010
,
0010
1000
1100
1100
,
1000
0100
0110
0100
,
0010
0001
0011
0011
,
0001
0100
0101
0101
,
0001
0100
1000
0100
,
0010
0000
1000
0000
0001
1000
0001
0000
,
1000
0000
0000
0001
0000
0000
1000
0000
,
0001
0000
0000
0100
0000
0000
0001
0000
,
0100
0000
0000
0010
0000
0000
0100
0000
,
0010
0000
0000
1000
0000
0000
0010
0000
,
1000
0000
0000
0100
0000
0000
1000
0000
,
0100
0000
0000
0010
0000
0000
0100
0000
,
0010
0000
0000
0001
0000
0000
0010
0000
,
0001
0000
0000
1000
0000
0000
0010
0000
,
0100
0000
0000
0000
,
0100
0000
0000
0000
,
0001
0000
0000
0000
,
1000
0000
0000
0000
,
0100
0000
0000
0000
,
1000
0000
0000
0000
,
0010
0000
0000
0000
,
1000
0000
0000
0000
,
1000
0010
0200
0000
,
0010
0000
0010
0000
0010
0300
0000
0000
,
0010
1000
0002
0000
,
1000
1000
1003
0000
,
1000
0100
0020
0000
,
0100
0100
0130
0000
,
0100
1000
0002
0000
,
0100
0100
0103
0000
,
0001
0100
0001
0000
,
0100
0010
1000
0000
,
1000
0100
0010
0000
,
0100
0010
0001
0000
,
1000
0001
0100
0000
,
0001
0010
0001
0000
,
0001
0100
0010
0000
,
0100
0010
1000
0000
,
0001
1000
0100
0000
,
0100
1000
0010
0000
,
0100
0010
1000
0000
,
0001
1000
0100
0000
,
0100
0010
0001
0000
,
0001
0010
0100
0000
,
0100
1000
0010
0000
,
0100
0001
0100
0000
,
0001
0000
1000
0000
,
0010
0000
1000
0000
,
0100
0000
0010
0000
,
0001
0000
1000
0000
,
0001
0000
0100
0000
,
0010
0000
0100
0000
,
0010
0000
1000
0000
,
1010
0000
0101
0000
,
1001
0000
0001
1000
,
0100
0000
0100
0010
,
0001
0000
0001
0010
,
0100
0010
0001
1000
,
0010
0000
0100
0000
,
0001
1000
0010
0000
,
0100
0000
0001
0000
,
0010
0100
1000
0100
,
0010
0001
0101
0101
,
0001
0000
0100
0000
0010
1000
0010
0000
;

//---------------dance-single - ----------------
#NOTES:
     dance-single:
     :
     Beginner:
     1:
     0.145,0.280,0.103,0.000,0.000: // measure 1
0000
0000
0000
0000
,  // measure 2
0000
0000
0000
0000
,  // measure 3
0000
0000
0000
0000
,  // measure 4
0000
0000
0000
0000
,  // measure 5
0000
0000
0000
0000
,  // measure 6
0010
0000
0000
0000
,  // measure 7
0100
0000
0000
0000
,  // measure 8
0001
0000
0000
0000
,  // measure 9
1001
0000
0000
0000
,  // measure 10
1000
0000
0000
0000
,  // measure 11
0001
0000
0000
0000
,  // measure 12
0100
0000
0000
0000
,  // measure 13
0010
0000
0100
0000
,  // measure 14
0010
0000
0000
0000
,  // measure 15
1000
0000
0000
0000
,  // measure 16
0001
0000
1000
0000
,  // measure 17
0010
0000
0100
0100
,  // measure 18
0010
0000
0000
0000
,  // measure 19
1000
0000
0000
0000
,  // measure 20
0001
0000
0000
0000
,  // measure 21
0100
0000
0000
0000
,  // measure 22
0001
0000
0000
0000
,  // measure 23
1000
0000
0000
0000
,  // measure 24
0100
0000
0000
0000
,  // measure 25
1000
0000
0000
0000
,  // measure 26
0110
0000
0000
0000
,  // measure 27
0010
0000
0000
0000
,  // measure 28
0010
0000
0000
0000
,  // measure 29
0010
0000
0000
0000
,  // measure 30
0100
0000
0000
0000
,  // measure 31
0100
0000
0000
0000
,  // measure 32
0110
0000
0000
0000
,  // measure 33
0100
0000
0000
0000
,  // measure 34
0001
0001
0001
0000
,  // measure 35
1000
0000
0000
0000
,  // measure 36
1000
1000
1000
0000
,  // measure 37
0001
0000
0000
0000
,  // measure 38
0100
0100
0100
0000
,  // measure 39
0010
0000
0000
0000
,  // measure 40
0010
0010
0100
0000
,  // measure 41
0110
0000
0000
0000
,  // measure 42
0010
0000
0000
0000
,  // measure 43
0100
0000
0000
0000
,  // measure 44
0001
0000
0000
0000
,  // measure 45
1000
0000
0000
0000
,  // measure 46
1000
0000
0000
0000
,  // measure 47
0001
0000
0000
0000
,  // measure 48
0001
0000
0000
0000
,  // measure 49
1000
0000
0001
0000
,  // measure 50
0100
0000
0000
0000
,  // measure 51
0010
0000
0000
0000
,  // measure 52
1000
0000
0000
0000
,  // measure 53
0100
0000
0000
0000
,  // measure 54
1000
0000
0000
0000
,  // measure 55
0001
0000
0000
0000
,  // measure 56
0100
0000
0000
0000
,  // measure 57
0010
0000
0000
0110
,  // measure 58
1001
0000
0000
0000
,  // measure 59
0001
0000
0000
0000
,  // measure 60
1000
0000
0000
0000
,  // measure 61
0001
0000
0100
0000
,  // measure 62
0001
0000
0000
0000
,  // measure 63
1000
0000
0000
0000
,  // measure 64
0100
0000
0000
0000
,  // measure 65
0110
0000
1001
0000
,  // measure 66
0110
0000
0010
0000
,  // measure 67
0100
0000
0010
0000
,  // measure 68
1000
0000
0001
0000
,  // measure 69
0100
0000
0001
0000
,  // measure 70
1000
0000
0010
0000
,  // measure 71
1000
0000
0100
0000
,  // measure 72
1000
0000
0001
0000
,  // measure 73
0100
0000
0001
0000
,  // measure 74
1000
0000
0000
0000
,  // measure 75
0010
0100
0010
1001
,  // measure 76
0110
0000
0000
0000
;
