#TITLE:Rise'n Sunshine;
#SUBTITLE:;
#ARTIST:Thanatos feat. i;
#TITLETRANSLIT:;
#SUBTITLETRANSLIT:;
#ARTISTTRANSLIT:;
#CREDIT:;
#BANNER:bn.png;
#BACKGROUND:bg.png;
#LYRICSPATH:;
#CDTITLE:;
#MUSIC:Rise'n Sunshine.mp3;
#OFFSET:-0.044;
#SAMPLESTART:79.480;
#SAMPLELENGTH:14.320;
#SELECTABLE:YES;
#BPMS:0.000=145.000;
#STOPS:216.000=2.069
;
#BGCHANGES:;

//---------------dance-single - ----------------
#NOTES:
     dance-single:
     :
     Hard:
     7:
     0.389,0.469,0.032,0.381,0.195:
0000
0000
0000
0000
,
0000
0000
0000
0000
,
0000
0000
0000
0000
,
0000
0000
0000
0000
,
0000
0000
0000
0000
,
0000
0000
0000
0000
,
0000
0000
0000
0000
,
0000
0000
0000
0000
,
0010
1000
0001
0010
,
0001
1000
0001
1000
,
0010
0100
0001
0010
,
0100
0010
0001
0001
,
1000
0010
0100
0010
,
1000
0001
0010
0100
,
0010
0001
1000
0010
,
1000
0000
0000
0000
0100
0000
0000
0000
0010
0000
0000
0010
0000
0000
0010
0000
,
0100
1000
0100
0000
1000
0000
0010
0000
,
0100
0001
0100
0000
0010
0000
1000
0000
,
0001
0010
0001
0000
1000
0000
0010
0000
,
0100
0001
0010
0000
0100
1000
0010
0000
,
0100
0010
0100
0000
0001
0000
1000
0000
,
0100
1000
0100
0000
0010
0000
0001
0000
,
1000
0001
0100
0000
0001
0000
0010
0000
,
0100
0000
1000
0000
0010
0000
0100
0000
0010
0000
0000
0010
0000
0000
0010
0000
,
0200
0000
0302
0000
,
2003
0000
0000
0000
3200
0000
1300
0100
,
0010
0000
0000
0010
0000
0000
0020
0000
0000
0000
0000
0000
0000
0000
0030
0000
,
0000
0000
0000
0000
,
0200
0000
2300
0000
,
3200
0000
0000
0000
2300
0000
3001
1000
,
0001
0000
0000
0001
0000
0000
0002
0000
0000
0000
0000
0000
0003
0000
0000
0000
,
0000
0000
0000
0000
,
0001
0100
0001
0010
,
0100
0000
1000
0000
0100
0000
1000
0100
,
0010
0100
1000
0010
,
0001
0010
0100
0010
,
1000
0001
0010
0001
,
0100
0000
0010
0000
1000
0000
0001
1000
,
0001
0100
0010
1000
,
0100
0000
0000
0000
1000
0000
0000
0000
0010
0000
0000
0010
0000
0000
0010
0000
,
0100
0000
0010
0000
0000
0100
0000
0000
0010
0000
0000
1000
0000
0000
0100
0000
,
0000
0000
1000
0000
0000
0100
0000
0000
0010
0000
0001
0000
0010
0000
0000
0000
,
0000
0000
0001
0000
0000
0100
0000
0000
0010
0000
0000
1000
0000
0000
0010
0000
,
0000
0000
0100
0000
0000
0010
0000
0000
1000
0000
0000
0010
0000
0000
0100
0000
,
0010
0000
1000
0000
0000
1000
0000
0000
0001
0000
0000
0010
0000
0000
0010
0000
,
0000
0000
0001
0000
0000
0010
0000
0000
0100
0000
1000
0000
0100
0000
0000
0000
,
1000
0100
0010
0001
1000
0100
0010
0001
,
0100
0000
1000
0000
0100
0000
0010
0000
1000
0000
0000
0001
0000
0000
0010
0000
,
0002
0000
0000
0103
0002
0000
0000
0013
,
0002
0023
0230
0310
,
0200
0000
0000
1300
0200
0000
0000
0310
,
0200
2300
3020
0130
,
0020
0000
0000
1030
0020
0000
0000
0130
,
0020
2030
3002
0023
,
0031
0000
0000
0000
0011
0000
0000
1100
0000
0000
1001
0000
0001
0100
0000
0000
,
0010
0000
0000
0100
0000
0001
0000
0000
1000
0000
0000
0100
0000
1000
0000
0000
,
0010
0000
0000
0100
0000
0001
0000
0000
0010
0000
0000
0100
0000
1000
0000
0000
,
0100
0000
0000
1000
0000
0010
0000
0000
0100
0000
0000
0010
0000
1000
0000
0000
,
0001
0000
0000
0010
0000
0010
0000
0000
0001
0000
0000
1000
0000
0010
0000
0000
,
0100
0000
0000
0010
0000
1000
0000
0000
0100
0000
0000
0010
0000
0001
0000
0000
,
0010
0000
0000
0100
0000
0100
0000
0000
0010
0000
0000
0010
0000
0001
0000
0000
,
1000
0000
0000
0010
0000
0100
0000
0000
0001
0000
0000
1000
0000
1000
0000
0000
,
0010
0000
0000
0100
0010
0000
0000
0010
0000
0000
0010
0000
0200
0000
0000
0000
,
0310
1000
0002
0000
1003
0001
0020
0000
,
0032
0023
0030
0200
,
1300
0010
0200
0000
1300
0100
0020
0000
,
0230
0002
0303
0002
,
1003
0010
0200
0000
1300
0100
0020
0000
,
0230
0320
2030
3002
,
0000
0023
0000
0200
,
0000
0330
0000
2002
,
0000
0000
0000
0000
,
0000
3003
0000
0000
;

//---------------dance-single - ----------------
#NOTES:
     dance-single:
     :
     Medium:
     6:
     0.326,0.459,0.057,0.170,0.041:
0000
0000
0000
0000
,
0000
0000
0000
0000
,
0000
0000
0000
0000
,
0000
0000
0000
0000
,
0000
0000
0000
0000
,
0000
0000
0000
0000
,
0000
0000
0000
0000
,
0000
0000
0000
0000
,
1000
0001
0010
0010
,
0001
1000
0100
0100
,
1000
0010
0100
0001
,
0010
0000
0100
0000
1000
0100
1000
0000
,
0100
1000
0010
0010
,
0100
0001
1000
1000
,
0001
1000
0010
0100
,
0001
0000
0000
0000
0010
0000
0000
0000
0100
0000
0000
0100
0000
0000
0100
0000
,
0010
0000
0001
0000
0010
0000
0001
0100
,
0010
0000
0100
0000
0010
1000
0010
0000
,
1000
0000
0001
0000
1000
0100
1000
0000
,
0100
0000
0010
0000
0001
0010
0100
1000
,
0100
0000
1000
0000
0010
0000
0100
0001
,
1000
0000
0001
0000
0010
0000
0100
1000
,
0010
0000
0100
0010
1000
0000
0010
0100
,
0001
0000
0000
0000
1000
0000
0000
0000
0001
0000
0000
0001
0000
0000
0100
0000
,
0002
0000
0103
0000
,
0200
0000
0000
0000
0310
0000
0100
0010
,
0100
0000
0000
0100
0000
0000
0100
0000
0000
0000
0000
0000
0000
0000
0000
0000
,
0000
0000
0000
0000
,
0020
0000
1030
0000
,
2000
0000
0000
0000
3010
0000
1000
0010
,
0100
0000
0000
0001
0000
0000
0010
0000
0000
0000
0000
0000
0000
0000
0000
0000
,
0000
0000
0000
0000
,
0110
0010
0001
1000
,
0010
0000
0010
0000
1000
0000
0001
1000
,
0001
0000
0000
0100
0000
0000
0020
0000
0000
0000
0000
0000
0000
0000
0000
0000
,
0030
0000
0000
0000
,
0100
0010
0100
0001
,
1000
0000
0001
0000
0010
0000
0100
1000
,
0100
0000
0000
0100
0000
0000
0200
0000
0000
0000
0000
0000
0000
0000
0000
0000
,
0000
0000
0000
0000
0000
0000
0000
0000
0010
0000
0000
0010
0000
0000
0010
0300
,
0010
0001
0010
0000
0001
0000
0100
0000
,
0010
0100
0010
0000
0100
0010
0100
0000
,
0010
0000
1000
0000
0001
1000
0100
0000
,
1000
0000
0010
0000
0100
0010
0100
0000
,
0010
1000
0001
0000
0010
0000
0100
0000
,
1000
0010
0100
0000
0100
0010
0100
0000
,
0100
0010
1000
0001
,
1000
0000
0001
0000
1000
0000
0001
0000
1000
0000
0000
0001
0000
0000
0100
0000
,
0010
0000
0000
0100
0010
0000
0000
0000
,
1000
0000
0000
0100
0010
0000
0000
0000
,
0100
0000
0000
1000
0010
0000
0000
0000
,
0100
0000
0000
0001
0010
0000
0000
0000
,
0100
0000
0000
1000
0100
0000
0000
0000
,
0010
0000
0000
0100
1000
0000
0000
0000
,
1001
0000
0000
0000
0110
0000
0000
0110
0000
0000
0110
0000
0010
0000
0100
0000
,
0010
0000
1000
0000
0010
0000
0001
0010
,
0100
0000
0010
0000
1000
0000
0001
1000
,
0100
0000
1000
0000
1000
0000
0001
0100
,
0010
0000
0100
0010
1000
0000
0010
0100
,
0010
0000
0100
0000
0001
0000
0010
0100
,
0010
0000
0100
0000
1000
0000
0001
1000
,
0001
0000
0100
0000
0001
0000
0010
0100
,
0010
0000
0000
0000
0100
0000
0000
1000
0000
0000
0010
0000
0200
0000
0000
0000
,
0000
0310
0200
0000
0000
0310
0100
0000
,
0010
0110
0000
0002
,
0000
1003
0002
0000
0000
1003
0001
0000
,
1000
2002
3003
0002
,
0000
0103
0020
0000
0000
0130
0020
0000
,
2030
3020
0230
0302
,
0000
2003
0000
0200
,
0000
0000
0000
3300
;

//---------------dance-single - ----------------
#NOTES:
     dance-single:
     :
     Easy:
     3:
     0.222,0.316,0.073,0.073,0.000:
0000
0000
0000
0000
,
0000
0000
0000
0000
,
0000
0000
0000
0000
,
0000
0000
0000
0000
,
0000
0000
0000
0000
,
0000
0000
0000
0000
,
0000
0000
0000
0000
,
0000
0000
0000
0000
,
1000
0000
0001
0000
,
0100
0001
0100
0000
,
0010
0000
1000
0000
,
0010
0100
0010
0000
,
1000
0000
0001
0000
,
0100
0010
0100
0000
,
0010
0000
1000
0000
,
0010
1000
1001
0000
,
0001
0000
1000
0000
,
0010
1000
0010
0000
,
0100
0000
0001
0000
,
0010
0000
0100
1000
,
0100
0000
0010
0000
,
0001
0000
0100
0000
,
0010
1000
0010
0001
,
0010
0100
1000
0001
,
1001
0000
0000
0000
,
0010
0000
0000
0000
,
0100
0000
0000
0000
,
0000
0000
0000
0000
,
0001
0000
0000
0000
,
1000
0000
0000
0000
,
0010
0010
0010
0000
,
0000
0000
0000
0000
,
0110
0010
1000
0010
,
1000
0001
1000
0001
,
0010
0001
0010
0001
,
0010
0100
1000
0001
,
1000
1000
0001
0001
,
1000
0010
0100
0010
,
0010
0100
0001
1000
,
0001
0010
0100
0000
,
0010
0001
0100
0000
,
0010
1000
0100
0100
,
1000
0010
0100
0000
,
0010
1000
0001
0010
,
0001
0000
1000
0000
,
0010
1000
0010
0000
,
0100
0000
0001
0000
,
1000
0001
1000
0001
,
0110
0000
0010
0000
,
0100
0100
0100
0000
,
1001
0000
0010
0000
,
0100
0100
0100
0000
,
0110
0000
1000
0000
,
0001
0001
0001
0000
,
1001
0010
0010
0110
,
0010
1000
0010
1000
,
0001
1000
0001
0010
,
0001
0010
0001
0010
,
0100
0010
0100
1000
,
0100
1000
0100
1000
,
0010
1000
0010
0100
,
0010
0100
0010
0100
,
0001
1001
0000
0002
,
0000
2003
0000
3001
,
0100
0001
0000
0200
,
0000
0320
0000
0130
,
0010
1000
0000
0002
,
0000
2003
0000
3010
,
1000
0100
0010
0002
,
0000
2003
0000
0200
,
0000
0000
0000
3300
;

//---------------dance-single - ----------------
#NOTES:
     dance-single:
     :
     Beginner:
     1:
     0.103,0.172,0.057,0.000,0.000:
0000
0000
0000
0000
,
0000
0000
0000
0000
,
0000
0000
0000
0000
,
0000
0000
0000
0000
,
0000
0000
0000
0000
,
0000
0000
0000
0000
,
0000
0000
0000
0000
,
0000
0000
0000
0000
,
0010
0000
0000
0000
,
0100
0000
0000
0000
,
0001
0000
0000
0000
,
0001
0000
0000
0000
,
1000
0000
0000
0000
,
0010
0000
0000
0000
,
0100
0000
0000
0000
,
0001
0000
0000
0000
,
1000
0000
0000
0000
,
0001
0000
0000
0000
,
0100
0000
0000
0000
,
0010
0000
0010
0000
,
0010
0000
0000
0000
,
1000
0000
0000
0000
,
1000
0000
0000
0000
,
0001
0000
0100
0000
,
0110
0000
0000
0000
,
0010
0000
0000
0000
,
0100
0000
0000
0000
,
0000
0000
0000
0000
,
0100
0000
0000
0000
,
0001
0000
0000
0000
,
1000
0000
0000
0000
,
0000
0000
0000
0000
,
1001
0000
0000
0000
,
1000
0000
0000
0000
,
0010
0000
0000
0000
,
0000
0000
0000
0000
,
1000
0000
0000
0000
,
0001
0000
0000
0000
,
0100
0000
0000
0000
,
0000
0000
0110
0000
,
1001
0000
0000
0000
,
0001
0000
0000
0000
,
0100
0000
0000
0000
,
0010
0000
0010
0000
,
0010
0000
0000
0000
,
0100
0000
0000
0000
,
0001
0000
0000
0000
,
1000
0000
0001
1000
,
1001
0000
0000
0000
,
0010
0010
0010
0000
,
0000
0000
0000
0000
,
0100
0100
0100
0000
,
0000
0000
0000
0000
,
0001
0001
0001
0000
,
0000
1000
0000
1000
,
0000
0000
0000
0010
,
0000
0000
0000
0100
,
0000
0000
0000
0010
,
0000
0100
0000
0010
,
0000
0000
0000
1000
,
0000
0000
0000
0001
,
0000
0000
0000
1000
,
0000
1001
0000
0010
,
0000
0010
0000
0010
,
0010
0010
0000
0100
,
0000
0100
0000
0100
,
0100
0100
0000
0001
,
0000
0001
0000
0001
,
0001
0001
0000
1000
,
0000
0010
0000
0100
,
0000
0000
0000
1001
;
