#TITLE:Remain;
#SUBTITLE:;
#ARTIST:ZERO+ZIBA;
#TITLETRANSLIT:;
#SUBTITLETRANSLIT:;
#ARTISTTRANSLIT:;
#CREDIT:;
#BANNER:bn.png;
#BACKGROUND:bg2.png;
#LYRICSPATH:;
#CDTITLE:;
#MUSIC:31 - ZERO+ZIBA - Remain.mp3;
#OFFSET:0.041;
#SAMPLESTART:26.820;
#SAMPLELENGTH:12.000;
#SELECTABLE:YES;
#BPMS:0.000=150.000,65.000=75.000,73.000=150.000,85.000=300.001,87.000=150.000,95.000=300.001,99.000=150.000,117.000=75.000,118.000=150.000,120.000=75.000,121.000=150.000,121.250=160.000,121.500=170.000,121.750=180.000,122.000=190.000,122.250=200.000,122.500=210.000,122.750=220.000,123.000=230.000,123.250=240.000,123.500=250.000,123.750=260.000,124.000=270.000,124.250=280.000,124.500=290.000,124.750=300.000,125.000=320.000,125.500=339.999,126.000=359.999,126.500=379.999,127.000=399.999,129.500=499.997,132.000=613.996,142.500=665.995,143.000=75.000,159.000=150.001,187.000=75.000,189.000=150.001,219.000=75.000,219.500=150.001,222.000=75.000,222.500=150.001,225.500=75.000,226.000=150.001,250.500=600.002,252.500=37.501,253.750=75.001;
#STOPS:85.000=0.300
,85.500=0.300
,86.000=0.600
,95.000=0.300
,95.500=0.300
,96.000=0.300
,96.500=0.300
,97.000=0.300
,97.500=0.300
,98.000=0.300
,98.500=0.300
,219.500=0.200
,250.500=0.800
;
#BGCHANGES:;

//---------------dance-single - ----------------
#NOTES:
     dance-single:
     :
     Hard:
     10:
     0.560,0.801,0.205,0.311,0.409: // measure 1
0000
0000
0000
0000
,  // measure 2
0000
0000
0000
0000
,  // measure 3
0000
0000
0000
0000
,  // measure 4
0000
0000
0000
0000
,  // measure 5
0000
0000
0001
1000
0010
1000
0000
0000
,  // measure 6
0000
0000
1000
0001
0010
0001
0000
0000
,  // measure 7
0000
0000
0001
0100
0010
0100
0000
0000
,  // measure 8
0000
0000
0100
0010
1000
0100
0000
0000
,  // measure 9
1000
0000
1000
0000
1001
0000
0000
0001
0100
0000
0000
0100
0010
0000
0000
0010
,  // measure 10
1000
0000
0000
1000
0100
0000
0000
0100
0010
0000
0000
0010
0001
0000
0000
0001
,  // measure 11
0100
0000
0000
0100
0010
0000
0000
0010
1000
0000
0000
1000
0001
0000
0000
0001
,  // measure 12
0010
0000
0000
0010
0100
0000
0000
0100
1000
0000
0000
1000
0010
0000
0000
0100
,  // measure 13
0001
0000
0000
0001
0010
0000
0100
0000
0010
0000
0001
0000
1000
0000
0001
0000
,  // measure 14
0100
1000
0100
0001
0010
0100
0010
0001
,  // measure 15
1000
0000
0010
0000
0100
0001
0010
0001
0100
0010
1000
0100
0010
0100
1000
0001
,  // measure 16
0100
0010
1000
0100
0010
0100
0010
0100
0010
0100
0010
0100
0010
0100
0010
0100
,  // measure 17
0010
0100
0010
0100
0010
0000
0000
0000
0001
0000
0100
0000
1000
0000
0100
0000
,  // measure 18
0001
0100
0010
1000
0001
0010
1000
0010
,  // measure 19
0001
0000
0000
0000
0000
0000
0100
0000
0000
0100
0000
0000
0001
0000
0000
0000
1000
0000
0000
0000
0001
0000
0000
0000
0010
0000
0000
0000
0001
0000
0000
0000
0100
0000
0000
0000
0010
0000
0000
0100
0000
0000
0001
0000
0000
1000
0000
0000
,  // measure 20
0100
0000
0000
1000
0000
0000
0010
0000
0000
1000
0000
0000
0100
0000
0000
0000
1000
0000
0000
0000
0100
0000
0000
0000
0001
0000
0000
0000
0100
0000
0000
0000
1000
0000
0000
0000
0010
0000
0000
0000
0000
0000
0000
0000
0010
0000
0000
0000
,  // measure 21
0000
0000
0010
0000
0000
0000
0100
0000
0000
0101
0000
0000
0110
0000
0000
0010
0000
0000
1000
0000
0000
1100
0000
0000
,  // measure 22
0011
0000
0001
0000
0011
0000
0110
0000
1001
0000
0000
0000
1000
0001
0100
0010
,  // measure 23
1000
0100
0010
0001
1000
0000
0100
0000
0100
0000
0010
0000
1000
0000
0001
0000
,  // measure 24
0010
1000
0010
0001
0100
0001
1000
0101
,  // measure 25
0010
0011
1001
0101
2020
3030
1000
0010
,  // measure 26
0010
0010
0100
0000
0000
0000
0001
0010
,  // measure 27
0010
0010
0020
0000
0000
0000
0130
1000
,  // measure 28
0001
0000
0100
0000
1000
0000
0100
0000
0001
0000
0010
0000
2002
3003
0202
0303
,  // measure 29
0022
0033
0220
0330
2200
0000
0000
0000
0000
0000
3300
0000
1000
0000
0001
0000
,  // measure 30
0010
0000
0100
1000
0020
0000
0000
0000
0130
0000
0001
0000
1000
0000
0001
0010
,  // measure 31
0200
0310
0000
0000
,  // measure 32
0000
0000
0000
0000
,  // measure 33
0000
0000
0000
0000
,  // measure 34
0000
0000
0000
0000
,  // measure 35
0000
0000
0000
0000
,  // measure 36
0000
0000
0000
0002
,  // measure 37
2003
3020
0230
0302
,  // measure 38
0203
0000
0320
0000
2030
0000
3200
1000
,  // measure 39
2300
0010
3020
0100
0230
0001
0302
0010
,  // measure 40
0023
0100
0230
0010
0320
0001
0031
0000
,  // measure 41
1000
0010
0100
0001
,  // measure 42
0010
0000
0100
0010
0001
0000
0001
0100
,  // measure 43
0010
0000
0100
0001
1000
0000
0100
1000
,  // measure 44
0010
0000
0100
0001
1000
0000
1000
0001
,  // measure 45
0010
0100
0010
0001
0100
0010
1000
0100
,  // measure 46
1000
0000
0000
0010
0000
0000
0100
0000
0000
0001
0000
0000
1000
0000
0000
0100
0000
0000
1000
0000
0001
0000
0010
0000
,  // measure 47
1000
0010
0001
0100
0010
1000
0100
1000
0010
1000
0000
0000
,  // measure 48
0001
0000
0010
0000
0010
0000
0001
0000
0000
1000
0000
0000
0001
0000
0000
0100
0000
0000
0000
0000
0000
0010
0000
0000
0000
0000
0000
0000
0000
0000
0100
0000
0000
0000
0000
0000
0010
0000
0000
1000
0000
0000
0000
0000
0000
0001
0000
0000
,  // measure 49
0000
0000
1000
0000
0100
1000
0000
0010
0000
0000
0100
0000
0001
1000
0000
0100
,  // measure 50
0000
0000
1000
0000
0010
0100
0000
0010
0000
0000
0100
0000
0010
1000
0000
0001
,  // measure 51
0000
0000
0001
0000
0010
0100
0000
0010
0000
0000
0001
0000
0011
0000
0000
1100
,  // measure 52
0000
0000
0101
0000
0001
1000
0001
0010
0000
0000
0001
0000
0100
0010
1000
0100
,  // measure 53
0000
0000
1000
0000
1000
0010
0100
0010
0000
0000
0100
0000
0010
1000
0001
0010
,  // measure 54
0000
0000
0001
0000
0010
0001
0100
0010
0000
0000
0100
0000
0010
0100
0001
1000
,  // measure 55
0000
0000
1000
0000
0001
0100
0010
0100
0000
0000
0100
0010
2000
0000
3000
0000
,  // measure 56
0001
0100
0010
1000
2020
3030
0000
1000
,  // measure 57
0100
0010
0001
0022
0033
0000
0001
0000
,  // measure 58
0110
0000
0001
0001
1000
0000
0010
0100
,  // measure 59
0001
0010
1000
0010
0001
0100
0001
0100
,  // measure 60
1000
0100
0001
0010
1000
0010
0001
0100
,  // measure 61
1000
0100
0001
0010
1000
0010
0001
0100
,  // measure 62
1000
0000
0100
0000
0001
0000
0010
0000
0001
0000
0100
0000
0010
0100
0001
0010
,  // measure 63
0100
0000
0000
0010
0000
0000
0001
0000
0000
1000
0000
0000
0100
0000
0000
0000
0000
0000
0000
0000
1000
0000
0000
0000
0000
0000
0000
0000
2002
0000
0000
0000
0000
0000
0000
0000
0000
0000
0000
0000
0000
0000
0000
0000
0000
0000
0000
0000
,  // measure 64
0000
3003
0000
0000
0000
0000
0000
0000
;

//---------------dance-single - ----------------
#NOTES:
     dance-single:
     :
     Challenge:
     11:
     0.773,1.000,0.393,0.303,0.937:
0000
0000
0000
0000
,
0000
0000
0000
0000
,
0000
0000
0000
0000
,
0000
0000
0000
0000
,
0000
0000
1000
0001
0100
0001
0000
0000
,
0000
0000
0001
1000
0100
1000
0000
0000
,
0000
0000
1000
0010
0100
0010
0000
0000
,
0000
0000
0010
0100
0001
0010
0000
0000
,
0001
0000
0001
0000
1001
0000
0000
1000
0010
0000
0000
0010
0100
0000
0000
0100
,
0001
0000
0000
0001
0010
0000
0000
0010
0100
0000
0000
0100
1000
0000
0000
1000
,
0010
0000
0000
0010
0100
0000
0000
0100
0001
0000
0000
0001
1000
0000
0000
1000
,
0100
0000
0000
0100
0010
0000
0000
0010
0001
0000
0000
0001
0100
0000
0000
0010
,
1000
0000
0000
1000
0100
0000
0010
0000
0100
0000
1000
0000
0001
0000
1000
0000
,
0010
0001
0010
1000
0100
0010
0100
1000
,
0001
0000
0100
0000
0010
1000
0100
1000
0010
0100
0001
0010
0100
0010
0001
1000
,
0010
0100
0001
0010
0100
1000
0010
0100
0001
1000
0100
0001
0100
1000
0010
0001
,
0010
1000
0001
0010
0001
0000
0010
0001
0100
0010
1000
0001
1000
0001
0100
0010
,
1000
0100
0010
0100
0010
0001
1000
0001
1000
0010
0100
0001
0010
0100
1000
0010
,
1000
0000
0000
0000
0000
0000
0010
0000
0000
0010
0000
0000
1000
0000
0000
0000
0001
0000
0000
0000
1000
0000
0000
0000
0100
0000
0000
0000
1000
0000
0000
0000
0010
0000
0000
0000
0100
0000
0000
0010
0000
0000
1000
0000
0000
0001
0000
0000
,
0010
0000
0000
0001
0000
0000
0100
0000
0000
0001
0000
0000
0010
0000
0000
0000
0001
0000
0000
0000
0010
0000
0000
0000
1000
0000
0000
0000
0010
0000
0000
0000
0001
0000
0000
0000
0100
0000
0000
0000
0000
0000
0000
0000
0100
0000
0000
0000
,
0000
0000
0100
0000
0000
0000
0010
0000
0000
1010
0000
0000
0110
0000
0000
0100
0000
0000
0001
0000
0000
0011
0000
0000
,
1100
0000
0000
1000
0000
0000
1100
0000
0000
0110
0000
0000
1001
0000
0000
0000
0000
0000
0001
0010
0100
1000
0001
0010
,
0100
1000
0001
0010
0100
1000
0001
0000
0000
0100
0000
0000
0010
0000
0000
1000
0000
0000
0001
0000
0000
1000
0000
0000
,
0100
0001
0100
1000
0010
1000
0001
1010
,
0100
0000
0000
0000
0000
0000
0000
0000
1100
0000
0000
0000
0000
0000
0000
0000
1001
0000
0000
0000
0000
0000
0000
0000
1010
0000
0000
0000
0000
0000
0000
0000
0002
0000
0000
0000
0000
0000
0000
0200
0003
0300
0000
0000
0000
0000
0000
0000
0001
0000
0000
0000
0000
0000
0000
0000
0102
0000
0000
0000
0003
0000
0000
0000
,
0210
0300
0120
0030
1020
0030
0000
0000
0000
0000
0000
0000
1000
0000
2100
3000
,
0120
0030
2100
3000
0200
0000
0000
0000
0000
0000
0000
0000
0310
0000
0001
1000
,
0001
0010
0100
1000
0001
1000
0010
0100
0010
1000
0100
1000
2020
3030
2020
3030
,
2200
3300
0220
0330
0022
0000
0000
0000
0000
0000
0033
0000
0001
0000
1000
0000
,
0100
0000
0010
0001
0200
0000
1000
0000
0310
0000
1000
0000
0001
0000
1000
0100
,
0020
0001
0230
0000
0000
0000
0000
0000
,
0000
0000
0000
0000
,
0000
0000
0000
0000
,
0000
0000
0000
0000
,
0000
0000
0000
0000
,
0000
0000
0000
0000
0000
0000
0000
0000
0000
0000
0000
0000
0000
0000
0000
0000
0000
0000
0000
0000
0000
0000
0000
0000
0000
0000
0000
0000
0000
0000
0000
0000
0000
0000
0000
0000
0000
0000
0000
0000
0000
0000
0000
0000
0000
0000
0000
0000
0000
0000
0000
0000
0000
0000
0000
0000
0000
0000
0000
0000
0000
0000
0000
0000
0000
0000
0000
0000
0000
0000
0000
0000
0000
0000
0000
0000
0000
0000
0000
0000
0000
0000
0000
0000
0000
0000
0000
0000
0000
0000
0000
0000
0000
0000
0000
0000
0000
0000
0000
0000
0000
0000
0000
0000
0000
0000
0000
0000
0000
0000
0000
0000
0000
0000
0000
0000
0000
0000
0000
0000
0000
0000
0000
0000
0000
0000
0000
0000
0000
0000
0000
0000
0000
0000
0000
0000
0000
0000
0000
0000
0000
0000
0000
0000
0300
0200
0000
0000
0000
0000
0000
0000
0000
0000
0000
0000
0000
0000
0000
0000
0000
0000
0000
0000
0000
0000
0000
0000
0000
0000
0000
0000
0000
0000
0000
0000
0000
0000
0000
0000
0000
0000
0000
0000
0000
0000
0000
0000
0000
0000
0000
0000
,
0320
0230
0320
0032
,
0023
0000
0000
0000
0000
0000
0230
0000
0000
0000
0000
0000
2300
0000
0000
0000
0000
0000
3001
0010
0001
0100
0010
1000
,
0100
0010
0100
1000
0001
0100
0010
1000
0100
0010
0100
1000
0001
0010
0100
0010
0001
0100
0010
1000
0001
0010
0001
1000
,
0100
1000
0010
0100
0001
0010
0001
0100
1000
0100
0001
0010
0001
0100
0010
1000
0100
1000
0100
0000
0000
1000
0000
0000
,
1010
0000
1000
0100
1000
0000
0010
0000
0110
0000
0010
1000
0001
0000
0010
0000
,
0110
0000
0100
1000
0010
0000
0100
0000
0101
0000
0001
1000
0100
0000
1000
0000
,
1010
0000
1000
0001
0010
0000
0100
0000
1100
0000
1000
0001
0100
0000
0001
0000
,
0101
0000
0100
0010
1000
0000
0100
0000
0110
0000
0010
0001
0100
0000
0101
0000
,
0100
0110
0010
1010
1000
1100
0100
0110
,
0010
0000
0011
0000
0010
0000
0110
0000
0100
0000
1100
0000
1000
0001
0100
0001
,
0010
0000
0000
0100
0000
0000
0010
0000
0000
0001
0000
0000
1000
0000
0000
0010
0000
0000
0100
0000
0000
0001
0000
0000
1000
0000
0000
0100
0000
0000
0010
0000
0000
0001
0000
0000
1000
0000
0001
0000
0100
0000
0001
0000
0010
0000
0100
0000
,
1000
0000
0100
0000
0100
0000
1000
0000
0000
0001
0000
0000
1000
0000
0000
0001
0000
0000
0010
0000
0000
0100
0000
0000
0000
0000
0000
0100
0000
0000
0010
0000
0000
0001
0000
0000
1000
0000
0000
0001
0000
0000
0100
0000
0000
0001
0000
0000
,
0000
0001
0100
0010
1000
0100
0010
0001
0000
0001
0100
0010
1000
0100
0010
0001
,
0000
0001
1000
0100
0010
0100
1000
0001
0000
0001
1000
0100
1000
0010
0100
0001
,
0000
0001
0100
0010
1000
0100
1000
0010
0000
0100
0001
1000
1200
0000
0000
1000
,
0000
0000
0301
0000
0100
1000
0010
0100
0000
0100
0010
1000
0001
0010
1000
0010
,
0000
0010
0001
0100
1000
0100
0001
0010
0000
0010
0001
0100
0001
1000
0100
1000
,
0000
1000
0001
0010
0001
0100
0010
1000
0000
1000
0001
0010
0100
0010
0001
1000
,
0000
0000
0001
0000
0100
0000
0010
0000
1000
0000
0100
0000
0010
0000
0100
0000
0000
0000
0100
0000
1000
0000
0001
0000
0100
0010
1000
0001
1000
0000
0000
0000
,
1000
0100
0001
0100
1000
0010
0100
0001
2000
0000
3100
0000
0100
0000
1000
0010
,
0100
0001
1000
0001
0010
0100
0020
0000
0130
0000
0010
0000
0001
0000
0100
0000
,
0110
0000
0010
1000
0001
0000
0010
0000
1000
0000
0010
0001
0100
0000
0010
0000
,
1000
0001
0010
1000
0010
0001
1001
0000
,
0110
0000
0000
0010
0100
0010
1000
0010
0100
0010
1000
0100
0010
0001
1000
0001
,
0010
0000
0000
0001
0010
0100
1000
0001
1000
0001
1000
0000
1000
0010
1000
0001
,
0010
0100
0010
0001
1000
0001
1000
0010
1000
0100
0010
0100
1000
0001
0010
0100
,
1000
0000
0100
0000
0010
0000
0100
0000
1100
0000
0000
0000
0000
0000
0011
0000
0000
0000
0000
0210
0000
0000
0000
0000
0000
0000
0000
0000
0000
0000
0000
0000
,
0000
0000
0000
0000
0000
0000
0000
0300
2002
0000
0000
0000
0000
0000
0000
0000
0000
0000
0000
0000
0000
0000
0000
0000
0000
0000
0000
0000
3003
0000
0000
0000
0000
0000
0000
0000
0000
0000
0000
0000
0000
0000
0000
0000
0000
0000
0000
0000
0000
0000
0000
0000
0000
0000
0000
0000
0000
0000
0000
0000
0000
0000
0000
0000
;

//---------------dance-single - ----------------
#NOTES:
     dance-single:
     :
     Medium:
     7:
     0.377,0.465,0.311,0.115,0.004:
0000
0000
0000
0000
,
0000
0000
0000
0000
,
0000
0000
0000
0000
,
0000
0000
0000
0000
,
0000
0000
0010
1000
0010
1000
0000
0000
,
0000
0000
0100
0010
0100
0010
0000
0000
,
0000
0000
0010
0001
0010
0001
0000
0000
,
0000
0000
0001
0100
0001
0100
0000
0000
,
0000
0101
1100
0101
,
1100
0011
1010
0011
,
1010
1001
0110
1001
,
0110
0101
1010
1100
,
0110
0000
0010
0001
0010
0000
0001
0100
,
0001
0000
0100
0010
0100
0000
0010
1000
,
0010
0000
1000
0100
0010
0001
0010
0100
,
1000
0010
0200
0000
0000
0000
0000
0000
,
0000
0310
1000
0100
,
1000
0010
0100
0001
,
1000
1001
0101
0022
,
0033
0001
0010
0100
,
0100
0000
0000
0010
0100
0010
0000
0100
,
1000
0001
0100
0100
0100
0000
0020
0000
,
0000
0000
0130
0000
0010
1000
0001
0000
,
0000
0000
1000
0000
0001
0000
0100
0010
,
0100
0010
0100
0100
0010
0100
0010
0000
,
1000
1010
0000
1000
,
0100
0000
0220
0000
0330
0000
0010
0001
,
0010
0000
0001
0100
0010
0000
0001
0100
,
1000
0100
0020
0000
0000
0000
0130
0000
,
0010
0000
2002
3003
0001
0000
0100
0000
,
2020
3030
2002
0000
0000
0000
0000
0000
,
0000
0000
0000
0000
,
0000
0000
0000
0000
,
0000
0000
0000
0000
,
0000
0000
0000
0000
,
3003
0000
0000
0001
,
1000
0010
1000
0010
,
0001
0010
0100
1010
,
0010
0110
1001
0011
,
0100
0000
1100
0000
0010
0000
0100
0010
,
0100
0000
0010
1000
0010
0000
0100
0010
,
0100
0000
0100
0001
0100
0000
0001
0010
,
0001
0000
0010
0100
0010
0000
0100
1000
,
0100
0000
1000
0010
1000
0000
0010
0100
,
0000
1010
0000
0011
0000
1100
0000
0110
,
0000
0011
0000
0110
0000
0011
0001
0010
,
0100
1000
0100
0010
0001
1000
0001
0000
,
0000
0000
1000
0001
0100
0000
0001
1000
,
0010
0000
0010
1000
0100
0000
0100
1000
,
0010
0000
0100
0010
1000
0000
0010
0100
,
0001
0000
0001
0010
0100
0010
0001
0000
,
0000
0000
0001
0100
0010
1000
0001
0010
,
0100
0000
0010
1000
0100
0010
0001
0010
,
0100
0000
0100
1000
0100
0000
0100
0010
,
0100
0000
0010
0001
0010
0100
1000
0000
,
0001
0100
0010
1000
0001
0000
0000
0001
,
0100
0010
1000
0001
0000
0000
0001
0000
,
1001
0000
0001
0100
1000
0000
1000
0100
,
0010
1000
0001
0010
1000
0000
0010
0000
,
0110
0000
0010
0001
0100
0000
0001
0100
,
1000
0000
1000
0100
0010
0000
0010
0100
,
0010
0100
0010
0100
0010
0100
0001
0010
,
0100
0000
1000
0000
0001
0000
0000
1000
0000
0000
0020
0000
0000
0000
0000
0000
,
0000
0030
0000
0000
0000
0000
0000
0000
;

//---------------dance-single - ----------------
#NOTES:
     dance-single:
     :
     Easy:
     5:
     0.258,0.439,0.205,0.196,0.000:
0000
0000
0000
0000
,
0000
0000
0000
0000
,
0000
0000
0000
0000
,
0000
0000
0000
0000
,
0000
2002
0000
0000
,
0000
0000
0000
0000
,
0000
3003
0000
0000
,
0000
0000
0000
0000
,
0010
2000
0000
0000
,
3001
0002
0000
0000
,
0100
0203
0000
0000
,
0010
0320
0000
2030
,
0000
0200
0000
0000
,
0000
0000
0000
0000
,
3300
1000
0100
0010
,
0001
0220
0000
0000
,
0330
0000
2002
3003
0001
0000
1000
0000
,
0001
0100
0001
0010
,
0100
1000
0100
0000
1000
0000
0020
0000
,
0000
0130
0010
1000
,
1000
0001
1000
0100
,
1000
0000
0010
0100
0010
0000
0200
0000
,
0000
0301
1000
0200
,
0000
0000
0310
0010
,
0001
1000
0001
0100
,
0010
1000
0000
0010
,
0100
0002
0000
1003
,
0001
0100
0001
0010
,
0010
0020
0000
0130
,
1000
0100
0100
0010
,
0001
1001
0000
0000
,
0000
0000
0000
0000
,
0000
0000
0000
0000
,
0000
0000
0000
0000
,
0000
0000
0000
0000
,
0000
0000
0000
0001
,
0100
0010
1000
0100
,
1000
0010
0100
0010
,
1000
0001
0001
1000
,
0000
1000
0010
0100
,
0010
0010
0100
0010
,
1000
0001
0010
1000
,
0010
0001
0100
1000
,
0100
0010
1000
0001
,
0001
1000
1000
0010
,
0010
0100
0100
0010
,
0100
0001
1000
1001
,
0000
0101
0100
0110
,
0100
0110
0010
1010
,
1000
0110
0100
0110
,
1000
0110
1001
0110
,
0000
0102
0013
0102
,
1003
2001
3010
2100
,
3100
0120
1030
0120
,
0031
0110
1001
0110
,
0010
0000
1000
0000
1010
0000
0000
0010
,
0000
1000
0000
1100
0000
0000
1000
0000
,
0100
0001
0100
0010
,
0010
0001
0001
0100
,
1000
0100
0001
0010
,
0100
0010
0001
0100
,
1000
0100
0010
1000
,
0001
0010
0200
0000
,
0000
0300
0000
0000
0000
0000
0000
0000
;

//---------------dance-single - ----------------
#NOTES:
     dance-single:
     :
     Beginner:
     2:
     0.110,0.205,0.049,0.000,0.000:
0000
0000
0000
0000
,
0000
0000
0000
0000
,
0000
0000
0000
0000
,
0000
0000
0000
0000
,
0000
1001
0000
0000
,
0000
0000
0000
0000
,
0000
0000
0000
0000
,
0000
0000
0000
0000
,
0000
0010
0000
0000
,
1000
1000
0000
0000
,
0001
0001
0000
0000
,
0100
0100
0000
0010
,
0000
1000
0000
0000
,
0000
0001
0000
0000
,
0000
1000
0000
0000
,
0000
0010
0000
0000
,
0000
1001
0000
0000
,
0000
0000
0000
0000
,
0000
0010
0000
0100
,
0000
0010
0000
0000
,
0000
1000
0000
1000
,
0000
0001
0000
1000
,
1000
1000
0000
0010
,
0000
0100
0100
0010
,
0100
0010
0100
0001
,
0001
0001
0000
1000
,
1000
1000
0000
0010
,
0000
0100
0000
0001
,
0001
0001
0000
0000
,
0000
1001
0000
0000
,
0110
0000
0000
0000
,
0000
0000
0000
0000
,
0000
0000
0000
0000
,
0000
0000
0000
0000
,
0000
0000
0000
0000
,
0000
0000
0000
0010
,
0000
0010
0000
0100
,
0000
0100
0000
0001
,
0000
0000
0000
1000
,
0000
0000
0000
0001
,
0000
0000
0000
1000
,
0000
0010
0000
1000
,
0000
0100
0000
0010
,
0000
0001
0000
1000
,
0000
0000
0000
0001
,
0000
0001
0000
0100
,
0000
0000
0000
0010
,
0000
1000
0000
0000
,
0000
0001
0000
0001
,
0000
0100
0000
0000
,
0000
0010
0000
0110
,
0000
1001
0000
0000
,
0000
1000
0000
0001
,
0000
1000
0000
0000
,
0000
0010
0000
0100
,
0010
0000
0000
0000
0000
0000
0000
1000
,
0000
0000
0000
0001
,
0000
0001
0000
1000
,
1000
1000
0000
0010
,
0000
0000
0000
0100
,
0000
0000
0000
0001
,
0000
1000
0000
0010
,
0100
0001
1000
0000
;
