#TITLE:RYDEEN;
#SUBTITLE:;
#ARTIST:YMO;
#TITLETRANSLIT:;
#SUBTITLETRANSLIT:;
#ARTISTTRANSLIT:;
#CREDIT:;
#BANNER:bn.png;
#BACKGROUND:bg.png;
#LYRICSPATH:;
#CDTITLE:;
#MUSIC:RYDEEN.mp3;
#OFFSET:-0.024;
#SAMPLESTART:18.480;
#SAMPLELENGTH:12.000;
#SELECTABLE:YES;
#BPMS:0.000=142.850;
#STOPS:;
#BGCHANGES:0.000=movie 1.avi=1.000=0=0=1,
99999=-nosongbg-=1.000=0=0=0 // don't automatically add -songbackground-
;

//---------------dance-single - ----------------
#NOTES:
     dance-single:
     :
     Hard:
     7:
     0.340,0.424,0.078,0.252,0.000:
0000
0000
0000
0000
,
0000
0000
0000
0000
,
0000
0000
1000
0001
,
0020
0000
0000
0000
,
0030
0100
0010
0001
1000
0100
0001
0100
,
0020
0000
0000
0000
0000
0100
0000
0100
,
0000
0030
0100
0010
,
0002
0000
0000
0000
,
0003
1000
0001
0010
0001
0010
1000
0010
,
0200
0000
0000
0000
,
0000
0000
0000
0300
0000
0000
0000
0000
,
1000
0000
0001
0100
0001
0010
0000
0001
,
0010
0100
1000
0100
0001
0100
0000
0000
,
0010
0000
0100
1000
0010
0100
0000
0010
,
0001
0010
1000
0010
0001
0000
0001
0100
,
0020
0000
0000
0000
0030
0100
0100
0001
,
2000
0000
3001
1000
,
0020
0000
0000
0000
0030
0100
0000
0002
,
2000
0000
0000
0000
0000
0000
0000
3003
,
0001
0010
0001
0010
0100
0000
0000
0100
,
0000
0100
0010
0100
1000
0000
0000
0000
,
1000
0010
1000
0010
1000
0000
0000
0010
,
0000
0100
0010
0100
0010
0100
0001
0010
,
0100
1000
0100
1000
0100
0000
0000
1000
,
0000
1000
0010
1000
0010
0000
0000
0100
,
0100
0001
0010
0001
1000
0000
0000
0001
,
0000
1000
0100
1000
0010
0000
0000
0100
,
0010
1000
0010
1000
0001
0000
0000
0001
,
0000
0010
0100
1000
0100
0010
0001
0100
,
0020
0130
0200
0310
,
1001
1001
0000
0000
0002
0000
2003
0000
,
3100
1100
0000
0000
0000
0000
0000
2000
,
0000
3000
0000
0000
,
0001
0001
0000
0000
0000
0000
0000
0010
,
0100
0100
0000
0000
0000
0000
0000
0100
,
1000
1000
0001
0100
,
0001
0001
0010
0100
,
0010
0010
0001
1000
,
0010
0010
0100
0001
,
1000
0001
0100
1000
,
0100
0010
0010
0001
,
0010
1000
0010
0100
,
0010
1000
0001
0010
,
0100
1000
0100
0001
,
0100
1000
0010
0001
,
0010
0100
0010
1000
,
0001
0100
0010
1000
0001
0010
1000
0010
,
0002
0000
0000
0203
0000
0000
2300
0000
,
0000
3100
0010
1000
0001
0010
1000
0010
,
0200
0000
0000
0000
0000
0010
0000
0020
,
0000
0330
0110
1001
,
0220
0000
0000
0330
,
0000
0010
0100
1000
0100
0001
0100
1000
,
0200
0000
0000
0000
,
0000
0000
0000
0300
0110
0000
1001
0000
,
0201
0000
0000
0000
0000
0000
0000
0300
,
0000
0010
1000
0001
0010
0100
0010
0001
,
2000
0000
0000
0000
,
0000
3000
0002
0203
,
0020
0000
0000
0000
,
0330
0010
1000
0001
0010
0100
0010
0100
,
2000
0000
0000
0000
,
0000
0000
3001
0100
,
0020
0000
0000
0000
,
0000
0000
0000
0000
,
0030
0000
0000
0000
;

//---------------dance-single - ----------------
#NOTES:
     dance-single:
     :
     Medium:
     4:
     0.243,0.311,0.043,0.165,0.000:
0000
0000
0000
0000
,
0000
0000
0000
0000
,
0000
0000
0001
1000
,
0020
0000
0000
0030
,
0000
0000
0100
0000
0001
0000
1000
0001
,
0200
0000
0000
0000
,
0000
0300
0010
1000
,
0020
0000
0000
0000
,
0030
0000
0100
0000
0001
0000
1000
0001
,
0020
0000
0000
0000
,
0000
0030
0100
0100
,
0010
0001
1000
0000
,
0001
0000
0100
0010
1000
0001
0000
0000
,
1000
0100
0100
0000
,
1000
0010
0100
0001
0100
0000
0001
0000
,
0020
0000
0030
0100
,
2000
0000
3100
1000
,
0002
0000
0000
0100
,
0200
0000
0000
0303
,
0001
0000
1000
0000
0010
0000
0000
0100
,
0000
0010
1000
0000
0010
0000
0000
0000
,
0100
0000
0001
0000
1000
0000
0000
0100
,
0000
1000
0000
0010
0100
0000
0010
0000
,
1000
0000
0001
0000
0010
0000
0000
0100
,
0000
0100
0000
0100
0010
0000
0000
0000
,
0001
0000
1000
0000
0010
0000
0000
0100
,
0000
0001
0000
1000
0001
0000
0000
1000
,
0100
0000
0100
0000
0100
0000
0000
1000
,
0000
0010
0000
0100
0010
0000
1000
0000
,
0001
0010
0100
1000
,
0100
0100
0000
0000
1000
0000
0010
0000
,
0100
0100
0000
0000
0000
0000
0000
0000
,
0000
0000
0000
0000
,
0010
0000
0000
0000
,
0100
0000
0000
0000
,
0001
0001
0001
0001
,
1000
1000
1000
1000
,
0010
0010
0010
0010
,
0100
0100
0100
0100
,
0001
1000
0100
1000
,
0001
0100
0001
1000
,
0001
0010
0001
1000
,
0010
0100
0010
1000
,
0001
0010
0100
0010
,
0001
0100
1000
0100
,
0010
1000
0001
0010
,
0110
1001
0110
1001
,
0120
0000
0000
0030
,
0000
0000
0001
0000
0010
0000
0100
1000
,
0020
0000
0000
0000
,
0000
0030
0100
0002
,
2000
0000
0000
3003
,
0000
0000
0001
0000
1000
0000
0010
1000
,
0200
0000
0000
0000
,
0000
0300
0010
0001
,
2000
0000
0000
0000
,
3000
0001
0100
0001
,
0020
0000
0000
0000
,
0000
0030
0100
1000
,
0200
0000
0000
0000
,
0300
1000
0010
0100
,
0020
0000
0000
0000
,
0000
0030
0100
0002
,
2000
0000
0000
0000
,
0000
0000
0000
0000
,
3003
0000
0000
0000
;

//---------------dance-single - ----------------
#NOTES:
     dance-single:
     :
     Easy:
     2:
     0.155,0.198,0.000,0.148,0.000:
0000
0000
0000
0000
,
0000
0000
0000
0000
,
0000
0000
0001
0001
,
0020
0000
0000
0030
,
0000
0010
0001
1000
,
0200
0000
0000
0000
,
0300
0000
1000
1000
,
0020
0000
0000
0030
,
0000
0100
0001
1000
,
0020
0000
0000
0000
,
0000
0000
0030
0000
,
0100
0100
0010
0000
,
0100
0001
1000
0000
,
0001
0001
0010
0000
,
0001
1000
0100
0000
,
2000
0000
3000
0000
,
0002
0000
0103
0010
,
2000
0000
0000
0000
,
0002
0000
0000
3003
,
0001
0001
0001
0000
,
1000
0000
0010
0000
,
0100
0100
0100
0000
,
0010
0000
1000
0000
,
0001
0001
0001
0000
,
1000
0000
0100
0000
,
1000
1000
1000
0000
,
0010
0000
0100
0000
,
0001
0001
0001
0000
,
1000
0000
0001
0000
,
0010
0000
0100
0000
,
1000
0000
0001
0001
,
0100
0000
0000
0000
,
0000
0000
0000
0000
,
0000
0000
0000
0000
,
0000
0000
0000
0000
,
0010
0000
0000
0000
,
1000
0000
0000
0000
,
0001
0000
0000
0000
,
0010
0000
0000
0000
,
0001
0000
0100
0000
,
0010
0000
1000
0000
,
0001
0000
1000
0000
,
0010
0000
0100
0000
,
0010
0000
0100
0000
,
0001
0000
1000
0000
,
0001
0000
1000
0000
,
0001
0100
0010
1000
,
0200
0000
0000
0300
,
0000
1000
0001
0100
,
0002
0000
0000
0000
,
0000
0003
1000
0001
,
0020
0000
0000
0000
,
0030
0100
1000
0100
,
0020
0000
0000
0000
,
0000
0030
0001
1000
,
0200
0000
0000
0000
,
0000
0000
0000
0000
,
0020
0000
0000
0000
,
0330
0000
0010
0001
,
2000
0000
0000
0000
,
0000
0000
0000
0000
,
0002
0000
0000
0000
,
0000
3003
0001
0100
,
0020
0000
0000
0000
,
0000
0000
0000
0000
,
0030
0000
0000
0000
;

//---------------dance-single - ----------------
#NOTES:
     dance-single:
     :
     Beginner:
     1:
     0.084,0.137,0.009,0.000,0.000: // measure 1
0000
0000
0000
0000
,  // measure 2
0000
0000
0000
0000
,  // measure 3
0000
0000
0000
0000
,  // measure 4
0010
0000
0000
0000
,  // measure 5
0000
1000
0000
0001
,  // measure 6
0001
0000
0000
0000
,  // measure 7
0000
0000
0000
0000
,  // measure 8
0100
0000
0000
0000
,  // measure 9
0000
0001
0000
1000
,  // measure 10
1000
0000
0000
0000
,  // measure 11
0000
0000
0000
0000
,  // measure 12
0100
0000
0000
0000
,  // measure 13
1000
0000
0000
0000
,  // measure 14
0001
0000
0000
0000
,  // measure 15
0010
0000
0000
0000
,  // measure 16
0001
0000
0000
0000
,  // measure 17
1000
0000
0001
0001
,  // measure 18
0100
0000
0000
0000
,  // measure 19
0010
0000
0000
0000
,  // measure 20
0100
0000
0000
0000
,  // measure 21
0001
0000
0000
0000
,  // measure 22
1000
0000
0000
0000
,  // measure 23
1000
0000
0000
0000
,  // measure 24
0001
0000
0000
0000
,  // measure 25
0100
0000
0000
0000
,  // measure 26
0001
0000
0000
0000
,  // measure 27
1000
0000
0000
0000
,  // measure 28
0100
0000
0000
0000
,  // measure 29
1000
0000
0000
0000
,  // measure 30
0010
0000
0100
0000
,  // measure 31
1001
0000
0010
0010
,  // measure 32
0100
0000
0000
0000
,  // measure 33
0000
0000
0000
0000
,  // measure 34
0000
0000
0000
0000
,  // measure 35
0000
0000
0000
0000
,  // measure 36
0010
0000
0000
0000
,  // measure 37
1000
0000
0000
0000
,  // measure 38
0001
0000
0000
0000
,  // measure 39
0100
0000
0000
0000
,  // measure 40
0001
0000
0000
0000
,  // measure 41
1000
0000
0000
0000
,  // measure 42
0010
0000
0000
0000
,  // measure 43
0100
0000
0000
0000
,  // measure 44
0001
0000
0000
0000
,  // measure 45
1000
0000
0000
0000
,  // measure 46
0001
0000
0000
0000
,  // measure 47
0100
0000
0010
0010
,  // measure 48
0010
0000
0000
0000
,  // measure 49
0000
0100
0000
0010
,  // measure 50
0010
0000
0000
0000
,  // measure 51
0000
0000
1000
1000
,  // measure 52
1000
0000
0000
0000
,  // measure 53
0000
0001
0000
0100
,  // measure 54
0100
0000
0000
0000
,  // measure 55
0000
0000
0100
0100
,  // measure 56
0001
0000
0000
0000
,  // measure 57
0000
0000
0000
0000
,  // measure 58
0000
0000
0000
0000
,  // measure 59
0000
0000
1000
1000
,  // measure 60
1000
0000
0000
0000
,  // measure 61
0000
0000
0000
0000
,  // measure 62
0000
0000
0000
0000
,  // measure 63
0000
0000
0100
0100
,  // measure 64
0010
0000
0000
0000
;
