#TITLE:Quark;
#SUBTITLE:;
#ARTIST:Hate vs Brillance;
#TITLETRANSLIT:;
#SUBTITLETRANSLIT:;
#ARTISTTRANSLIT:;
#CREDIT:;
#BANNER:bn.png;
#BACKGROUND:bg.png;
#LYRICSPATH:;
#CDTITLE:;
#MUSIC:quark-hatevsbri.mp3;
#OFFSET:-1.377;
#SAMPLESTART:80.000;
#SAMPLELENGTH:12.000;
#SELECTABLE:YES;
#BPMS:0.000=180.020;
#STOPS:160.000=2.333
,325.000=0.167
;
#BGCHANGES:;

//---------------dance-single - ----------------
#NOTES:
     dance-single:
     :
     Hard:
     9:
     0.616,0.671,0.298,0.102,0.034:
0001
0001
0001
0001
,
1000
1000
1000
1000
,
0010
0010
0010
0010
,
0100
0100
0100
0100
,
0001
1000
0100
0010
,
0100
0010
0001
0010
,
0100
0010
0001
1000
,
0001
0100
0010
1000
0100
0010
0100
0010
,
0001
0100
0010
1000
0100
1000
0100
0000
,
1000
0001
0100
0010
0100
0001
0010
0000
,
0100
1100
0100
0101
,
0001
0100
0010
1000
0001
0010
0100
0010
,
0001
0100
0010
1000
0100
0010
0100
0000
,
0010
0001
0010
0100
0010
0001
0100
0000
,
0001
1010
0010
0110
,
0100
0010
1000
0001
1000
0100
0001
0100
,
0010
0001
0010
0000
1100
0000
0101
0000
,
0001
0100
0010
0000
0110
0000
0101
0000
,
1001
1100
1001
0101
,
0001
0100
1000
0100
0010
1000
0010
1000
,
0100
0010
0001
0000
0010
0000
0011
0000
,
0001
0100
0010
0000
0100
0000
0110
0000
,
0010
1000
0001
0000
0001
0010
1000
0000
,
1000
0010
0100
1000
0100
0010
0001
0010
,
1000
0010
1010
0000
,
0010
0001
0101
0000
,
0001
0100
0110
0000
,
0010
1000
0101
0000
,
0001
0000
0100
0010
1010
0000
0000
0000
,
0010
0000
0100
0001
1001
0000
0000
0000
,
0001
0000
0001
1000
1010
0000
0000
0000
,
0100
0000
0100
0010
1010
0000
0000
0000
,
0010
1000
0010
1000
0010
1000
0010
1000
,
0001
0100
0001
0100
0001
0100
0001
0000
,
0001
0010
0001
0010
0001
0010
0001
0010
,
0100
1000
0100
1000
0100
1000
0100
0000
,
1000
0001
0100
0001
0000
0001
0100
0010
,
0100
0100
0010
1000
0001
0010
0100
0000
,
0010
0001
0100
0010
0000
0100
0010
1000
,
0001
0000
0000
0000
0000
0000
0000
0000
0010
0000
0000
0000
0000
0000
0000
0000
0001
0000
0000
0000
0000
0000
0000
0000
1000
0000
0000
0000
0000
0000
0000
0000
0010
0000
0000
0000
0000
0000
0000
0000
1000
0000
0000
0000
0000
0000
0000
0000
0200
0000
0000
0000
0000
0000
0000
0000
0000
0000
0000
0000
0000
0000
0000
0020
,
0030
0300
0000
0000
0000
0000
0000
0000
0000
0000
0000
0000
0000
0000
0000
0000
0200
0000
0000
0000
0000
0000
0000
0000
0000
0000
0000
0000
0000
0000
0000
0000
0000
0000
0000
0000
0000
0000
0000
0000
0000
0000
0000
0000
0000
0000
0000
0000
0000
0000
0000
0000
0000
0000
0000
0000
0000
0000
0000
0000
0000
0000
0000
0000
,
0000
0320
0000
0000
,
0000
0032
0000
0000
,
0000
2003
0000
0000
,
0000
3002
0000
0000
,
0000
0203
0000
0000
,
0000
0302
0000
0000
,
0000
0000
1003
0001
1000
0001
1000
0001
,
1000
0001
1001
0000
0101
0000
0000
0001
,
0000
0100
0000
0000
0010
0000
0000
0010
,
0000
0100
0110
0000
0110
0000
0000
0010
,
0000
1000
0000
0000
0001
0000
1000
0001
,
0100
0001
0101
0000
1001
0000
0000
0001
,
0000
0100
0110
0000
0110
0000
0000
0100
,
0000
0001
1001
0000
1100
0000
1001
0000
,
0101
0000
0001
0100
1000
0100
0010
1000
,
0001
0010
0200
0000
0000
0000
0000
0000
,
0000
0000
0310
0001
0010
0001
0010
0100
,
1000
0100
0000
1000
0100
0010
0001
0010
,
0100
0010
0000
0010
0100
0010
0001
1000
,
0001
1000
0000
0001
0100
0010
0100
0010
,
1000
0010
0000
0010
0100
0010
0100
0001
,
0010
0100
0000
0100
1000
0100
0010
0100
,
1000
0010
0000
0010
0100
0001
1000
0001
,
0100
0001
0000
0001
0100
1000
0100
0010
,
1000
0010
0100
0010
1000
0001
0010
0100
,
1000
0100
0000
1000
0100
0001
0100
1000
,
0010
0100
0000
0010
0001
0010
1000
0010
,
0100
0010
0000
0100
1000
0100
0001
0010
,
1000
0010
0000
0010
0100
1000
0100
0010
,
0100
1000
0000
0100
0010
0001
0010
0100
,
0010
0001
0000
0010
0001
0100
0010
1000
,
0001
0100
0000
0001
0100
1000
0100
0010
,
1000
0001
0100
0001
0100
0010
1000
0001
,
0100
0010
1000
0100
0010
0100
1000
0010
,
0100
0001
0010
0100
0010
0001
0010
0100
,
0001
1000
0001
0100
0001
1000
0010
1000
,
0010
0100
0010
1000
0001
0010
0100
1000
,
0100
1000
0010
0100
0010
0100
0001
1000
,
0010
0100
0001
0010
0100
1000
0001
0010
,
0100
0000
1000
0000
0001
0100
0001
0100
0001
0100
0001
0100
0001
0100
0001
0100
,
0001
0100
0001
0000
0000
0000
2002
0000
0000
0000
0000
0000
0000
0000
0000
0000
,
0000
0000
0000
0000
0000
0000
0000
3003
;

//---------------dance-single - ----------------
#NOTES:
     dance-single:
     :
     Medium:
     7:
     0.482,0.520,0.307,0.085,0.000:
0001
0001
0001
0001
,
1000
1000
1000
1000
,
0010
0000
0100
0000
,
0010
0010
0100
0100
,
0001
0100
0001
0100
,
0010
0100
0010
0100
,
0010
1000
0010
1000
,
0010
0100
0001
1001
,
0101
0000
0101
0000
0001
0100
0010
0000
,
0100
0000
0010
0000
1000
0010
0100
0000
,
0110
1001
0110
1001
,
0001
0100
0001
0000
0100
0001
0100
0000
,
0001
0000
0100
0000
0010
1000
0010
0000
,
0100
0000
0010
0000
0100
0001
1000
0000
,
1000
0100
0010
0001
,
0001
0010
0100
0000
0100
1000
0010
0000
,
0100
0010
0100
0000
0010
0000
1000
0000
,
0001
0010
0100
0000
0100
1000
0010
0000
,
0110
0000
0101
0000
0001
1000
0010
0000
,
0100
0100
0010
0010
,
1000
0010
0100
0000
0010
0000
1000
0000
,
0001
0010
0100
0000
0010
0000
0001
0000
,
0001
0010
0100
0000
0100
1000
0010
0000
,
0100
0010
0100
0010
0100
0010
0100
0010
,
0100
0001
1001
0000
,
0001
1000
1010
0000
,
1000
0100
1100
0000
,
1000
0001
0011
0000
,
0001
0100
0101
0000
,
0001
0100
1010
0000
,
0010
0100
0101
0000
,
0001
1000
1001
0000
,
0001
1000
0010
0000
0100
0000
0000
0000
,
0010
1000
0010
0000
0100
0000
0000
0000
,
0100
0001
0100
0000
0100
0000
0000
0000
,
0001
0100
0010
0000
0100
0000
0000
0000
,
0010
0100
0010
0000
0100
0010
0100
0000
,
0010
1000
0010
0000
0100
0010
0100
0000
,
0001
0100
0001
0000
0100
0010
0100
0000
,
0010
1000
0001
0100
0010
1000
0001
0100
,
0010
0200
0000
0000
,
0300
0002
0000
0000
,
0003
2000
0000
0000
,
3000
0020
0000
0000
,
0030
0200
0000
0000
,
0300
0020
0000
0000
,
0030
2000
0000
0000
,
3000
0002
0000
0000
,
0000
1003
0101
0000
,
0000
0000
0000
0000
,
0000
0100
0101
0000
1010
0000
0000
0000
,
0000
0000
0000
0000
,
0000
0110
1001
0000
,
0000
1010
0101
0000
,
0000
0101
0000
1010
,
0000
0110
1001
0101
,
1010
2200
0000
0000
,
3300
0000
1000
0000
0100
0000
0010
0001
,
0010
0000
0001
0000
0100
0000
0010
0100
,
0010
0000
0100
0000
0010
0000
1000
0010
,
1000
0000
0010
0000
0100
0000
0001
0100
,
0001
0100
0001
0000
0100
0000
0010
1000
,
0001
0000
1000
0000
0001
0000
0001
0100
,
0010
0000
0100
0000
0010
0000
1000
0010
,
0100
0110
0110
1001
,
1001
0000
0001
0100
0010
0000
0100
0010
,
1000
0000
0010
0100
0001
0000
0001
1000
,
0001
0000
0001
1000
0010
0000
0010
1000
,
0010
0000
0010
0100
0001
1000
0010
0100
,
0001
1000
0001
0100
0010
0000
0100
0010
,
1000
0000
1000
0010
0100
0000
0100
0010
,
1000
0000
0001
1000
0001
0000
0001
0100
,
0001
0000
0001
0100
0010
0000
0100
0010
,
1000
0000
0010
0100
0010
0100
0010
0100
,
0010
0000
0001
1000
0001
1000
0001
1000
,
0001
0000
0100
0001
0100
0001
0100
0001
,
0100
0000
0010
0100
0010
0100
0010
0100
,
0010
0000
0010
1000
0001
0000
0001
0010
,
0100
0000
1000
0100
0001
0000
0001
0100
,
1000
0000
1000
0010
0001
0000
0001
0010
,
0100
0000
0010
0100
0001
1000
0010
0100
,
0001
0010
0000
1100
0000
0000
0000
0000
;

//---------------dance-single - ----------------
#NOTES:
     dance-single:
     :
     Easy:
     4:
     0.327,0.424,0.162,0.196,0.000:
0001
0000
1000
0000
,
0010
0000
0100
0000
,
0001
0000
1000
0000
,
0100
0000
1000
0000
,
0010
0000
0100
0000
,
0010
0010
0100
0100
,
0001
0000
1000
0000
,
2002
0000
0000
3003
,
0001
0100
0010
0100
,
0001
0100
0010
1000
,
0010
0010
0100
0100
,
0010
1000
0001
0010
,
0100
0010
0001
1000
,
0010
1000
0010
0100
,
0010
1000
0001
0010
,
0100
0100
0010
0010
,
0110
0010
0001
1000
,
0010
0100
0010
1000
,
0010
0010
0100
0100
,
0001
1000
0100
1000
,
0001
0100
0010
0010
,
0100
0001
0010
0100
,
1000
0100
1000
0010
,
0100
0100
0010
0010
,
0200
0000
0000
0000
,
0302
0000
0000
0000
,
2003
0000
0000
0000
,
3200
0000
0000
0000
,
2300
0000
0000
0000
,
3020
0000
0000
0000
,
0230
0000
0000
0000
,
0302
0000
0000
0000
,
2003
0000
0001
0001
,
3002
0000
0100
0100
,
0203
0000
0010
0010
,
0320
0000
1000
1000
,
2030
0000
0001
0000
,
0001
0000
0001
0000
,
3002
0000
0103
0000
,
0100
0010
1000
0001
,
1001
0020
0000
0000
,
0000
0000
0000
0000
,
0000
0000
0000
0000
,
0000
0000
0000
0000
,
0030
0200
0000
0000
,
0000
0000
0000
0000
,
0000
0000
0000
0000
,
0000
0020
0000
0000
,
0330
1001
1001
0000
,
0000
0000
0000
0000
,
0000
0110
0110
0000
,
0000
0000
0000
0000
,
0000
1001
1001
0000
,
0000
0110
0110
0000
,
0000
1001
0000
0110
,
0000
1001
0110
1001
,
0110
2002
0000
0000
,
3003
0001
1000
0010
,
0010
1000
0001
0010
,
0010
0001
1000
0010
,
0010
1000
0010
0100
,
0001
1000
0001
0100
,
0100
0001
1000
0100
,
0100
1000
0001
0100
,
0100
0001
0100
0010
,
1000
0100
1000
0010
,
0010
0100
0001
0010
,
0010
0100
1000
0010
,
0010
0100
0001
1000
,
0001
1000
0001
0100
,
0100
0001
0010
0100
,
0100
1000
0010
0100
,
0100
0010
1000
0010
,
0010
0100
0001
0100
,
0001
0100
0010
0100
,
0010
1000
0010
1000
,
0010
0100
0010
0100
,
0010
0100
0001
1000
,
0100
0010
0100
1000
,
0010
0100
0001
1000
,
0010
0100
0010
1000
,
0001
0000
0000
2002
0000
0000
0000
0000
,
0000
0000
0000
0000
,
3003
0000
0000
0000
;

//---------------dance-single - ----------------
#NOTES:
     dance-single:
     :
     Beginner:
     2:
     0.185,0.416,0.145,0.009,0.000: // measure 1
0000
0000
0000
0000
,  // measure 2
1000
0000
0000
0000
,  // measure 3
0010
0000
0000
0000
,  // measure 4
0100
0000
0100
0000
,  // measure 5
0010
0000
0000
0000
,  // measure 6
1000
0000
0000
0000
,  // measure 7
0001
0000
0001
0000
,  // measure 8
1000
0000
0000
0000
,  // measure 9
0010
0000
0000
0000
,  // measure 10
0100
0000
0000
0000
,  // measure 11
0001
0000
1000
0000
,  // measure 12
0010
0000
0010
0000
,  // measure 13
0100
0000
0000
0000
,  // measure 14
0100
0000
0000
0000
,  // measure 15
0001
0000
0000
0000
,  // measure 16
1000
0000
1000
0000
,  // measure 17
1001
0000
0000
0000
,  // measure 18
0010
0000
0000
0000
,  // measure 19
0100
0100
0000
0010
,  // measure 20
0100
0100
0010
0010
,  // measure 21
0100
0000
0000
0000
,  // measure 22
0001
0000
0000
0000
,  // measure 23
1000
0000
0000
0000
,  // measure 24
1000
0000
0001
0000
,  // measure 25
0100
0000
0000
0000
,  // measure 26
0010
0000
0000
0000
,  // measure 27
1000
0000
0000
0000
,  // measure 28
0001
0000
0000
0000
,  // measure 29
1000
0000
0000
0000
,  // measure 30
0100
0000
0000
0000
,  // measure 31
0010
0000
0000
0000
,  // measure 32
0001
0001
0001
0000
,  // measure 33
0100
0000
0000
0000
,  // measure 34
0000
0000
0000
0000
,  // measure 35
0010
0010
0000
0000
,  // measure 36
0000
0000
0000
0100
,  // measure 37
0100
0100
0000
0010
,  // measure 38
0000
0100
0000
0001
,  // measure 39
1000
1000
0001
0001
,  // measure 40
1000
0000
0001
0000
,  // measure 41
0110
0100
0000
0000
,  // measure 42
0000
0000
0000
0000
,  // measure 43
0000
0000
0000
0000
,  // measure 44
0000
0000
0000
0000
,  // measure 45
0000
0010
0000
0000
,  // measure 46
0000
0100
0000
0000
,  // measure 47
0000
0001
0000
0000
,  // measure 48
0000
1000
0000
0000
,  // measure 49
0000
1001
1001
0000
,  // measure 50
0000
0000
0000
0000
,  // measure 51
0000
1001
1001
0000
,  // measure 52
0000
0000
0000
0000
,  // measure 53
0000
1001
1001
0000
,  // measure 54
0000
1001
1001
0000
,  // measure 55
0000
1001
0000
1001
,  // measure 56
0000
1001
1001
1001
,  // measure 57
1001
0020
0000
0000
,  // measure 58
0030
1000
0000
1000
,  // measure 59
0000
0001
0000
0001
,  // measure 60
0000
0100
0000
0010
,  // measure 61
0000
1000
0000
0001
,  // measure 62
0001
1000
0000
0001
,  // measure 63
0000
0100
0000
0010
,  // measure 64
0000
0100
0000
0001
,  // measure 65
0000
1000
0000
0001
,  // measure 66
0001
1000
0000
0000
,  // measure 67
0000
0001
0000
0000
,  // measure 68
0000
0100
0000
0000
,  // measure 69
0000
0001
0000
1000
,  // measure 70
0000
0010
0000
0000
,  // measure 71
0000
1000
0000
0000
,  // measure 72
0000
0001
0000
0000
,  // measure 73
0000
0100
0000
0001
,  // measure 74
0000
1000
1000
1000
,  // measure 75
0000
0001
0001
0001
,  // measure 76
0000
0100
0100
0100
,  // measure 77
0000
0010
0010
0010
,  // measure 78
0000
0100
0001
0100
,  // measure 79
0000
0100
0010
0100
,  // measure 80
0000
0010
1000
0010
,  // measure 81
0000
1000
0100
0010
,  // measure 82
0001
0000
0000
1001
0000
0000
0000
0000
;
