#TITLE:Pumping Jumping;
#SUBTITLE:;
#ARTIST:Banya Production;
#TITLETRANSLIT:;
#SUBTITLETRANSLIT:;
#ARTISTTRANSLIT:;
#CREDIT:;
#BANNER:bn.png;
#BACKGROUND:Title.png;
#LYRICSPATH:;
#CDTITLE:;
#MUSIC:G30 - Pumping Jumping.mp3;
#OFFSET:-2.235;
#SAMPLESTART:45.680;
#SAMPLELENGTH:12.000;
#SELECTABLE:YES;
#BPMS:0.000=116.000;
#STOPS:;
#BGCHANGES:;

//---------------dance-single - ----------------
#NOTES:
     dance-single:
     :
     Hard:
     7:
     0.491,0.533,0.678,0.065,0.011:
0000
0000
0000
0000
,
0000
0000
0000
0000
,
0010
0010
0000
0000
0100
0100
0000
0000
,
1000
0001
1001
0000
0010
0100
0110
0000
,
0001
1000
0010
0100
0110
0010
1001
0000
,
0001
0100
0101
0000
0010
1000
1010
0000
,
0001
0100
0010
1000
1010
0010
0220
0330
,
0010
1000
0010
0001
0010
1000
0100
0001
,
0100
1000
0010
0100
0001
0000
0000
0000
,
1000
0001
0100
0010
1000
0100
0010
0000
,
0100
1000
0001
0100
1000
0100
0010
0000
,
0010
1000
0010
0001
0010
0100
0001
0000
,
0001
1000
0100
1000
0010
0100
0001
0000
,
1000
0101
0001
0011
,
0001
0010
0100
0010
0001
1000
0010
0000
,
0110
0000
1001
0000
,
0110
1001
0110
1001
,
0001
0001
0001
0000
1000
1000
1000
0000
,
0001
1000
0001
1000
1001
1001
1001
0000
,
0010
0010
0010
0000
0100
0100
0100
0000
,
0010
0100
0010
0100
0110
0110
0110
0000
,
0010
1000
1100
0000
0100
0010
0011
0000
,
0001
0010
0100
1000
1100
0100
0110
0000
,
0100
1000
1010
0000
0010
0100
0110
0000
,
0100
0010
1000
0001
0011
1010
0022
0033
,
0001
0000
1000
0000
0001
0100
1000
0000
,
1000
0000
0100
0000
0010
1000
0001
0000
,
1000
0001
0100
0000
0001
0010
1000
0000
,
1010
0000
0011
0000
0001
0100
0010
0000
,
0100
0010
1000
0000
1000
0001
0010
0000
,
0011
1100
0101
1010
,
0010
0100
0010
0000
0100
0001
1000
0000
,
0010
0000
0000
1000
0000
0000
0100
0000
0010
0000
0000
0001
0000
0000
0000
0000
,
1000
0100
0010
0010
0100
1000
0100
0100
,
1000
0010
0001
0001
0010
1000
0010
0001
,
0010
1000
1100
0000
0010
0100
0110
0000
,
0010
1000
0100
0010
0011
0010
0011
0000
,
0001
0010
0110
0000
0100
1000
1100
0000
,
1000
0001
0100
0001
0011
0011
0011
0000
,
0101
0100
0110
0000
0110
0010
1001
0000
,
0101
0010
1010
0100
1100
0100
0110
0000
,
0110
1000
1001
0000
0101
0010
0110
0000
,
0110
0001
1010
0100
1100
0101
2002
0000
,
3003
0000
0000
0000
;

//---------------dance-single - ----------------
#NOTES:
     dance-single:
     :
     Medium:
     5:
     0.383,0.417,0.603,0.032,0.000:
0000
0000
0000
0000
,
0000
0000
0000
0000
,
1000
0001
0000
0000
0001
1000
0000
0000
,
0010
0110
0100
0110
,
0110
0000
1001
0000
0110
0010
0100
0000
,
0001
0101
0100
0101
,
0001
0000
0101
0000
1100
0100
0010
0000
,
0100
0100
0100
0100
,
0100
0100
0110
0000
,
0010
0001
1000
0000
0001
0000
1000
0000
,
0010
1000
0100
0000
0100
1000
0100
0000
,
0010
0000
0011
0000
0001
0100
0010
0000
,
0100
0000
0010
0000
0100
0010
1000
0000
,
0001
0001
1000
1000
,
0001
1000
0001
1000
0001
0000
0100
0000
,
0110
0000
0001
0000
,
0100
0000
0010
0000
1000
0010
1000
0000
,
0010
0101
0010
1100
,
0010
0101
1100
0101
,
0010
1100
0010
0101
,
0010
0000
0110
0000
1001
0001
1001
0000
,
0001
0100
0110
0000
0010
1000
1010
0000
,
0010
1000
0100
0010
0001
0001
0001
0000
,
0001
1000
0001
0000
0001
1000
0001
0000
,
0001
0100
0010
1000
0100
0100
0100
0000
,
1000
0000
0010
0000
0100
0010
0100
0000
,
0010
0000
0100
0000
0001
1000
0001
0000
,
1000
0000
0001
0000
0100
0001
0100
0000
,
0101
0000
0101
0000
0001
0100
0100
0000
,
0010
1000
0010
0001
,
0110
1001
0101
1100
,
0110
0000
0010
0000
0001
0010
0001
0000
,
0001
0000
0100
0000
0010
1000
0010
0000
,
0100
0000
0010
0000
0100
0100
0100
0000
,
0010
0000
1000
0000
0001
0001
0001
0000
,
2000
3001
0001
0101
,
0001
0110
1001
0110
,
0010
0101
0010
1100
,
0010
0110
1001
0110
,
0101
0101
1100
1100
,
0110
1001
0110
1001
,
1010
1010
0011
0011
,
0110
1001
0110
2002
,
3003
0000
0000
0000
;

//---------------dance-single - ----------------
#NOTES:
     dance-single:
     :
     Easy:
     3:
     0.240,0.253,0.140,0.032,0.000:
0000
0000
0000
0000
,
0000
0000
0000
0000
,
0010
0000
0010
0000
,
0100
0000
0010
0000
,
1000
0001
1000
1001
,
0001
0000
0010
0000
,
0010
0001
0100
0101
,
0002
0000
0000
0000
,
0000
0000
0003
0000
,
1000
0010
0100
0010
,
1000
0001
1000
0100
,
1000
1000
0010
0100
,
0010
0010
0100
0100
,
0010
1000
0001
0010
,
0001
0100
1000
0100
,
0010
0000
0010
0000
,
0010
0010
0100
0010
,
1000
0000
0001
0000
,
1000
0010
0100
0110
,
0010
0000
0100
0000
,
0001
1000
0001
1001
,
0001
1000
0001
1000
,
0001
1000
1001
1001
,
0010
0100
0010
0100
,
0010
0100
0110
0110
,
0100
1000
0100
0000
,
1000
0001
0100
0100
,
0001
0000
1000
0000
,
0010
0010
0100
0000
,
0010
1000
0001
1000
,
0001
0001
1000
1000
,
0001
1000
0100
1000
,
0010
0100
0001
1000
,
0002
1000
1000
1003
,
2000
0001
0001
0001
,
3001
0000
0001
0100
,
0001
0100
0001
0101
,
0001
0100
0010
0100
,
0010
1000
0100
0010
,
0001
0010
0001
0010
,
0001
0001
1001
1001
,
0001
0100
0001
0100
,
0001
0100
0110
1010
;

//---------------dance-single - ----------------
#NOTES:
     dance-single:
     :
     Challenge:
     9:
     0.700,0.718,0.646,0.140,0.668:
0000
0000
0000
0000
,
0000
0000
0000
0000
,
0101
2020
0000
3030
1100
0022
0000
0033
,
0010
0001
0010
0001
0010
0000
0000
0000
0001
1000
0001
1000
0001
0000
0000
0000
,
0001
0100
0001
0100
0001
0000
0100
0000
0010
0000
1000
0000
1100
0000
0000
0000
,
0100
1000
0100
1000
0100
0000
0000
0000
0100
0010
0100
0010
0100
0000
0000
0000
,
0100
1000
0001
1000
0001
0000
0100
0000
0010
0000
1000
0000
1100
0000
0000
0000
,
1000
0001
1000
0001
1000
0001
1000
0001
1000
0001
1000
0001
1000
0001
1000
0001
,
1000
0001
1000
0001
1000
0001
1000
0001
0020
0000
0000
0000
0000
0000
0000
0000
,
0031
0000
0010
0000
0100
0000
1000
0100
0000
0100
1000
0000
0010
0000
0100
0001
,
0100
0001
0010
0000
1000
0000
0010
0000
1000
0000
0100
0010
0000
0000
0010
0000
,
0001
1000
0001
1000
0010
0000
0100
0000
0001
0000
1000
0100
0000
0000
0100
0000
,
0010
0000
0001
0000
0100
0000
1000
0000
0100
0000
0010
0000
1000
0000
0001
1000
,
0100
0000
1000
0000
0010
0000
0001
0000
0010
0000
1000
0000
0001
0000
1000
0010
,
0100
0001
0010
1000
0010
0001
0100
1000
0100
0010
1000
0100
0010
0000
0000
0000
,
0110
0000
0101
0000
,
0101
0000
0000
0000
1010
0000
0000
0000
0000
0010
0000
0000
0100
0000
0000
0000
,
0010
1000
0010
1000
0010
0000
0000
0000
1000
0100
1000
0100
1000
0000
0000
0000
,
0100
0010
0100
0010
0100
0010
0100
0000
0010
0000
0001
0000
0010
0000
0000
0000
,
0001
0100
0001
0100
0001
0000
0000
0000
0100
0010
0100
0010
0100
0000
0000
0000
,
0010
1000
0010
1000
0010
1000
0010
0000
1000
0000
0100
0000
0020
0000
0000
0000
,
0130
0010
0001
1000
1001
0000
0001
0000
1000
0001
0010
0100
1100
0000
0100
0000
,
0100
0010
0001
0010
0100
0010
0001
1000
1001
0000
0010
0000
1001
0000
0000
0000
,
0001
0100
0010
0100
0101
0000
0001
0000
0001
1000
0100
1000
1010
0000
1000
0000
,
1000
0010
0100
0001
0010
0100
1000
0000
1001
0000
0010
0000
2002
0000
0000
3003
,
0001
0000
1000
0100
0010
0100
1000
0100
1000
0001
0000
0001
0000
0000
0000
0001
,
0100
0000
0100
0010
1000
0000
0000
0000
1000
0010
0000
0100
0000
0000
0000
0000
,
0100
0000
0010
1000
0000
1000
0000
0000
0001
0000
1000
0100
0000
1000
0000
0000
,
1100
0000
0000
0000
0011
0000
0000
0000
0001
0000
0100
0010
0000
0100
0000
0000
,
0010
0000
1000
0001
0000
0000
0010
0000
0001
1000
1000
0100
0000
0000
0000
0000
,
1100
0011
0101
1010
,
1001
0000
0001
1000
0000
0000
1000
0000
0010
1000
0000
0100
0000
0000
0000
0000
,
0100
0010
0001
1000
0001
1000
0010
1000
0100
0010
0001
2000
0000
0000
3000
0000
,
1000
0001
1000
0000
1000
0100
0001
0000
0001
0010
0100
0010
0001
1000
0100
0000
,
0100
0001
1000
0000
1000
0100
0001
0000
0100
0010
0001
0100
1000
0100
0010
0000
,
0100
0000
0001
0000
0100
0000
0001
0000
0100
0000
0001
0000
0100
0000
0000
0000
0000
0000
0010
0000
0000
0000
0000
0000
1000
0000
0000
0010
0000
0000
0100
0000
0000
0001
0000
0000
0011
0000
0000
0000
0000
0000
0000
0000
0000
0000
0000
0000
,
0001
0010
0100
1000
1000
0100
1000
0100
1100
0000
0110
0000
0011
0000
0000
0000
,
1000
0100
0010
0001
1001
0000
0000
0000
0001
0100
0001
0010
0110
0000
0000
0000
,
0100
1000
0010
0100
0001
1000
0100
0000
1100
0000
0011
0000
2002
0000
3003
0000
,
0101
1010
0110
0100
0110
1010
0110
0100
,
0110
1010
0011
1100
0110
0101
1001
0001
,
1001
0101
1010
0100
0110
1100
0110
0010
,
0011
1100
0110
1010
0101
0011
2002
0000
,
3003
0000
0000
0000
;

//---------------dance-single - ----------------
#NOTES:
     dance-single:
     :
     Beginner:
     1:
     0.092,0.115,0.022,0.000,0.000: // measure 1
0000
0000
0000
0000
,  // measure 2
0000
0000
0000
0000
,  // measure 3
0000
0000
0000
0000
,  // measure 4
0010
0000
0000
0000
,  // measure 5
0010
0000
0000
0000
,  // measure 6
1000
0000
0000
0000
,  // measure 7
1000
0000
0000
0000
,  // measure 8
0001
0000
0001
0000
,  // measure 9
0001
0000
0000
0000
,  // measure 10
0100
0000
0000
0000
,  // measure 11
0010
0000
0000
0000
,  // measure 12
1000
0000
0000
0000
,  // measure 13
1000
0000
0000
0000
,  // measure 14
0001
0000
0000
0000
,  // measure 15
0001
0000
0000
0000
,  // measure 16
0100
0000
0000
0000
,  // measure 17
0010
0000
0000
0000
,  // measure 18
0100
0000
0100
0000
,  // measure 19
0100
0000
0000
0000
,  // measure 20
0010
0000
0010
0000
,  // measure 21
0010
0000
0000
0000
,  // measure 22
0100
0000
0001
0000
,  // measure 23
1000
0000
0000
0000
,  // measure 24
0010
0000
1000
0000
,  // measure 25
0001
0000
0000
0000
,  // measure 26
1000
0000
0000
0000
,  // measure 27
0010
0000
0000
0000
,  // measure 28
0100
0000
0000
0000
,  // measure 29
0001
0001
0001
0000
,  // measure 30
1000
0000
0000
0000
,  // measure 31
0100
0000
0010
0000
,  // measure 32
0001
0000
0000
0000
,  // measure 33
1001
0000
0000
0000
,  // measure 34
0010
0000
0010
0000
,  // measure 35
0010
0010
0010
0000
,  // measure 36
0000
0000
0100
0000
,  // measure 37
0010
0000
0000
0000
,  // measure 38
1000
0000
1000
0000
,  // measure 39
1000
0000
0000
0000
,  // measure 40
0010
0000
0010
0000
,  // measure 41
0010
0000
0100
0000
,  // measure 42
0001
0000
1000
0000
,  // measure 43
0010
0010
0010
1001
;
