#TITLE:Propane Nightmares;
#SUBTITLE:;
#ARTIST:Pendulum;
#TITLETRANSLIT:;
#SUBTITLETRANSLIT:;
#ARTISTTRANSLIT:;
#GENRE:DRUM N BASS;
#CREDIT:;
#BANNER:bn.png;
#BACKGROUND:bg.png;
#LYRICSPATH:;
#CDTITLE:;
#MUSIC:Propane Nightmares.mp3;
#OFFSET:-0.048;
#SAMPLESTART:66.280;
#SAMPLELENGTH:12.000;
#SELECTABLE:YES;
#BPMS:0.000=43.460
,16.000=86.920
,44.000=173.840
,244.000=86.920
;
#STOPS:;
#BGCHANGES:;
#KEYSOUNDS:;
#ATTACKS:;

//---------------dance-single - ----------------
#NOTES:
     dance-single:
     :
     Hard:
     9:
     0.538,0.585,0.309,0.260,0.134,394.000,38.000,32.000,0.000,0.000,0.000,0.538,0.585,0.309,0.260,0.134,394.000,38.000,32.000,0.000,0.000,0.000:
0000
0000
0000
0000
,
0000
0000
0000
0000
,
1000
0000
0000
0000
0000
0000
0000
0000
0001
0000
0000
0000
0001
0000
1000
0000
0010
0000
0000
0000
0000
0000
0000
0010
0100
0000
0000
0000
0000
0000
0000
0000
,
0100
0000
0000
0000
0000
0000
0000
0000
0001
0000
0000
0000
0000
0000
0001
1000
0010
0000
1000
0000
0001
0000
0010
0000
0000
0000
0100
0000
0000
0000
0100
0000
,
0010
0000
0010
0001
0000
0001
0100
0000
0010
0000
0100
0010
0000
0010
1000
0000
,
0001
0000
1000
0001
0000
0001
0010
0000
0100
0000
0100
1000
0000
1000
0001
0010
,
0100
0000
0100
1000
0000
1000
0010
0000
0100
0000
0100
0001
0000
0001
0010
0000
,
0220
0000
0000
0000
,
0330
0000
0010
0001
0100
0010
1000
0001
,
1000
0100
0001
0010
0100
1000
0001
0000
,
1000
0001
0100
0001
0010
0100
0010
0001
,
0101
0101
0101
0101
,
0001
0100
0010
1000
0100
0001
0100
1000
,
0010
0000
1010
0000
1000
0001
0010
0001
,
0000
0100
0010
0000
1000
1000
0001
0000
,
1000
0001
0020
0000
0130
0010
0001
0200
,
0000
0310
2000
0000
3001
0010
0100
0010
,
0002
0000
0103
0000
0010
1000
0001
0020
,
0000
0130
0000
0100
0010
0001
2000
0000
,
3001
0001
0001
0001
,
0001
0100
0001
1000
0001
0010
0001
0000
,
0001
1000
0200
0000
1300
0010
0100
0010
,
1000
0001
0020
0000
0031
0100
0010
0000
,
0100
0010
2000
0000
3001
0010
0100
0020
,
0000
0031
0200
0000
0310
0000
1001
0000
,
0001
0100
2000
0000
3100
0010
1000
0200
,
0000
1300
0010
0100
0002
0000
0000
0000
,
2003
3001
0200
0310
,
0100
0001
0010
1000
0010
0001
1000
0000
,
1001
1001
1001
1001
,
1001
0000
1001
0000
1001
0010
1001
0010
,
1001
0000
0101
0000
0001
1000
0010
1000
,
0001
0000
0011
0000
0001
1000
0010
0001
,
0010
0000
0110
0000
0100
0010
1000
0001
,
0010
0000
1100
0000
1000
0001
0100
0001
,
0010
0000
1100
0000
0101
0000
0001
0001
,
0100
0010
1000
0100
0010
0002
2000
3003
,
0010
0101
0010
0101
,
0010
0000
0101
0000
0001
0100
0010
1000
,
0100
0110
0010
0110
,
0100
0000
0110
0000
0010
0001
0100
0001
,
0100
0110
0001
0110
,
0001
0000
1001
0000
0001
0100
0010
1000
,
0100
1000
0100
0001
,
0100
1000
1000
0100
0010
0001
1000
0000
,
1001
0001
0100
0000
0001
0100
0010
0000
,
0100
0001
1000
0200
0000
0010
0310
0000
,
0100
1000
0010
0000
0100
0010
0100
0000
,
0100
0001
1000
0100
0010
0100
1000
0000
,
1010
0010
0100
0000
0010
1000
0001
0000
,
0001
1000
0010
0100
0000
0100
0001
0000
,
0001
0010
0100
0000
0010
0100
1000
0000
,
0100
1000
0010
0100
0001
1000
0100
0010
,
0011
0001
0010
0000
0010
0100
1000
0000
,
0100
1000
0010
0200
0000
0010
0310
0000
,
0010
0010
1000
0000
0100
0100
1000
0000
,
1000
0001
0100
0001
0010
0100
1000
0000
,
0100
0010
0001
0000
0001
0010
0001
0000
,
0001
0100
0010
1000
0100
0010
0010
0000
,
0100
0010
0001
1000
,
0001
0100
1000
0100
0001
0010
1000
0010
,
0001
0000
0100
0000
0020
0000
0000
1030
0000
0100
0000
0010
0002
0000
0000
0000
,
0013
0000
0100
0000
2000
0000
0000
3100
0000
1000
0000
1000
0001
0000
0101
0000
,
0002
0000
0203
0000
0020
0000
0330
0010
0000
1000
0000
0200
0020
0000
0000
0330
,
0100
0000
1000
0000
0010
0000
0100
0010
0000
0010
0000
0100
0101
0000
0011
0000
,
0220
0000
0330
0000
;

//---------------dance-single - ----------------
#NOTES:
     dance-single:
     :
     Medium:
     7:
     0.411,0.532,0.049,0.219,0.114,321.000,6.000,27.000,0.000,0.000,0.000,0.411,0.532,0.049,0.219,0.114,321.000,6.000,27.000,0.000,0.000,0.000:
0000
0000
0000
0000
,
0000
0000
0000
0000
,
0000
0000
0000
0000
0000
0000
1000
0000
0010
0000
0000
0100
0000
0000
0010
0000
0000
0000
0000
0000
0000
0000
0100
0000
0010
0000
0000
1000
0000
0000
0001
0000
,
0000
1000
0000
1000
0001
0100
0100
0010
1000
0010
0100
0001
0000
0010
0000
0100
,
1000
0000
0100
1000
0010
0100
0001
0010
,
0100
1000
0100
1000
0010
0100
0002
0000
,
0003
0000
0000
0000
1000
0000
0001
1000
0000
0000
1000
0000
0100
0000
0010
0000
,
0200
0000
0000
0000
,
0300
0000
0000
0000
0010
0000
0001
0100
0000
0000
0010
0000
0100
0000
0010
0000
,
1000
0001
0100
0100
0010
1000
0100
0000
,
0000
0000
1000
0100
0010
0001
0010
0100
,
0001
0001
0001
0001
,
0001
1000
0001
1000
0001
1000
0001
1000
,
0001
0000
0100
0000
0020
0000
0000
0130
,
0000
0010
0000
2000
0200
0000
3300
0000
,
1000
0000
0100
0000
0020
0000
0000
0130
,
0000
1000
0000
0010
0200
0000
0301
0000
,
0001
0000
0100
0000
0020
0000
0000
0130
,
0000
0010
0000
2000
0002
0000
3003
0000
,
0001
0100
1000
0100
,
0010
0100
0010
0100
0010
0100
0010
0000
,
0100
0000
0010
0000
2000
0000
0000
3010
,
0000
1000
0000
0200
0020
0000
0330
0000
,
0100
0000
0010
0000
0002
0000
0000
1003
,
0000
0001
0000
0001
0200
0000
1000
0000
,
0310
0000
1000
0000
0200
0000
0000
0310
,
0000
1000
0000
0200
0020
0000
0330
0000
,
0010
1000
0010
0100
,
0001
0100
0010
1000
0001
0100
0010
0000
,
1000
1000
1000
1000
,
1000
0000
1000
0000
1000
0001
1000
0001
,
1000
0000
0000
0000
0001
0000
0100
0020
,
0000
1030
0000
0000
1000
0000
0100
0020
,
0000
0000
0030
0000
0001
0000
0010
0200
,
0000
1300
0000
0000
0100
0000
1000
0100
,
0010
0001
0001
0001
,
0001
0100
0001
0100
0001
0100
0001
0000
,
0100
0010
1000
0100
,
0010
0000
0001
0000
0010
0001
0010
0001
,
0010
0100
1000
0010
,
0100
0000
0001
0000
1000
0001
1000
0001
,
1000
0001
0100
1000
,
0100
0000
0010
0000
0010
1000
0100
0010
,
0001
0010
0001
0100
,
0010
0000
1000
0000
0001
0100
0010
0000
,
0220
0000
0000
0330
,
0010
1000
0100
1000
0000
0100
1000
0000
,
0100
1000
0010
0100
,
0001
0000
0001
0000
1000
0001
0100
0000
,
0101
0001
0100
0010
,
0100
0010
1000
0001
0000
1000
0001
0000
,
0100
0100
0010
0010
,
1000
0000
1000
0000
1000
0010
0100
0000
,
0101
0001
0100
0010
,
0100
0010
1000
0100
0000
0100
1000
0000
,
0100
0010
0010
0100
,
1000
0000
0001
0000
0001
0100
0010
0000
,
0101
0000
0001
0000
0100
0010
1000
0000
,
0010
0100
0010
0000
0010
1000
0001
0000
,
1000
0001
0100
0010
,
1000
0010
1000
0010
1000
0010
1000
0010
,
1000
0000
0100
0000
0010
0000
0000
0100
0000
1000
0000
0001
0200
0000
0000
0000
,
0310
0000
1000
0000
0010
0000
0000
0100
0000
0010
0000
1000
0001
0000
1001
0000
,
0001
0000
0100
0000
0010
0000
0000
0100
0000
0010
0000
1000
0020
0000
0000
0000
,
1030
0000
0001
0000
0010
0000
0000
0100
0000
1000
0000
0010
0100
0000
0001
0000
,
2002
0000
3003
0000
;

//---------------dance-single - ----------------
#NOTES:
     dance-single:
     :
     Easy:
     4:
     0.267,0.319,0.130,0.195,0.000,190.000,16.000,24.000,0.000,0.000,0.000,0.267,0.319,0.130,0.195,0.000,190.000,16.000,24.000,0.000,0.000,0.000:
0000
0000
0000
0000
,
0000
0000
0000
0000
,
0001
0000
1000
0010
0100
0000
0100
0000
,
0010
0000
1000
0000
0001
1000
0100
0010
,
0001
0000
1000
0000
,
0010
0100
0001
1000
,
0100
0000
0010
0000
,
0001
0000
0100
0000
,
0010
1000
0001
0010
,
0100
1000
0100
1000
0100
1000
0100
0000
,
1000
0000
0010
0000
,
0100
0100
0100
0100
,
0110
1001
0110
1001
,
0001
1000
0002
0000
,
0100
0100
0200
0303
,
0001
0100
0020
0000
,
0100
0100
0130
0110
,
0010
1000
0200
0000
,
0010
0010
0020
0330
,
0010
0001
0010
1000
,
0010
0001
0100
0010
,
1000
1000
2000
0000
,
0100
0100
0200
3300
,
1000
0010
0200
0000
,
0010
0010
0310
0101
,
0001
0001
0002
0000
,
0010
0010
0020
0033
,
0001
0010
0100
1000
,
0100
0000
1000
0000
0010
0100
0001
0000
,
0000
0000
0000
0000
,
0000
0000
0000
0000
,
1000
0000
0000
0000
0001
0000
0000
0100
,
0000
0010
0000
0000
1000
0000
0000
1010
,
0000
0000
0000
0000
0010
0000
0000
0100
,
0000
0100
0000
0000
0010
0000
0000
1000
,
0000
0001
1000
0001
,
1000
1000
0001
0001
,
1000
0000
0000
0000
0010
0000
0000
0100
,
0000
0010
0000
0000
1000
0000
0000
0100
,
0000
0000
0000
0000
1000
0000
0000
0010
,
0000
0010
0000
0000
0100
0000
0000
0101
,
0000
0000
0000
0000
0001
0000
0000
1000
,
0000
0001
0000
0000
0010
0000
0000
0001
,
0000
0000
0000
0000
0100
0000
0000
0010
,
0000
0010
0000
0000
0100
0010
0100
0000
,
0220
0000
0000
0330
,
0010
0001
0100
0010
,
2000
0000
0000
0000
,
3001
0000
0000
0000
1000
0001
1000
0000
,
2002
0000
0000
3003
,
0002
0000
0000
0003
,
0200
0000
0000
0000
,
0310
0000
0000
0000
0100
0010
1000
0000
,
2020
0000
0000
3030
,
0010
0000
0000
0000
,
1000
0000
0001
0000
,
0010
0000
0000
0000
0010
0100
0010
0000
,
0220
0000
0000
0330
,
0010
0000
0001
0000
,
1000
0000
0001
0000
,
0200
0000
0000
0000
,
0310
0010
0010
0000
0100
0000
0110
0000
,
0100
0100
0100
0000
0010
0000
1001
0000
,
1000
1000
1000
0000
0001
0000
0101
0000
,
0001
0001
0001
0000
0100
0000
0010
1000
,
2200
0000
3300
0000
;

//---------------dance-single - ----------------
#NOTES:
     dance-single:
     :
     Beginner:
     2:
     0.147,0.185,0.057,0.057,0.000,113.000,7.000,7.000,0.000,0.000,0.000,0.147,0.185,0.057,0.057,0.000,113.000,7.000,7.000,0.000,0.000,0.000: // measure 0
0000
0000
0000
0000
,  // measure 1
0000
0000
0000
0000
,  // measure 2
0001
0000
1000
0000
,  // measure 3
0010
0000
0100
0000
,  // measure 4
0010
0000
1000
0000
,  // measure 5
0001
0000
1000
0000
,  // measure 6
0010
0000
0100
0000
,  // measure 7
0020
0000
0000
0000
,  // measure 8
0030
0000
0100
0000
,  // measure 9
0100
0000
0001
0000
,  // measure 10
1000
0000
1000
0000
,  // measure 11
0020
0000
0000
0000
,  // measure 12
0000
0000
0000
0030
,  // measure 13
0100
0100
0100
0000
,  // measure 14
0010
0000
0100
0000
,  // measure 15
0010
0010
0010
0000
,  // measure 16
1000
0000
1000
0000
,  // measure 17
0001
0001
0001
0000
,  // measure 18
1000
0000
0010
0000
,  // measure 19
0100
0000
0100
0000
,  // measure 20
0100
0010
0100
0010
,  // measure 21
0100
0000
0000
0000
,  // measure 22
0001
0000
2000
3000
,  // measure 23
0001
0000
0000
0000
,  // measure 24
1000
0000
0010
0010
,  // measure 25
0100
0000
0000
0000
,  // measure 26
0010
0000
2000
3000
,  // measure 27
0001
0000
0000
0000
,  // measure 28
1000
0000
0001
0000
,  // measure 29
0110
0000
0000
0000
,  // measure 30
0000
0000
0000
0000
,  // measure 31
0001
0000
0000
0000
,  // measure 32
1000
0000
0000
0000
,  // measure 33
0010
0000
0000
0000
,  // measure 34
0100
0000
0000
0000
,  // measure 35
0010
0000
1000
0000
,  // measure 36
0001
0000
1000
1000
,  // measure 37
1001
0000
0001
0000
,  // measure 38
0001
0000
0001
0001
,  // measure 39
1000
0000
1000
0000
,  // measure 40
1000
0000
1000
1000
,  // measure 41
0010
0000
0010
0000
,  // measure 42
0010
0000
0010
0010
,  // measure 43
0100
0000
0010
0000
,  // measure 44
1000
0000
0001
0001
,  // measure 45
2002
0000
0000
0000
,  // measure 46
3003
0000
0000
0000
,  // measure 47
0001
0000
0000
0000
,  // measure 48
1000
0000
0010
0010
,  // measure 49
0110
0000
0000
0000
,  // measure 50
0100
0000
0000
0000
,  // measure 51
0010
0000
0000
0000
,  // measure 52
1000
0000
0100
0100
,  // measure 53
0110
0000
0000
0000
,  // measure 54
0010
0000
0000
0000
,  // measure 55
0001
0000
0000
0000
,  // measure 56
1000
0000
0001
0001
,  // measure 57
1001
0000
0000
0000
,  // measure 58
1000
0000
0000
0000
,  // measure 59
0010
0000
0000
0000
,  // measure 60
0200
0000
0000
0000
,  // measure 61
0310
0000
0010
0000
,  // measure 62
0100
0000
0100
0001
,  // measure 63
1000
0000
1000
0000
,  // measure 64
0001
0000
0001
1000
,  // measure 65
0110
0000
0000
0000
;
