#TITLE:Poppin' Shower;
#SUBTITLE:;
#ARTIST:P*LIGHT;
#TITLETRANSLIT:;
#SUBTITLETRANSLIT:;
#ARTISTTRANSLIT:;
#CREDIT:;
#BANNER:bn.png;
#BACKGROUND:bg.png;
#LYRICSPATH:;
#CDTITLE:;
#MUSIC:Poppin' Shower.mp3;
#OFFSET:-0.676;
#SAMPLESTART:33.571;
#SAMPLELENGTH:10.629;
#SELECTABLE:YES;
#BPMS:0.000=175.000;
#STOPS:156.000=0.171
,156.500=0.171
;
#BGCHANGES:0.000=PLight Poppin' Shower.avi=1.000=1=0=0,
99999=-nosongbg-=1.000=0=0=0 // don't automatically add -songbackground-
;

//---------------dance-single - ----------------
#NOTES:
     dance-single:
     :
     Hard:
     9:
     0.541,0.674,0.263,0.184,0.035: // measure 1
0000
0000
0000
0000
,  // measure 2
0000
0000
0000
0000
,  // measure 3
0000
0000
0000
0000
,  // measure 4
0000
0000
0000
0000
,  // measure 5
1000
0001
0000
0000
0100
0100
0001
0000
,  // measure 6
1000
0010
1000
0010
0001
0010
0100
0000
,  // measure 7
0100
0001
0100
0010
0100
1000
0100
0010
,  // measure 8
0000
0000
0000
0000
,  // measure 9
1002
0000
0010
0010
,  // measure 10
0013
0100
0000
1000
0000
0001
1000
0000
,  // measure 11
2010
0000
0001
0001
,  // measure 12
3001
0100
0000
1000
0000
0100
0100
0000
,  // measure 13
0120
1030
0210
0301
,  // measure 14
1002
0103
2001
3100
,  // measure 15
1000
0001
0100
0001
0010
0001
1000
0001
,  // measure 16
0010
0000
0000
0000
,  // measure 17
0001
0000
0001
0100
0000
0100
0010
1000
,  // measure 18
0001
0000
0010
0100
0000
0100
0010
0001
,  // measure 19
1000
0000
0100
0010
0000
0001
0100
0001
,  // measure 20
0010
0000
0001
1000
0000
0001
1000
0001
,  // measure 21
0010
0000
0100
1000
0000
1000
0010
0100
,  // measure 22
0001
0000
0001
1000
0000
1000
0010
1000
,  // measure 23
0001
0000
0010
0100
0000
0100
0010
0001
,  // measure 24
1000
0100
0010
1000
0010
0001
0010
1000
,  // measure 25
0020
0001
1000
0100
,  // measure 26
0031
0100
0010
1000
0001
0000
1100
0000
,  // measure 27
2000
0010
0001
0100
,  // measure 28
3010
0100
0001
1000
0100
0010
0001
0000
,  // measure 29
0020
0100
1000
0100
,  // measure 30
0130
0001
0100
1000
0100
0010
0001
0000
,  // measure 31
0002
0010
0100
1000
,  // measure 32
0103
0000
0000
0100
0000
0000
0020
0000
0000
0000
0000
0000
0030
0000
0000
0000
,  // measure 33
0100
0001
0000
0100
0000
0100
1000
0000
,  // measure 34
0100
0010
1000
0001
0010
0100
0010
0000
,  // measure 35
0001
0100
0001
0100
0010
0100
0001
0100
,  // measure 36
0010
0000
1000
0010
0000
0010
0100
0000
,  // measure 37
0010
1000
0000
0001
0000
0001
0010
0000
,  // measure 38
0010
0001
0100
1000
0100
0010
1000
0000
,  // measure 39
0001
1000
0001
1000
0001
1000
0001
1000
,  // measure 40
0101
1100
2002
0000
3003
0000
0001
0100
,  // measure 41
1000
0000
1000
0100
0001
0000
0001
0010
,  // measure 42
1000
0010
0001
0010
0001
0000
0001
0100
,  // measure 43
0010
1000
0001
0100
0010
1000
0100
0000
,  // measure 44
0100
0010
0000
0010
0001
0000
0001
0010
,  // measure 45
1000
0000
1000
0010
0100
0000
0100
0010
,  // measure 46
0001
1000
0010
1000
0001
0000
1000
0100
,  // measure 47
1000
0010
1000
0001
1000
0100
0010
0000
,  // measure 48
0000
0000
0000
2002
,  // measure 49
0000
0000
0000
0000
,  // measure 50
0000
0000
0000
0000
,  // measure 51
0000
0000
0000
3003
,  // measure 52
0000
0000
0000
0001
,  // measure 53
0100
0010
1000
0100
,  // measure 54
1000
0010
0000
1000
,  // measure 55
0001
0000
0000
0000
1000
0000
0000
0000
0010
0000
0000
0000
0100
0000
0000
0100
,  // measure 56
0000
0020
0000
0000
0000
0030
0110
0000
,  // measure 57
0000
0010
1000
0110
,  // measure 58
0000
0010
1000
0110
,  // measure 59
0000
0010
1000
0110
,  // measure 60
0000
0010
1000
0110
,  // measure 61
0000
0101
0000
1100
,  // measure 62
0011
0000
1001
0000
1010
0000
0100
0010
,  // measure 63
0001
0000
0010
0000
1000
0000
0010
0000
0100
0000
0001
0000
1000
0000
0000
1000
,  // measure 64
0000
0200
0000
0000
0010
0000
0310
0000
,  // measure 65
0010
0001
0000
0001
0100
1000
0100
0000
,  // measure 66
0010
1000
0000
0010
1000
0001
0010
0000
,  // measure 67
0001
0010
0000
0001
1000
0100
1000
0000
,  // measure 68
0010
1000
0000
0010
1000
0001
0010
0000
,  // measure 69
0001
0100
0000
0100
0010
1000
0010
0000
,  // measure 70
0100
0001
0000
0001
0010
0100
0010
0000
,  // measure 71
0001
0000
1000
0000
0000
0000
1000
0000
0010
0000
0100
0000
0101
0000
0000
1100
,  // measure 72
0000
2002
0000
0000
3003
0000
0001
0100
,  // measure 73
0010
1000
0001
0100
0010
1000
1001
0000
,  // measure 74
0101
0000
0000
0000
0010
0000
0000
0100
0000
0000
1000
0000
0100
0000
0010
0000
,  // measure 75
0100
0001
1000
0010
0100
0010
0100
0100
,  // measure 76
0010
0010
2000
0000
0000
0000
3001
0000
,  // measure 77
1000
0100
1100
0000
0100
0010
0110
0000
,  // measure 78
0010
0001
0011
0000
0101
0000
0001
0100
,  // measure 79
1000
0000
0100
0000
0001
0000
0010
0000
1000
0000
0010
0000
0001
0000
0000
0100
,  // measure 80
0000
0000
0010
0000
0000
0000
0000
0000
1000
0010
0100
0001
0200
0000
0000
0000
,  // measure 81
0000
0000
0000
0000
,  // measure 82
0300
0000
0000
0000
;

//---------------dance-single - ----------------
#NOTES:
     dance-single:
     :
     Medium:
     6:
     0.392,0.594,0.289,0.131,0.018:
0000
0000
0000
0000
,
0000
0000
0000
0000
,
0000
0000
0000
0000
,
0000
0000
0000
0000
,
0001
1000
0000
0000
1000
0010
1000
0000
,
0010
0000
0100
0000
0010
0010
0010
0000
,
0100
0000
0010
0000
1000
0001
0010
0100
,
1000
0000
0000
0000
,
0001
0000
1000
0010
,
0100
0010
0000
1000
0000
0010
0010
0000
,
0100
0000
0001
1000
,
0100
1000
0000
0100
0000
0010
0001
0000
,
0001
1000
0001
0100
,
1000
0100
0010
1000
,
0001
0010
0100
1000
0001
0010
0100
1000
,
0001
0000
0000
0000
,
1000
0000
0000
0100
0000
0000
1000
0000
,
0010
0000
0000
0010
0000
0000
0100
0000
,
0001
0000
0000
0010
0000
0000
0001
0000
,
1000
0000
0000
0001
0000
0000
0100
0000
,
0100
0000
0000
0010
0000
0000
1000
0000
,
0010
0000
0000
0100
0000
0000
0010
0000
,
1000
0000
0000
0001
0000
0000
0010
0000
,
0100
1000
0100
1000
0100
1000
0100
0000
,
2100
0000
0100
0010
,
0001
0001
3001
0000
,
0102
0000
0010
0100
,
1000
1000
1003
0000
,
1020
0000
0001
0100
,
1000
1000
1030
0000
,
0210
1300
0210
0301
,
1001
0000
0000
1001
0000
0000
2002
0000
0000
0000
0000
0000
3003
0000
0000
0000
,
0001
0000
0000
1000
0000
0100
1000
0000
,
0100
0000
0010
0000
0001
0001
0010
0000
,
0001
0010
0100
1000
,
0100
0000
0000
0010
0000
0000
0001
0000
,
1000
0001
0000
0100
0000
0010
0100
0000
,
0010
0000
1000
0000
0010
0100
0010
0000
,
0010
1000
0001
0010
,
0100
1000
0200
0000
0300
0000
0010
0001
,
0100
0000
0010
1000
0100
0000
1000
0000
,
0001
0000
0100
0001
0001
0000
1000
0000
,
0001
0010
1000
0010
,
0001
0100
0010
0100
,
0000
0010
0000
1000
,
0001
0000
1000
0001
1000
0000
0001
0000
,
0100
0010
1000
0000
,
0000
0000
0000
0220
,
0000
0000
0000
0000
,
0000
0000
0000
0000
,
0000
0000
0000
0330
,
0000
0000
0000
0010
,
0000
1000
0000
0001
,
0001
0001
0000
1000
,
0000
0000
0000
0000
0001
0000
0000
0000
0000
0000
0000
0000
0100
0000
0000
0100
,
0000
0100
0000
0000
0000
0000
0110
0000
,
0000
0000
0000
0101
,
0000
0000
0000
0011
,
0000
0000
0000
0110
,
0000
0000
0000
1100
,
0000
0110
0000
1001
,
0110
0000
0101
0000
1010
0000
1000
0100
,
0010
0001
1000
0100
0010
0001
0020
0000
,
0000
0000
0000
0031
,
0100
0010
1000
0010
,
0100
0001
1100
0001
,
0100
0010
1000
0100
,
0010
0000
0001
0010
0011
0000
0001
0000
,
0100
0010
1000
0001
,
0010
0001
0011
0001
,
0100
0000
0000
0000
1000
0000
0000
0000
0100
0000
0000
0000
0110
0000
0000
0110
,
0000
0220
0000
0000
0330
0000
0010
0000
,
0100
0010
1000
0101
,
1100
0101
1100
0001
,
0100
0000
0100
0000
0010
0000
0010
0100
,
0010
0100
0020
0000
0000
0000
0130
0000
,
0110
1000
1001
0001
,
0101
0000
0100
0000
1100
0000
0100
0010
,
1000
0000
0001
0000
0010
0000
1000
0000
0010
0000
0001
0000
0010
0000
0000
0001
,
0000
0200
0000
0000
0000
0000
0310
0000
;

//---------------dance-single - ----------------
#NOTES:
     dance-single:
     :
     Easy:
     3:
     0.252,0.489,0.123,0.123,0.000:
0000
0000
0000
0000
,
0000
0000
0000
0000
,
0000
0000
0000
0000
,
0000
0000
0000
0000
,
1000
0000
0001
0000
,
1000
0000
0001
0000
,
1000
0001
0100
0010
,
0000
0000
0000
0000
,
0100
0000
0001
0000
,
1000
1000
1000
0000
,
0010
0000
0100
0000
,
0010
0010
0010
0000
,
0100
0000
0001
0000
,
1000
1000
1000
0000
,
0010
0000
0100
0001
,
1000
0000
0000
0000
,
0001
0000
1000
0000
,
0010
0000
0100
0001
,
1000
0000
1000
0000
,
0001
0100
0001
0100
,
0010
0000
0100
0000
,
0001
0000
1000
0000
,
1000
0000
0010
0000
,
0100
0001
0100
0001
,
0200
0000
0320
0000
,
2000
0000
3030
0000
,
2000
0000
3002
0000
,
0020
0000
0033
0000
,
0002
0000
2003
0000
,
0200
0000
3300
0000
,
0200
0000
0320
0000
,
0002
0000
0033
0000
,
0001
0000
1000
0000
,
0010
1000
0010
0010
,
0100
0000
0010
0000
,
1000
1000
1000
1000
,
0001
0000
0100
0000
,
1000
0100
0010
1000
,
0001
0001
0001
0001
,
0000
0000
0000
0001
,
0000
1000
0000
0010
,
0010
0010
0010
0100
,
0000
0001
0000
1000
,
0000
0001
0000
0100
,
0000
0010
0000
0100
,
0010
0100
0010
1000
,
0100
0010
0001
0000
,
0000
0000
0000
0200
,
0000
0000
0000
0000
,
0000
0000
0000
0000
,
0000
0000
0000
0000
,
0300
0000
0000
0010
,
0000
0000
0000
0000
,
0000
0000
0000
1000
,
0000
0001
0000
0010
,
0000
0000
0000
0110
,
0000
0000
0000
1001
,
0000
0000
0000
0110
,
0000
0000
0000
1001
,
0000
0000
0000
0110
,
0000
0110
0000
1001
,
0110
1001
0110
0101
,
1100
0101
1100
0000
,
0000
0000
0000
0010
,
0000
0100
0001
1000
,
1000
1000
0000
0010
,
0000
0100
0001
1000
,
1000
1000
0000
0100
,
0000
1000
0010
1000
,
1000
1000
0000
0010
,
0000
0100
0010
1000
,
1000
1000
0000
0001
,
1000
0100
1000
0001
,
0100
0001
0001
1000
,
0010
1000
0001
0010
,
0010
0010
0000
0001
,
0100
0010
0100
0010
,
1000
0001
0010
0001
,
0100
0010
1000
0200
,
0000
0000
0000
0300
;

//---------------dance-single - ----------------
#NOTES:
     dance-single:
     :
     Beginner:
     2:
     0.149,0.210,0.026,0.000,0.000:
0000
0000
0000
0000
,
0000
0000
0000
0000
,
0000
0000
0000
0000
,
0000
0000
0000
0000
,
0010
0000
0100
0000
,
0010
0000
0001
0000
,
1000
1000
1000
0000
,
0000
0000
0000
0000
,
0010
0000
0000
0000
,
0100
0000
0100
0000
,
0100
0000
0000
0000
,
0001
0000
0001
0000
,
0001
0000
0000
0000
,
1000
0000
0000
0000
,
0010
0000
0010
0000
,
0010
0000
0000
0000
,
0100
0000
0000
0000
,
0010
0000
0000
0000
,
1000
0000
0000
0000
,
0001
0000
0001
0000
,
0001
0000
0000
0000
,
0100
0000
0000
0000
,
0010
0000
0000
0000
,
0100
0000
0001
0000
,
1000
0000
1000
0000
,
1000
1000
1000
0000
,
0001
0000
0001
0000
,
0001
0001
0001
0000
,
0100
0000
0100
0000
,
0100
0100
0100
0000
,
0010
0000
0010
0000
,
0010
0010
0010
0000
,
0100
0000
0000
0000
,
0001
0000
0000
0000
,
1000
0000
1000
0000
,
1000
0000
0000
0000
,
0010
0000
0000
0000
,
0100
0000
0000
0000
,
0001
0000
0000
0000
,
1000
0000
0000
1000
,
0000
0000
0000
0001
,
0000
0000
0000
0100
,
0000
0100
0000
0010
,
0000
0000
0000
0100
,
0000
0001
0000
1000
,
0000
1000
0000
0001
,
0001
0001
0000
0000
,
0000
0000
0000
1001
,
0000
0000
0000
0000
,
0000
0000
0000
0000
,
0000
0000
0000
0000
,
0000
0000
0000
0010
,
0000
0000
0000
0000
,
0000
0000
0000
0010
,
0000
0000
0000
0000
,
0000
0000
0000
1000
,
0000
0000
0000
0001
,
0000
0000
0000
1000
,
0000
0000
0000
0001
,
0000
0000
0000
1000
,
0000
0001
0000
1000
,
0001
1000
0001
1000
,
0000
0000
0000
0000
,
0000
0000
0000
0110
,
0000
0000
0000
0010
,
0000
0000
0000
1000
,
0000
0000
0000
0001
,
0001
0001
0000
1000
,
0000
0000
0000
0010
,
0000
0000
0000
0100
,
0000
0000
0000
0010
,
0010
0010
0000
0100
,
0000
0010
0000
1000
,
1000
1000
0000
0001
,
0000
1000
0000
0100
,
0100
0100
0000
1000
,
0000
0010
0000
0100
,
0100
0100
0000
0010
,
0000
1000
0000
0001
,
0001
0001
0000
1001
;
