#TITLE:Playball;
#SUBTITLE:;
#ARTIST:sanodg;
#TITLETRANSLIT:;
#SUBTITLETRANSLIT:;
#ARTISTTRANSLIT:;
#GENRE:TECH HOUSE;
#CREDIT:;
#BANNER:bn.png;
#BACKGROUND:bg.png;
#LYRICSPATH:;
#CDTITLE:;
#MUSIC:Playball.mp3;
#OFFSET:-0.016;
#SAMPLESTART:82.280;
#SAMPLELENGTH:12.000;
#SELECTABLE:YES;
#BPMS:0.000=140.000
;
#STOPS:;
#BGCHANGES:;
#KEYSOUNDS:;
#ATTACKS:;

//---------------dance-single - ----------------
#NOTES:
     dance-single:
     :
     Hard:
     7:
     0.381,0.503,0.155,0.186,0.140,300.000,20.000,24.000,0.000,0.000,0.000,0.381,0.503,0.155,0.186,0.140,300.000,20.000,24.000,0.000,0.000,0.000:
0000
0000
0000
0000
,
0000
0000
0000
0000
,
0000
0000
0000
0000
,
0000
0000
0000
0000
,
0000
0000
0000
0000
,
0000
0000
0000
0000
0000
1000
0000
0010
,
0100
0000
0001
0000
0010
0100
0000
0001
,
0000
0100
0000
1000
0000
0010
0000
0000
,
0201
0000
0000
0310
0000
0000
0100
0001
,
0000
0000
0000
1000
0000
0010
0001
0010
,
0100
0000
0010
0000
1000
0100
0000
0100
,
0000
0000
0000
0000
0000
1000
0010
0100
,
0001
0000
0010
0000
1000
0010
0000
0001
,
0000
0000
0000
0000
0000
0001
0000
0100
,
0010
0000
1000
0000
0100
0001
0000
0100
,
0000
1000
0000
0010
0000
0100
0000
0000
,
0120
0000
0000
0001
0000
0000
0100
0130
,
0000
0000
0000
0010
0000
0100
0001
1000
,
0002
0000
0013
0000
0100
2000
0000
3010
,
0000
0000
0000
0000
0000
0010
0100
0001
,
0200
0000
0310
0000
0010
2000
0000
3100
,
0000
0000
0000
0000
0000
1000
0000
0100
,
1000
0000
0010
0000
0100
0001
0000
0010
,
0000
1000
0000
0010
0000
0001
0000
0000
,
0001
0001
0000
0000
0000
0000
1000
1000
,
0010
0000
0000
1000
0000
0000
0100
0000
0000
0010
0000
0000
0100
0000
1000
0000
,
0010
0010
0000
0000
0000
0000
0100
0100
,
0010
0000
0000
1000
0000
0000
0001
0000
0000
0010
0000
0000
0001
0000
0100
0000
,
0010
0010
0000
0000
0000
0000
0100
0001
,
1000
0000
0000
1000
0000
0000
0010
0000
0000
0100
0000
0000
0010
0000
1000
0000
,
0100
0100
0000
0000
0000
0000
0100
0010
,
0001
0000
0000
0010
0000
0000
1000
0000
0000
0010
0000
0000
0001
0000
0100
0000
,
0010
0000
1000
0000
0000
0100
0000
0000
0010
0000
0000
0100
0000
0000
1000
0000
,
0001
0000
0010
0000
0000
0001
0000
0000
0100
0010
0000
0000
0100
0010
0000
0000
,
0010
0000
0000
0010
0000
0000
1000
0000
0000
0001
0000
0000
0010
0000
0000
0001
,
0000
0000
0100
0000
0000
0010
0000
0000
1000
0000
0000
0001
0010
0000
0001
0000
,
2001
0000
0000
0010
0000
0010
0000
3010
0000
0000
0000
0000
0000
0000
0000
0000
,
0210
0000
0000
0001
0000
0001
0000
0301
0000
0000
0000
0000
0000
0000
0000
0000
,
0001
0100
1000
0000
1000
0010
0001
0000
,
0001
0010
1000
0100
1000
0001
0100
0010
,
1010
0100
1010
0100
,
1010
0000
0100
0000
1010
0000
0010
1000
,
0011
0010
0011
0001
,
0011
0000
0010
0000
0011
0000
0001
0100
,
0110
0100
0110
0010
,
0110
0000
0100
0000
0110
0000
0010
1000
,
1001
0010
1001
0100
,
1010
0001
0110
0100
,
0020
0000
0000
1030
0000
0000
0100
2000
,
0000
0000
0000
3100
0000
1000
0100
0010
,
0002
0000
0013
0000
0001
0200
0000
2000
,
0000
0000
0000
0000
3300
1000
0100
0001
,
0020
0000
0130
0000
0010
0002
0000
0200
,
0000
0000
0000
0000
0303
0001
0000
0001
,
0100
0000
1000
0000
0100
0001
0000
0010
,
0000
1000
0000
0020
0000
0002
0000
0033
,
0001
0000
0000
0100
0010
0000
0000
1000
,
0001
0000
0000
0001
0100
0000
0000
0010
,
1000
0000
0000
0100
0001
0000
0000
0010
,
0100
0000
0000
1000
0100
0000
0000
1000
,
0010
0000
0100
0000
0001
1000
0010
0000
,
0100
0000
0001
0000
0010
0100
1000
0000
,
0100
0000
1000
0000
0010
0000
0100
0000
0001
0000
0010
0000
,
0001
0010
0100
0010
1000
0100
0010
0001
0100
0001
0010
0100
,
2000
0000
0000
0010
0000
0000
0100
0100
,
0000
0000
0000
0010
0000
3010
0100
0001
,
0020
0000
0100
0000
1000
1000
0000
0200
,
0000
0000
0000
0330
0000
0100
0010
0001
,
0200
0000
1000
0000
0010
0010
0000
0001
,
0000
0000
0000
0000
0000
0310
0000
0010
,
1000
0000
0100
0000
0001
0100
0000
1000
,
0000
0010
0000
0200
0000
0020
0000
0000
,
0330
0000
0000
0000
;

//---------------dance-single - ----------------
#NOTES:
     dance-single:
     :
     Medium:
     5:
     0.307,0.363,0.047,0.210,0.000,244.000,6.000,27.000,0.000,0.000,0.000,0.307,0.363,0.047,0.210,0.000,244.000,6.000,27.000,0.000,0.000,0.000:
0000
0000
0000
0000
,
0000
0000
0000
0000
,
0000
0000
0000
0000
,
0000
0000
0000
0000
,
0000
0000
0000
0000
,
0000
0000
0000
0000
0000
0001
0000
1000
,
0001
0000
1000
0000
0001
1000
0000
0001
,
0000
0100
0000
0010
0000
1000
0000
0000
,
2000
0000
0000
3010
0000
0000
0100
0001
,
0000
0000
0000
0001
0000
0001
1000
0100
,
1000
0000
0010
0000
0100
0002
0000
0020
,
0000
0033
0000
0010
,
0100
0000
1000
0000
0010
0200
0000
0002
,
0000
0000
0303
0000
0000
0001
0000
0001
,
1000
0000
0100
0000
0010
0001
0000
0010
,
0000
0100
0000
1000
0000
0001
0000
0000
,
0100
0000
0000
1000
0000
0000
0100
0010
,
0000
0000
0000
0010
0000
0100
0001
1000
,
0001
0000
1000
0000
0001
0200
0000
0020
,
0000
0000
0000
0330
0000
0000
0010
0000
,
0100
0000
0001
0000
0010
0100
0000
0100
,
0000
0000
0000
0000
0000
0100
0000
0100
,
1000
0000
0010
0000
0100
0001
0000
0100
,
0000
0100
0000
0100
0000
0100
0000
0000
,
0010
0010
0000
0000
0000
0000
0010
0010
,
0010
0100
0010
1000
,
0001
0001
0000
0000
0000
0000
0001
0001
,
1000
0010
1000
0010
,
0100
0100
0000
0000
0000
0000
0100
0100
,
0010
1000
0001
0010
,
0100
0100
0000
0000
0000
0000
0100
0100
,
1000
0010
0100
0001
,
0020
0130
0020
0031
,
0002
0103
0200
1300
,
2000
3100
0200
0310
,
0020
1030
2000
3001
,
1002
1000
1003
1001
,
2001
0001
0001
3001
,
0002
0103
0200
0310
,
0020
1030
2000
3100
,
1000
0000
0010
0000
,
0100
0000
0010
0000
,
1000
0000
0001
0000
,
0010
0000
0100
0000
,
1000
0000
0010
0000
,
0001
0000
0010
0000
,
0100
0000
0010
0000
,
1000
0000
0001
0000
,
0010
0000
0000
0001
0000
0000
0001
0100
,
0000
0000
0000
0010
0000
0100
0010
1000
,
0001
0000
1000
0000
0100
1000
0000
0100
,
0000
0000
0000
0000
0000
0100
0010
0001
,
0100
0000
0010
0000
0100
0010
0000
1000
,
0000
0000
0000
0000
0000
1000
0000
1000
,
0100
0000
0001
0000
0100
0010
0000
0001
,
0000
0100
0000
1000
0000
0100
0000
0000
,
0010
0000
0000
0100
0010
0000
0000
0100
,
0010
0000
0000
0100
0010
0000
0000
0100
,
0010
0000
0000
0100
0010
0000
0000
0100
,
0010
0000
0000
0100
0010
0000
0100
0000
,
0001
0000
1001
0000
0001
0100
0010
0000
,
0100
0000
0110
0000
0010
1000
0100
0000
,
1000
1000
1000
1000
,
2000
3002
0203
2300
,
3100
0000
0000
0110
0000
0000
0010
1000
,
0000
0000
0000
0010
0000
0100
0001
1000
,
0001
0000
1000
0000
1000
0100
0000
0010
,
0000
0000
0000
0000
0000
0100
1000
0001
,
0100
0000
0001
0000
0010
0001
0000
0010
,
0000
0000
0000
0000
0000
0100
0000
0100
,
1000
0000
0010
0000
0100
0001
0000
0010
,
0000
0100
0000
2000
0000
0200
0000
0000
,
3300
0000
0000
0000
;

//---------------dance-single - ----------------
#NOTES:
     dance-single:
     :
     Easy:
     3:
     0.180,0.195,0.008,0.000,0.000,161.000,1.000,0.000,0.000,0.000,0.000,0.180,0.195,0.008,0.000,0.000,161.000,1.000,0.000,0.000,0.000,0.000:
0000
0000
0000
0000
,
0000
0000
0000
0000
,
0000
0000
0000
0000
,
0000
0000
0000
0000
,
0000
0000
0000
0000
,
0000
0000
0000
0000
,
0000
0000
0000
0000
,
0000
0000
0000
0000
,
1000
0000
0000
1000
0000
0000
0010
0000
,
0000
0000
0000
0100
0000
0000
0010
0000
,
1000
0000
0001
0000
0010
0000
0000
0010
,
0000
0000
0000
0100
,
1000
0000
0100
0000
1000
0000
0000
0010
,
0000
0000
0000
0000
0000
0100
0000
0000
,
0100
0000
0010
0000
1000
0000
0000
0001
,
0000
1000
0000
0001
0000
1000
0000
0000
,
0110
0000
0000
0010
0000
0000
0100
0000
,
0000
0000
0000
0100
0000
0000
0010
0000
,
1000
0000
0001
0000
0010
0000
0000
0010
,
0000
0000
0000
0010
,
0001
0000
1000
0000
0100
0000
0000
0100
,
0000
0000
0000
0000
0000
0100
0000
0000
,
0010
0000
0001
0000
0100
0000
0000
0010
,
0000
1000
0000
0010
0000
1000
0000
0000
,
0010
0000
0000
1000
,
0001
0001
0001
0001
,
0100
0000
0000
0100
,
0010
0010
0010
0010
,
1000
0000
0000
1000
,
0100
0100
0100
0100
,
1000
0000
0000
1000
,
0010
0010
0010
0010
,
0100
0000
0010
0000
,
1000
0000
0001
0001
,
0100
0000
0010
0000
,
1000
0000
0100
0000
,
0010
0100
0010
0000
,
0010
0100
0010
0000
,
0010
0000
0001
0000
,
0100
0000
1000
0000
,
0100
0000
0100
0000
,
0010
0000
0010
0000
,
1000
0000
0001
0000
,
0010
0000
0100
0000
,
1000
0000
0010
0000
,
0100
0000
0010
0000
,
1000
0000
0001
0000
,
0010
0000
0100
0000
,
1000
0000
0000
0100
0000
0000
0000
0010
,
0000
0000
0000
0001
0000
0000
0001
0000
,
0001
0000
0000
0000
0100
0000
0000
0010
,
0000
0000
0000
0100
,
0010
0000
1000
0000
0001
0000
0000
1000
,
0000
0000
0000
0000
0000
1000
0000
0000
,
1000
0000
0100
0000
0010
0000
0000
0100
,
0000
0100
0000
0100
0000
0100
0000
0000
,
0000
0000
0000
0010
0000
0000
0000
0010
,
0000
0000
0000
0100
0000
0000
0000
0100
,
0000
0000
0000
1000
0000
0000
0000
1000
,
0000
0000
0000
0001
0000
0000
0000
0000
,
0000
0001
0000
1000
,
0000
0010
0000
0100
,
0000
0010
0000
1000
,
0000
0001
0000
0010
,
0100
0000
0000
1000
0000
0000
0100
0000
,
0000
0000
0000
0100
0000
0000
0010
0000
,
0001
0000
1000
0000
0001
0000
0000
0100
,
0000
0000
0000
0001
,
0001
0000
1000
0000
0010
0000
0000
0010
,
0000
0000
0000
0000
0000
0100
0000
0000
,
0010
0000
1000
0000
0010
0000
0000
1000
,
0000
1000
0000
1000
0000
1000
0000
0000
;

//---------------dance-single - ----------------
#NOTES:
     dance-single:
     :
     Beginner:
     1:
     0.083,0.167,0.008,0.008,0.000,73.000,1.000,1.000,0.000,0.000,0.000,0.083,0.167,0.008,0.008,0.000,73.000,1.000,1.000,0.000,0.000,0.000: // measure 0
0000
0000
0000
0000
,  // measure 1
0000
0000
0000
0000
,  // measure 2
0000
0000
0000
0000
,  // measure 3
0000
0000
0000
0000
,  // measure 4
0000
0000
0000
0000
,  // measure 5
0000
0000
0000
0000
,  // measure 6
0000
0000
0000
0000
,  // measure 7
0000
0000
0000
0000
,  // measure 8
0010
0000
0000
0000
,  // measure 9
0000
0000
0000
0000
,  // measure 10
1000
0000
0001
0000
,  // measure 11
0100
0000
0000
0000
,  // measure 12
0100
0000
0000
0000
,  // measure 13
0000
0000
0000
0000
,  // measure 14
0010
0000
0000
0000
,  // measure 15
1000
0000
0000
0000
,  // measure 16
0001
0000
0000
0000
,  // measure 17
0100
0000
0000
0000
,  // measure 18
0010
0000
1000
0000
,  // measure 19
0010
0000
0000
0000
,  // measure 20
0100
0000
0000
0000
,  // measure 21
0100
0000
0000
0000
,  // measure 22
0100
0000
0010
0000
,  // measure 23
1000
0000
0000
0000
,  // measure 24
0001
0000
0000
0001
,  // measure 25
0001
0000
0000
0000
,  // measure 26
1000
0000
0000
1000
,  // measure 27
1000
0000
0000
0000
,  // measure 28
0010
0000
0000
0010
,  // measure 29
0010
0000
0000
0000
,  // measure 30
0100
0000
0000
0100
,  // measure 31
0100
0000
0000
0000
,  // measure 32
0010
0000
0000
0000
,  // measure 33
1000
0000
0001
0001
,  // measure 34
0001
0000
0000
0000
,  // measure 35
0000
0000
0000
0000
,  // measure 36
0100
0000
0000
0000
,  // measure 37
0100
0000
0000
0000
,  // measure 38
0010
0000
0000
0000
,  // measure 39
1000
0000
0000
0000
,  // measure 40
0001
0000
0000
0000
,  // measure 41
0001
0000
0000
0000
,  // measure 42
1000
0000
0000
0000
,  // measure 43
1000
0000
0000
0000
,  // measure 44
0010
0000
0000
0000
,  // measure 45
0100
0000
0000
0000
,  // measure 46
0001
0000
0000
0000
,  // measure 47
1000
0000
0000
0000
,  // measure 48
0100
0000
0000
0000
,  // measure 49
0000
0000
0000
0000
,  // measure 50
1000
0000
0000
0000
,  // measure 51
0000
0000
0000
0000
,  // measure 52
0010
0000
0000
0000
,  // measure 53
0000
0000
0000
0000
,  // measure 54
0001
0000
1000
0000
,  // measure 55
0010
0000
0000
0000
,  // measure 56
0100
0000
0000
0000
,  // measure 57
0100
0000
0000
0000
,  // measure 58
0010
0000
0000
0000
,  // measure 59
0010
0000
0000
0000
,  // measure 60
1000
0000
0000
0000
,  // measure 61
0001
0000
0000
0000
,  // measure 62
1000
0000
1000
0000
,  // measure 63
0001
0001
0001
0001
,  // measure 64
1001
0000
0000
0000
,  // measure 65
0100
0000
0000
0000
,  // measure 66
0010
0000
0010
0000
,  // measure 67
0010
0000
0000
0000
,  // measure 68
1000
0000
0001
0000
,  // measure 69
0100
0000
0000
0000
,  // measure 70
0020
0000
0000
0000
,  // measure 71
0000
0000
0000
0000
0000
0030
0000
0000
;
