#TITLE:Play the FUTURE;
#SUBTITLE:;
#ARTIST:Urban Chopstix feat. Mellow;
#TITLETRANSLIT:;
#SUBTITLETRANSLIT:;
#ARTISTTRANSLIT:;
#CREDIT:;
#BANNER:bn.png;
#BACKGROUND:bg.png;
#LYRICSPATH:;
#CDTITLE:;
#MUSIC:Play the FUTURE.mp3;
#OFFSET:-0.257;
#SAMPLESTART:23.680;
#SAMPLELENGTH:12.000;
#SELECTABLE:YES;
#BPMS:0.000=32.000,8.000=128.000;
#STOPS:71.500=0.469
;
#BGCHANGES:;

//---------------dance-single - ----------------
#NOTES:
     dance-single:
     :
     Hard:
     7:
     0.389,0.399,0.218,0.201,0.013: // measure 1
0000
0000
0000
0000
,  // measure 2
1000
0000
0100
0000
0010
0000
0001
0000
0001
0000
1000
0000
0001
0000
0100
0010
,  // measure 3
1001
1000
0001
1000
,  // measure 4
0001
1000
0001
1000
,  // measure 5
0001
1000
0001
1000
,  // measure 6
0001
0000
1000
0000
0001
0000
0010
0100
,  // measure 7
1001
0000
0101
0000
0001
0010
0001
0100
,  // measure 8
0001
0000
0011
0000
0001
1000
0001
0100
,  // measure 9
0110
0000
1001
0000
1000
0010
0100
0010
,  // measure 10
1000
0000
1001
0000
0001
1000
0100
1000
,  // measure 11
0010
0000
1010
0000
0001
0100
0001
0010
,  // measure 12
0001
0000
1001
0000
1000
0001
0100
0010
,  // measure 13
1000
0000
1010
0000
1000
0001
0100
0001
,  // measure 14
0010
0000
1001
0000
1000
0010
0100
0010
,  // measure 15
1000
1000
1000
1000
,  // measure 16
0001
0001
0001
0001
,  // measure 17
0100
0100
0100
0100
,  // measure 18
0010
0010
0010
0010
,  // measure 19
0001
1000
0001
0010
0001
0100
0010
0000
,  // measure 20
0110
0000
0010
0001
0010
0100
0010
0000
,  // measure 21
0011
0000
0001
0010
0100
1000
0100
0000
,  // measure 22
1100
0000
1000
0100
0010
0001
0100
0000
,  // measure 23
1001
0000
1000
1000
0001
0001
1001
0000
,  // measure 24
0110
0000
0010
0010
0100
0100
0110
0000
,  // measure 25
1001
0000
1000
0100
0010
0001
0001
1000
,  // measure 26
0001
0100
0020
1030
0200
0310
0000
0010
,  // measure 27
0001
0010
0002
0000
0013
0000
0000
0010
,  // measure 28
0001
0100
0020
0000
0100
0100
0030
0010
,  // measure 29
0100
0020
0000
0000
0000
0100
0130
0000
,  // measure 30
0000
0101
0000
1001
,  // measure 31
1000
0001
1000
0001
,  // measure 32
1000
0001
1000
0001
,  // measure 33
1000
0000
0001
0000
1000
0000
1000
0100
,  // measure 34
0010
0001
0101
0001
0020
0032
1003
0000
,  // measure 35
0001
0100
0020
0000
1000
0000
1030
0010
,  // measure 36
0100
0001
0200
0000
0301
2000
0000
3100
,  // measure 37
2000
0020
0000
0000
3030
0000
0010
0000
,  // measure 38
0100
0000
0001
0000
1000
1000
1100
1000
,  // measure 39
0001
0100
0020
0000
0130
0000
0010
1000
,  // measure 40
0001
0010
0100
0000
0010
0002
0000
2000
,  // measure 41
0000
0000
0000
0000
3003
0000
0001
0100
,  // measure 42
1000
0001
0010
1000
0010
0001
0000
0000
,  // measure 43
1000
0000
0001
0100
0020
0000
0130
0000
,  // measure 44
0100
0000
0001
0010
2000
0000
3100
0000
,  // measure 45
0100
0000
0010
0001
2000
0000
3001
0000
,  // measure 46
0101
0000
0010
1000
0001
0100
0002
0000
,  // measure 47
0013
0000
0001
0010
0100
1000
0100
0000
,  // measure 48
0110
0000
1000
0100
0010
0100
0020
0000
,  // measure 49
0130
0000
0000
0000
0002
0000
0000
0000
1003
0000
0000
0000
0001
0000
0000
1000
,  // measure 50
0000
1000
0100
0000
0001
0000
0100
0000
0010
0000
2000
0000
0002
0000
0000
0000
,  // measure 51
0000
3000
0000
0003
;

//---------------dance-single - Blank----------------
#NOTES:
     dance-single:
     Blank:
     Medium:
     5:
     0.279,0.313,0.087,0.140,0.000:
0000
0000
0000
0000
,
2002
0000
0000
3003
0220
0000
0000
0330
,
0010
1000
0100
0100
,
1000
0010
0100
0100
,
0001
0010
0100
0100
,
0010
0000
0001
0000
0100
0000
0010
1000
,
1001
0001
1000
0100
,
1000
0010
0100
0100
,
0010
1000
0001
0010
,
0100
0010
0001
1000
,
0100
0010
0100
1000
,
0010
0100
0001
0100
,
1000
0100
0010
0010
,
1000
0001
0010
0010
,
0100
0100
0100
0100
,
1000
1000
1000
1000
,
0001
0001
0001
0001
,
0010
0000
0010
0000
0010
0000
0010
0100
,
0010
0001
0100
1000
,
0100
0010
0010
1000
,
0001
0010
0010
0100
,
1000
0010
0010
0100
,
0001
1000
1000
0010
,
0100
0010
0010
0100
,
0001
0000
1000
0000
1000
0000
0001
0100
,
0010
0000
0100
0010
1000
0001
0020
0000
,
0000
0000
0000
0000
0000
0030
0110
0000
,
0000
0000
0000
1100
,
0000
0000
0000
0011
,
0000
1001
0000
0001
,
1000
0100
1000
0001
,
0100
0001
1000
0100
,
1000
0000
0001
0000
0100
0000
0001
0100
,
0001
0100
0001
0100
0001
0001
0100
0000
,
0010
2000
0200
3300
,
1000
0010
0100
0001
,
0020
0000
0030
0001
,
0100
0000
0010
0000
1000
0010
0100
0000
,
0010
2000
0000
3001
,
1000
0000
0100
0000
0010
0002
0000
0200
,
0000
0000
0000
0000
0303
0000
0001
0100
,
0010
1000
0001
0100
0010
1000
0001
0000
,
1000
0100
2000
0000
3000
0000
1000
0000
,
0100
0000
0010
0100
0020
0000
0031
0000
,
0010
0000
0100
1000
0020
0000
0130
0000
,
0010
0000
1000
0000
0001
0100
0010
0000
,
0110
0000
0010
1000
0001
0000
0010
0000
,
1100
0000
0010
1000
0001
0000
0100
0000
,
0101
0000
0001
1000
0010
0000
0100
0000
,
0010
0000
1000
0000
0001
0020
0000
0200
,
0000
0000
0000
0300
,
0000
0030
0000
0000
;

//---------------dance-single - ----------------
#NOTES:
     dance-single:
     :
     Easy:
     3:
     0.196,0.201,0.035,0.140,0.000:
0000
0000
0000
0000
,
0002
0003
2000
3000
,
0010
0000
0010
0000
,
0100
0000
0100
0000
,
0001
0000
0001
0000
,
1000
0000
1000
0001
,
1001
0000
0010
1000
,
0100
0000
0010
0001
,
0100
0000
0010
1000
,
0100
0000
0010
0001
,
1000
0000
0001
1000
,
0100
0000
1000
0010
,
0100
0000
0010
0100
,
0001
0000
0001
1000
,
0100
0000
0100
0000
,
0010
0000
0010
0000
,
0100
0000
1000
0000
,
0010
0000
0100
0000
,
0000
0001
0000
1000
,
0000
0010
0010
1000
,
0000
0001
0001
0010
,
0000
0100
1000
0100
,
0000
1000
0010
0100
,
0000
0010
1000
0001
,
0000
0010
0100
1000
,
0001
0100
0010
2000
,
0000
0000
0000
0020
,
0000
0000
3000
0200
,
0000
0000
0000
0000
0000
0330
0110
0000
,
0000
1001
0000
0001
,
1000
0001
1000
0001
,
1000
0001
1000
0001
,
1000
0001
1000
0002
,
0000
0000
0000
0103
,
0001
0020
0000
0030
,
0001
1000
0100
0010
,
0002
0000
0003
1000
,
0001
0100
0110
0010
,
1000
0020
0000
0030
,
1000
0010
0100
0002
,
0020
0000
0033
0001
,
0010
0100
1000
0200
,
0000
1000
1300
0200
,
0000
0010
0310
0200
,
0000
1000
1300
2000
,
0000
0010
3010
0010
,
1000
0001
0010
0001
,
1000
0010
1000
0001
,
0100
0001
1000
0100
,
1000
0001
0100
0020
,
0000
0000
0000
0000
,
0000
0030
0000
0000
;

//---------------dance-single - ----------------
#NOTES:
     dance-single:
     :
     Beginner:
     1:
     0.069,0.089,0.009,0.035,0.000:
0000
0000
0000
0000
,
0000
0000
0000
0000
,
0001
0000
0000
0000
,
0000
0000
0000
0000
,
0000
0000
0000
0000
,
0000
0000
0000
0000
,
1000
0000
0000
0000
,
0001
0000
0000
0000
,
0010
0000
0000
0000
,
0001
0000
0000
0000
,
1000
0000
0000
0000
,
0010
0000
0000
0000
,
0100
0000
0000
0000
,
0010
0000
0000
0000
,
1000
0000
0000
0000
,
1000
0000
0000
0000
,
0001
0000
0000
0000
,
0001
0000
0000
0000
,
0001
0000
0000
0100
,
0000
0000
0000
0010
,
0000
0000
0000
1000
,
0000
0000
0000
0001
,
0000
0000
0000
0010
,
0000
0000
0000
0001
,
0000
0000
0000
1000
,
0000
0001
0000
0100
,
0000
0000
0000
0010
,
0000
0000
0000
1000
,
0000
0000
0000
0001
,
0000
1000
0000
0010
,
0000
0000
0000
0100
,
0000
0000
0000
0010
,
0000
0000
0000
2000
,
0000
0000
3000
0001
,
0000
0000
0000
1000
,
0000
0000
0000
0010
,
0000
0000
0000
0100
,
0000
0100
0000
0010
,
0000
0000
0000
1000
,
0000
0000
0000
0001
,
0000
0000
0000
0020
,
0000
0000
0030
0001
,
0000
0000
0000
1000
,
0000
0000
0000
0010
,
0000
0000
0000
0100
,
0000
0000
0000
0010
,
0000
0000
0000
1000
,
0000
0000
0000
0001
,
0000
0000
0000
0010
,
0000
0100
0000
2002
,
0000
0000
0000
0000
,
3003
0000
0000
0000
;

//---------------dance-single - ----------------
#NOTES:
     dance-single:
     :
     Challenge:
     9:
     0.566,1.000,0.166,0.131,0.546: // measure 1
0000
0000
0000
0000
,  // measure 2
1000
0000
0000
0000
0010
0000
0000
0000
0100
0000
0000
0000
0001
0000
0000
0000
1000
0000
0000
0000
0001
0000
0000
0000
0010
0000
0000
0000
0100
0000
0000
0000
0010
0000
0000
0000
0001
0000
0000
0000
1000
0000
0000
0000
0001
0000
0000
0000
0100
0000
0000
0000
0001
0000
0000
0000
0010
0000
0000
0000
0100
0000
0000
0000
1000
0000
0000
0000
0001
0000
0000
0000
1001
0000
0000
0000
0000
0000
0000
0000
0000
0000
0000
0000
0000
0000
0000
0000
0000
0000
0001
0000
0000
0000
0000
0000
0010
0000
0000
0000
0001
0000
0000
0000
0100
0000
0000
0000
0010
0000
0000
0000
1000
0000
0000
0000
0001
0000
0000
0000
0010
0000
0000
0000
0001
0000
0000
0000
1000
0000
0000
0000
0100
0000
0000
0000
1000
0000
0000
0000
0010
0000
0000
0000
0100
0000
0000
0000
1000
0000
0000
0000
0010
0000
0000
0000
0100
0000
0000
0000
0001
0000
0000
0000
1000
0000
0000
0000
1001
0000
0000
0000
0000
0000
0000
0000
0000
0000
0000
0000
0010
0000
0000
0000
0000
0000
0010
0000
0000
0000
0000
0000
,  // measure 3
1001
0001
1000
0001
1000
0001
1000
0001
,  // measure 4
1000
0100
1000
0100
1000
0100
1000
0100
,  // measure 5
1000
0001
1000
0001
1000
0001
1000
0001
,  // measure 6
0010
0001
0010
0001
0010
0001
0011
1010
,  // measure 7
0100
0000
0000
0100
0000
0100
0010
0000
1000
0000
0001
0000
0010
0000
0001
0000
,  // measure 8
0100
0000
0000
0100
0000
0100
0010
0000
1000
0000
0100
0000
0010
0000
0001
0000
,  // measure 9
1000
0000
0000
1000
0000
1000
0100
0000
0010
0000
0100
0000
0010
0000
1000
0000
,  // measure 10
0010
0000
0000
0001
0000
0001
1000
0000
0001
0000
0010
0000
1000
0000
0010
0000
,  // measure 11
0100
0000
0000
0010
0000
0001
0010
0000
0001
0000
0100
0000
0010
0000
1000
0000
,  // measure 12
0100
0000
0000
1000
0000
0001
0100
0000
0010
0000
1000
0000
0001
0000
0010
0000
,  // measure 13
0001
0000
0000
1000
0000
1000
0100
0000
1000
0000
0010
0000
0100
0000
0001
0000
,  // measure 14
0010
0000
0000
0010
0000
0010
0001
0000
0010
0000
0100
0000
1000
0000
0001
0000
,  // measure 15
0000
1000
0000
0001
1000
0000
0001
0000
1000
0000
0000
0001
0000
0000
1000
0000
,  // measure 16
0000
0001
1000
0000
0001
0000
1000
0001
0000
0000
1000
0000
0000
0000
1000
0000
,  // measure 17
0000
1000
0000
0001
1000
0000
0001
0000
1000
0000
0000
0001
0000
0000
0001
0000
,  // measure 18
0000
1000
0001
0000
1000
0000
0001
1000
0000
0000
0001
0000
1000
0000
1001
0000
,  // measure 19
0000
0100
0010
0000
1000
0000
0001
0000
0010
0000
0001
0000
0100
0000
0000
0100
,  // measure 20
0000
0100
0010
0000
1000
0000
0100
0000
0010
0000
0001
0000
1000
0000
0000
1000
,  // measure 21
0000
1000
0100
0000
0010
0000
0100
0000
0010
0000
1000
0000
0010
0000
0000
0001
,  // measure 22
0000
0001
1000
0000
0001
0000
0010
0000
1000
0000
0010
0000
0100
0010
0000
0001
,  // measure 23
0010
0000
0001
0000
1000
0000
0001
0100
0000
0100
0010
0000
0000
0010
1000
0000
,  // measure 24
0001
0000
1000
0000
0100
0000
0000
0010
0000
0000
0001
0000
0000
0100
0000
0010
,  // measure 25
1000
0000
0100
0000
1000
0000
0010
0100
0000
0100
0001
0000
1000
0000
0001
0000
,  // measure 26
0100
0000
1000
0000
0100
0000
0010
1000
0001
0010
0100
1000
0001
0000
0100
0000
,  // measure 27
1000
0100
0010
0000
0100
0000
0000
0010
,  // measure 28
1000
0001
0010
0000
0010
0100
0000
0100
,  // measure 29
1000
0020
0000
0000
0000
0130
1001
0000
,  // measure 30
0000
0000
1001
0000
1000
1000
0001
1000
,  // measure 31
0001
1000
0001
0100
0001
0100
0010
0100
,  // measure 32
0010
0100
0010
1000
0010
1000
0100
1000
,  // measure 33
0100
1000
0100
0010
0100
0010
0100
1000
,  // measure 34
0100
0000
0001
0000
0100
0000
1000
0000
0010
0000
0001
0000
0010
0000
0000
0100
,  // measure 35
0000
0000
0001
0000
0000
0000
1000
0000
0000
0100
0000
0000
1000
0000
0000
0010
,  // measure 36
0000
0000
0100
0000
0000
0000
0010
0000
0000
1000
0000
0000
0001
0000
0000
0010
,  // measure 37
0000
0000
0001
0000
0000
0000
0001
0100
0001
0000
0100
0000
0010
1000
0000
1000
,  // measure 38
0100
0000
0100
0010
0000
0010
0001
0000
1100
0000
0011
0000
0010
0000
0000
0010
,  // measure 39
0000
0000
1000
0000
0000
0000
1000
0000
0000
0100
0000
0000
0010
0000
0000
0100
,  // measure 40
0000
0000
1000
0000
0000
0000
0001
0000
0000
0100
0000
0000
0010
0000
0000
0100
,  // measure 41
0000
0000
0001
0000
0000
1000
0100
1000
0100
0000
1000
0000
0010
0100
0000
0100
,  // measure 42
0001
0000
0001
1000
0000
1000
0100
0000
1100
0000
0110
0000
0011
0000
0000
0001
,  // measure 43
0000
0001
0100
0000
0010
0000
1000
0000
2002
0000
0000
3003
0001
0000
0000
0100
,  // measure 44
0000
0010
1000
0000
0010
0000
0100
0000
0202
0000
0000
0303
0010
0000
0000
1000
,  // measure 45
0000
1000
0100
0000
1000
0000
0010
0000
0220
0000
0000
0330
0010
0000
0000
1000
,  // measure 46
0000
0001
0100
0000
0010
0100
0010
0100
0010
0100
0010
0100
0010
0000
1000
0010
,  // measure 47
0000
0100
0001
0000
1000
0000
0100
0000
0220
0000
0000
0330
0010
0000
0100
1000
,  // measure 48
0000
0100
1000
0000
0100
0000
1000
0000
0220
0000
0000
0330
0010
0000
0010
0100
,  // measure 49
0000
0100
0001
0000
0001
0000
0100
0000
2020
0000
0000
3030
1000
0000
0000
0001
,  // measure 50
0000
0100
0100
0000
0010
0000
1000
0000
0001
0000
0010
0000
0001
0000
0002
0000
,  // measure 51
0000
0000
0000
0000
1000
0000
2000
0000
0000
0000
0003
0000
3010
0000
0100
0010
,  // measure 52
0100
0000
0100
0010
1000
0000
0001
0010
0000
0100
0000
1000
0000
0000
0000
0000
;
