#TITLE:Photosynthesis;
#SUBTITLE:;
#ARTIST:zircon;
#TITLETRANSLIT:;
#SUBTITLETRANSLIT:;
#ARTISTTRANSLIT:;
#GENRE:ECOLOGIC TECHNO;
#CREDIT:;
#BANNER:bn.png;
#BACKGROUND:photosynthesisbg.png;
#LYRICSPATH:;
#CDTITLE:;
#MUSIC:Phosynthesis.mp3;
#OFFSET:-0.199;
#SAMPLESTART:36.780;
#SAMPLELENGTH:12.000;
#SELECTABLE:YES;
#BPMS:0.000=117.980
;
#STOPS:;
#BGCHANGES:;
#KEYSOUNDS:;
#ATTACKS:;

//---------------dance-single - ----------------
#NOTES:
     dance-single:
     :
     Hard:
     7:
     0.340,0.406,0.090,0.099,0.126,243.000,10.000,11.000,0.000,0.000,0.000,0.340,0.406,0.090,0.099,0.126,243.000,10.000,11.000,0.000,0.000,0.000:
0000
0000
0000
0000
,
0000
0000
0000
0000
,
0000
0000
0000
0000
,
0000
0000
0000
0000
,
0001
0000
1100
0000
1000
0001
0100
0001
,
1000
0000
0101
0000
0100
0010
1000
0010
,
0100
0000
1001
0000
1000
0001
0010
0000
,
0100
1000
0010
0100
0001
0000
1000
0000
,
0220
0000
0000
0000
,
0000
0000
0000
0330
,
0010
0000
0010
0000
0010
0001
0100
0000
,
0000
0000
0100
0010
,
1000
0000
1000
0000
1000
0001
0010
0000
,
0000
0000
0100
1000
,
0100
0000
0010
0000
0100
0010
0001
0000
,
0000
0000
1000
0001
,
0100
0000
0010
0000
1000
0001
0010
0000
,
0000
0000
0000
0100
1000
0000
0010
0000
,
0100
0001
0100
1000
0100
0010
1000
0000
,
0000
0000
0000
1000
0100
0001
0100
1000
,
0010
0100
0001
0010
0001
1000
0010
0000
,
0000
0000
0000
0100
0010
1000
0100
0010
,
0001
0001
0010
1000
0010
0001
1000
0000
,
0000
0000
0000
0001
0100
0010
0100
0001
,
1000
0100
0010
0001
0010
0100
1000
0000
,
0000
0000
0000
0100
0010
1000
0001
0010
,
0100
0000
0010
0001
0000
0001
0100
0000
,
0010
0000
2000
3100
1000
0001
0100
0002
,
0013
0000
0100
1000
0010
0000
0100
0001
,
1000
0000
1000
0001
0011
0000
1100
0000
,
1001
0001
0010
0001
0000
0100
0010
1000
,
0001
1000
0000
0100
0010
0001
1000
0010
,
0100
0000
0010
1000
0000
0000
0100
0000
,
1000
0000
0001
0100
0000
0000
0110
0000
,
0001
1000
0100
0010
0100
1000
0001
0000
,
0002
0103
0010
1000
0100
0010
0001
0000
,
1000
0001
0100
0010
1000
0100
0010
0000
,
0100
0010
0001
0010
0200
2300
0200
3300
,
0000
0000
0000
0000
1000
0010
0000
0000
0100
0000
0000
0001
0000
0000
0010
0000
,
0000
0000
0000
0000
,
0100
1000
0001
0100
,
1000
0100
0010
1000
,
0000
0001
0000
0000
0100
0000
0000
0010
0000
0000
1000
0000
0000
0100
0000
1000
,
0000
0100
0000
0000
1000
0000
0000
0010
0000
0000
0100
0000
0000
0001
0000
1000
,
0000
0010
0000
0000
0100
0000
0000
0010
0000
0000
1000
0000
0000
0001
0000
0001
,
0000
1000
0000
0000
0001
0000
0000
0100
0000
0000
0010
0000
0000
1000
0000
1000
,
0100
0010
0011
0000
0001
0000
0100
0000
,
0010
0000
0000
1000
0000
0000
1100
0000
0000
0000
0000
0000
1000
0000
0000
0000
0000
0000
0001
0000
1000
0000
0001
0000
,
1000
0010
0000
0000
0100
0000
0000
0010
0000
0000
1000
0000
0000
0001
0000
0010
,
0000
0001
0000
0000
0100
0000
0000
0010
0000
0000
1000
0000
0000
0001
0000
0100
,
0010
1000
0010
0001
0200
0000
0000
0000
,
0320
0000
0000
0000
,
2000
0000
0000
0000
,
3030
0000
0000
0000
;

//---------------dance-single - ----------------
#NOTES:
     dance-single:
     :
     Medium:
     5:
     0.237,0.310,0.063,0.144,0.000,161.000,7.000,16.000,0.000,0.000,0.000,0.237,0.310,0.063,0.144,0.000,161.000,7.000,16.000,0.000,0.000,0.000: // measure 0
0000
0000
0000
0000
,  // measure 1
0000
0000
0000
0000
,  // measure 2
0000
0000
0000
0000
,  // measure 3
0000
0000
0000
0000
,  // measure 4
1000
0001
0100
0100
,  // measure 5
0010
0000
1000
0000
0100
0010
0100
0000
,  // measure 6
0010
0001
0100
1000
,  // measure 7
0100
0000
0010
0000
1000
0001
0010
0000
,  // measure 8
2200
0000
0000
0000
,  // measure 9
0000
0000
0000
3300
,  // measure 10
1000
0100
0001
0100
,  // measure 11
0000
0000
0010
0001
,  // measure 12
0100
1000
0100
0001
,  // measure 13
0000
0000
0001
0010
,  // measure 14
1000
0100
1000
0010
,  // measure 15
0000
0000
0100
1000
,  // measure 16
0100
0001
0010
0100
,  // measure 17
0000
0000
0100
0010
,  // measure 18
0001
0000
1000
0000
0001
1000
0001
0000
,  // measure 19
0000
0000
0001
0100
,  // measure 20
0010
0000
1000
0000
0100
0010
0001
0000
,  // measure 21
0000
0000
0001
0010
,  // measure 22
0100
0000
0010
0000
0010
0001
0100
0000
,  // measure 23
0000
0000
0010
1000
,  // measure 24
0001
0000
0100
0000
1000
0100
0010
0000
,  // measure 25
0000
0000
0010
1000
,  // measure 26
0002
1000
0100
0013
,  // measure 27
0011
0000
0001
0100
1000
0000
0100
0000
,  // measure 28
2000
3100
0200
0310
,  // measure 29
1000
0010
0100
0001
,  // measure 30
0010
0100
1000
0000
0100
0000
1000
0000
,  // measure 31
0010
0100
0001
0000
1000
0000
0001
0000
,  // measure 32
0010
0001
0010
0000
0001
0000
0100
0000
,  // measure 33
0010
0100
0010
0000
0100
0001
1000
0000
,  // measure 34
0100
0000
1000
0000
0010
0100
0001
0000
,  // measure 35
1000
0000
0100
0000
1000
0010
0100
0000
,  // measure 36
0010
0000
1000
0000
0001
1000
0100
0000
,  // measure 37
1000
0000
0010
0000
0100
0010
0100
0000
,  // measure 38
0010
0000
2000
0000
0000
0000
0000
3000
,  // measure 39
0000
0000
0000
0000
,  // measure 40
0001
0000
0000
0000
,  // measure 41
1000
0000
0000
0000
,  // measure 42
0020
0000
0000
0000
,  // measure 43
0230
0000
0000
0000
,  // measure 44
0320
0000
0000
0000
,  // measure 45
0230
0000
0000
0000
,  // measure 46
0310
1000
1010
0000
0100
0000
0010
0000
,  // measure 47
1000
0001
1001
0000
0001
0000
0020
0000
,  // measure 48
0031
0100
0110
0000
0100
0000
0010
0000
,  // measure 49
1000
0001
0101
0000
0001
0000
0100
0000
,  // measure 50
0020
2030
0200
0000
,  // measure 51
3300
0000
0000
0000
,  // measure 52
0202
0000
0000
0000
,  // measure 53
0303
0000
0000
0000
;

//---------------dance-single - ----------------
#NOTES:
     dance-single:
     :
     Challenge:
     9:
     0.510,0.820,0.072,0.297,0.302,355.000,8.000,33.000,0.000,0.000,0.000,0.510,0.820,0.072,0.297,0.302,355.000,8.000,33.000,0.000,0.000,0.000:
0000
0000
0000
0000
,
0000
0000
0000
0000
,
0000
0000
0000
0000
,
0000
0000
0000
0000
,
1000
0001
0100
1000
0100
0010
1000
0100
,
0001
0100
1000
0010
0001
0010
0100
1000
,
0001
0010
0001
0100
1000
0100
0010
1000
,
0100
1000
0001
0100
0010
1000
0100
0010
,
0022
0000
0000
0000
,
0000
0000
0000
0000
0000
0000
0000
0033
,
0001
0100
1000
0010
0001
0100
1000
0000
,
0000
0000
0000
1000
0100
0001
0010
1000
,
0001
0100
1000
0010
0001
0100
1000
0000
,
0000
0000
0000
0000
1000
0001
0010
0100
,
1000
0010
0001
0100
1000
0010
0001
0000
,
0000
0000
0000
0001
0010
1000
0100
0010
,
1000
0010
0001
0100
1000
0010
0001
0000
,
2000
3002
0023
0230
,
1300
0010
0001
0010
0100
0002
0020
0000
,
0033
0000
0000
0001
0100
1000
0100
0010
,
0100
1000
0001
0100
1000
0200
0020
0000
,
0330
0000
0000
0010
0100
0001
1000
0100
,
1000
0100
0001
0010
0100
2000
0002
0000
,
0000
0000
3003
0001
0100
0010
1000
0001
,
1000
0010
0001
0100
0010
2000
0002
0000
,
0000
0000
3003
0010
0100
0001
1000
0100
,
0020
0000
0001
0001
0000
0100
0100
0000
,
1000
0000
0030
0000
0100
0010
0100
0000
0010
0000
0001
0000
1000
0000
0010
1000
,
0100
0010
0100
1000
0001
0100
1000
0100
,
0001
0010
0001
0100
0220
0330
0202
0303
,
0001
0000
0010
0001
0010
0000
0001
0000
0100
0000
1000
0000
0100
0000
0010
0000
,
1000
0001
0010
0100
1000
0001
0100
0001
,
0010
0100
0010
0000
0100
0000
1000
0000
0010
0000
0100
0000
0001
0000
1000
0000
,
0001
1000
0001
0000
0100
0000
0001
0000
0010
0000
0100
0000
0010
0000
0001
0000
,
1000
0001
0000
0001
0010
0001
0000
0010
0100
1000
0000
1000
0001
0100
0000
0001
,
0010
0100
2000
0000
0020
0000
0000
3030
0100
0001
0100
0001
0100
0000
0000
0000
,
0010
0100
0000
0100
0001
0000
0001
1000
0000
1000
0100
0000
0010
0000
0001
0000
,
0100
0000
1000
0000
0010
0000
1000
0000
0001
0010
0001
0010
0001
0000
0100
0000
,
0010
0000
0000
0000
0100
0002
0000
0000
2000
0000
0003
0200
0000
3000
0020
0000
,
0000
0000
0000
0330
,
0010
0001
1000
0001
0010
0100
1000
0100
,
0010
0001
0100
0010
0100
0001
1000
0010
,
0100
0010
0000
0100
0010
0000
0100
0010
0000
0100
0010
0000
0100
0010
0000
0010
,
0100
0001
0000
0100
0001
0000
0100
0001
0000
0100
0001
0000
0100
0001
0000
0100
,
0001
1000
0000
1000
0100
0000
1000
0100
0000
1000
0100
0000
1000
0100
0000
1000
,
0100
0010
0000
0100
0010
0000
0100
0010
0000
0100
0010
0000
0100
0010
0000
0100
,
0010
0001
0101
0000
0010
0010
0100
0001
,
1000
0000
0000
0100
0000
0000
0110
0000
0000
0000
0000
0000
0100
0000
0000
0100
0000
0000
0010
0000
0010
0000
0010
0000
,
0001
1000
1010
0000
0010
0100
0001
1000
,
0100
0000
0010
0000
0011
0000
0000
0000
0001
1000
0001
1000
0001
0000
1001
0000
,
0001
0000
0000
0000
0000
0000
0000
0000
0000
0000
0000
0000
0100
0000
0000
0000
0000
0000
0000
0000
0000
0000
0000
0000
0001
0000
0000
0000
0000
0000
0000
0000
0000
0000
0000
0000
0100
0000
0000
0000
0000
0000
0000
0000
0000
0000
0000
0000
0001
0000
0000
0000
0000
0000
0000
0000
0000
0000
0000
0000
0100
0000
0000
0000
0000
0000
0000
0000
0000
0000
0000
0000
0001
0000
0000
0000
0000
0000
0000
0000
0000
0000
0000
0000
0100
0000
0000
0000
0000
0000
0000
0000
0000
0000
0000
0000
0001
0000
0000
0000
0000
0000
0000
0000
0100
0000
0000
0000
0000
0000
0000
0000
0001
0000
0000
0000
0000
0000
0000
0000
0100
0000
0000
0000
0000
0000
0000
0000
0001
0000
0000
0000
0000
0000
0000
0000
0100
0000
0000
0000
0000
0000
0000
0000
0001
0000
0000
0000
0000
0000
0000
0000
0100
0000
0000
0000
0000
0000
0000
0000
0001
0000
0000
0000
0000
0000
0000
0000
0100
0000
0000
0000
0000
0000
0000
0000
0001
0000
0000
0000
0000
0000
0000
0000
0000
0000
0200
0000
0000
0000
0000
0000
,
0002
0000
0000
0000
0000
0000
0000
0000
0000
0000
0000
0000
0000
0000
0000
0000
0000
0000
0000
0000
0000
0000
0000
0000
0000
0000
0000
0000
0000
0000
0300
0000
0000
0000
0000
0000
0000
0000
0000
0000
0200
0000
0000
0000
0000
0000
0000
0000
0300
0000
0000
0000
0000
0000
0000
0000
0200
0000
0000
0000
0000
0000
0000
0000
0300
0000
0000
0000
0000
0000
0000
0000
0200
0000
0000
0000
0000
0000
0000
0000
0000
0000
0000
0000
0000
0000
0000
0000
0300
0000
0000
0000
0000
0000
0000
0000
0200
0000
0000
0000
0000
0000
0000
0000
0000
0000
0000
0000
0000
0000
0000
0000
0000
0000
0000
0000
0000
0000
0000
0000
0300
0000
0000
0000
0000
0000
0200
0000
0000
0000
0000
0000
0000
0000
0000
0000
0000
0000
0000
0000
0000
0000
0000
0000
0000
0000
0000
0000
0000
0000
0000
0000
0000
0000
0000
0000
0300
0000
0000
0000
0000
0000
0000
0000
0000
0000
0000
0000
0200
0000
0000
0000
0000
0000
0000
0000
0000
0000
0000
0000
0000
0000
0000
0000
0000
0000
0000
0000
0000
0000
0000
0000
,
0303
0000
0000
0000
;

//---------------dance-single - ----------------
#NOTES:
     dance-single:
     :
     Easy:
     2:
     0.147,0.167,0.045,0.090,0.000,99.000,5.000,10.000,0.000,0.000,0.000,0.147,0.167,0.045,0.090,0.000,99.000,5.000,10.000,0.000,0.000,0.000:
0000
0000
0000
0000
,
0000
0000
0000
0000
,
0000
0000
0000
0000
,
0000
0000
0000
0000
,
0001
0000
0100
0000
,
0010
0000
1000
0000
,
0001
0000
1000
0000
,
0010
0000
0100
0001
,
0022
0000
0000
0000
,
0000
0000
0000
0033
,
0001
0000
1000
0001
,
0000
0000
0100
0000
,
0010
0000
1000
0010
,
0000
0000
0100
0010
,
1000
0000
0001
0001
,
0000
0000
0100
0010
,
1000
0000
0100
0000
,
2000
0000
3000
0000
,
0001
1000
0100
0100
,
0000
0000
0100
0010
,
0001
1000
0010
0010
,
0000
0000
0010
0010
,
1000
0001
1000
0100
,
0000
0000
0100
0100
,
1000
0001
1000
0010
,
0000
0000
0010
0010
,
0100
0000
0010
0000
,
1000
1000
1000
0000
,
0001
0000
0010
0000
,
0100
1000
0100
0000
,
0010
0000
0001
0000
,
0100
0000
0010
1000
,
0001
0000
1000
0000
,
0010
0100
0001
1000
,
0100
0000
0010
0000
,
0001
0000
1000
0001
,
0100
0000
0010
0000
,
1000
0000
0001
0000
,
2000
0000
0000
0000
,
3000
0000
0000
0000
,
0001
0000
0000
0000
,
0001
0000
0000
0000
,
0002
0000
0000
0000
0000
0000
0000
0003
,
2000
0000
0000
0000
0000
0000
0000
3000
,
0020
0000
0000
0000
0000
0000
0000
0030
,
0200
0000
0000
0000
0000
0000
0000
0300
,
0010
1001
0000
0000
,
0001
1100
0000
0100
,
0010
0011
0000
0000
,
0001
1100
0000
0000
,
0200
0000
0000
0000
,
0000
0000
0000
0000
,
0020
0000
0000
0000
,
0330
0000
0000
0000
;

//---------------dance-single - ----------------
#NOTES:
     dance-single:
     :
     Beginner:
     1:
     0.062,0.094,0.000,0.018,0.000,46.000,0.000,2.000,0.000,0.000,0.000,0.062,0.094,0.000,0.018,0.000,46.000,0.000,2.000,0.000,0.000,0.000:
0000
0000
0000
0000
,
0000
0000
0000
0000
,
0000
0000
0000
0000
,
0000
0000
0000
0000
,
0001
0000
0000
0000
,
1000
0000
0000
0000
,
0001
0000
0000
0000
,
0100
0000
0000
0000
,
0020
0000
0000
0000
,
0030
0000
0000
0000
,
0100
0000
0000
0000
,
0000
0000
0000
0000
,
0001
0000
0000
0000
,
0000
0000
0000
0000
,
0010
0000
0000
0000
,
0000
0000
0000
0000
,
0001
0000
0000
0000
,
1000
0000
0000
0000
,
0010
0000
0000
0000
,
0000
0000
1000
0000
,
0001
0000
0000
0000
,
0000
0000
0010
0000
,
0100
0000
0000
0000
,
0000
0000
0010
0000
,
0001
0000
0000
0000
,
0000
0000
1000
0000
,
0010
0000
0000
0000
,
1000
0000
0000
0000
,
0001
0000
0000
0000
,
0010
0000
0001
0001
,
1000
0000
0000
0000
,
0010
0000
0000
0000
,
0100
0000
0000
0000
,
0100
0000
0000
0000
,
0010
0000
0000
0000
,
1000
0000
0001
0000
,
0001
0000
0000
0000
,
0010
0000
0001
0000
,
0100
0000
0000
0000
,
0000
0000
0000
0000
,
0000
0000
0000
0000
,
0010
0000
0000
0000
,
0100
0000
0000
0000
,
0100
0000
0000
0000
,
0100
0000
0000
0000
,
0100
0000
0000
0000
,
0010
0000
0000
0000
,
1000
0000
0000
0000
,
0001
0000
0000
0000
,
0010
0000
0000
0000
,
0200
0000
0000
0000
,
0300
0000
0000
0000
,
0001
0000
0000
0000
;
