#TITLE:Phantom;
#SUBTITLE:;
#ARTIST:BanYa;
#TITLETRANSLIT:;
#SUBTITLETRANSLIT:;
#ARTISTTRANSLIT:;
#CREDIT:;
#BANNER:Phantom-banner.png;
#BACKGROUND:Phantom-BG.png;
#LYRICSPATH:;
#CDTITLE:;
#MUSIC:Phantom.ogg;
#OFFSET:-0.040;
#SAMPLESTART:7.102;
#SAMPLELENGTH:18.000;
#SELECTABLE:YES;
#BPMS:0.000=136.000,48.000=68.000,64.000=136.000;
#STOPS:;
#BGCHANGES:-10000.000=songbackground=1.000=0=0=1,
0.000=Phantom.avi=1.000=1=0=0,
196.000=Phantom-bg.png=0.500=1=0=0,
99999=-nosongbg-=1.000=0=0=0 // don't automatically add -songbackground-
;

//---------------dance-single - ----------------
#NOTES:
     dance-single:
     :
     Challenge:
     9:
     0.623,1.000,0.255,0.174,0.730:
0000
0000
2002
0000
,
0000
0000
3003
0000
,
0200
0000
0300
0010
,
2000
0000
0000
3001
,
0100
0000
0010
1000
0100
0000
0010
0000
,
0011
1010
0011
1010
,
1001
0000
0001
0100
1000
0000
0100
0000
,
0110
1010
0011
0110
,
1100
0000
1000
0001
0100
0000
0010
0000
,
0101
1100
0101
1100
,
1001
0000
0001
0010
1000
0000
0010
0000
,
0011
1010
0011
1001
,
0101
0000
0100
0000
0010
0000
1000
0010
0000
0010
0100
0000
0001
0000
1000
0000
0001
0000
0010
0000
0001
0000
0001
0100
0000
0100
0020
0000
2030
0000
3020
0000
,
1030
0000
0001
0000
0010
0000
0100
1000
0000
0100
1000
0000
0100
0000
0010
0000
0001
0000
1000
0000
0001
0000
0001
0100
0000
0100
0010
0000
2000
0000
0000
0000
,
3100
0000
1000
0000
0010
0000
0100
0001
0000
0001
0010
0000
0001
0000
1000
0000
0001
0000
0100
0000
1000
0000
1000
0100
0000
0100
0010
0000
1000
0000
0001
0000
,
0010
0000
0001
0000
0100
0000
0010
1000
0000
0010
1000
0000
0010
0000
1000
0000
0001
0000
0010
0000
0100
0000
1000
0100
0000
0100
0010
0000
0001
0000
1000
0000
,
1010
0000
0010
1000
0020
0000
0000
0000
,
1000
0100
0001
0130
,
0110
0000
0010
0100
0020
0000
0000
0000
,
0100
1000
0001
0130
,
0110
0000
0001
0100
0200
0000
0000
0000
,
1000
0010
0001
0310
,
0110
0000
0010
1000
0020
0000
0000
0000
,
1000
0100
0001
0130
,
0010
1000
0001
0010
0001
1000
0001
0100
,
0010
0000
0000
1000
0000
0000
0100
0000
0000
1000
0000
0000
0010
0000
0100
0000
,
0001
1000
0100
1000
0010
0100
0001
1000
,
0010
0000
0000
0100
0000
0000
0001
0000
0000
0010
0000
0000
0001
0000
1000
0000
,
0010
1000
0001
0010
1000
0010
0001
0100
,
1000
0100
0010
1000
0001
0010
1000
0010
,
0001
0000
1000
0000
0001
0000
0001
0100
0000
0100
0010
0000
0010
1000
0000
1000
,
0200
0000
0000
0000
,
1300
0000
0000
0010
0000
0000
0100
0000
0000
0000
0000
0000
0000
0000
0000
0000
,
0100
0000
0000
0100
0000
0000
0001
0000
0000
0000
0000
0000
0000
0000
0000
0000
,
0001
0000
0000
1000
0000
0000
0010
0000
0000
0000
0000
0000
0000
0000
0000
0000
,
0100
0000
0000
0001
0000
0000
2000
0000
0002
0000
0000
0000
0000
0000
3003
0000
,
0001
0100
0010
0100
0001
0010
0001
0100
0010
0100
0001
0010
0001
0010
0001
0100
,
0010
0100
0001
0010
0001
0100
0001
0010
0001
0000
0000
0010
0000
0000
0100
0000
,
1000
0010
0100
0010
1000
0010
0100
0010
0100
0010
1000
0100
1000
0010
1000
0100
,
1000
0010
1000
0100
1000
0010
1000
0010
1000
0000
0000
0010
0000
0000
0100
0000
,
0010
1000
0010
0001
0010
1000
0010
0001
0010
1000
0010
0001
0010
1000
0010
1000
,
0010
0001
0010
0001
0010
1000
0001
0010
1000
0000
0000
0010
0000
0000
0001
0000
,
0100
0001
0100
1000
0100
0001
0100
1000
0100
1000
0100
0001
0100
0001
0100
1000
,
0100
0001
0100
0001
0100
1000
0001
0100
1000
0000
0000
0010
0000
0000
1000
0000
,
0001
0010
0100
1000
0001
0010
0100
1000
0001
0010
0100
1000
0001
0010
0100
1000
,
0100
0010
0001
0010
0100
1000
0100
0010
0001
0010
0100
1000
0100
0010
0001
0010
,
0100
0010
1000
0001
0100
0010
1000
0001
0100
0010
1000
0001
0100
0010
1000
0001
,
1000
0010
0100
0001
1000
0010
0100
0001
1000
0010
0100
0010
1000
0100
0010
0002
,
2000
0000
0000
0000
,
0000
0000
0000
0000
,
3003
0000
0000
0000
;

//---------------dance-single - ----------------
#NOTES:
     dance-single:
     :
     Hard:
     8:
     0.508,0.843,0.388,0.388,0.158:
0000
0000
0000
0000
,
0000
0000
0000
0000
,
0020
0000
0000
0130
,
0002
0000
0000
2003
,
3010
0000
1000
0010
0200
0000
0310
0000
,
1010
1010
1001
0101
,
0011
0000
0001
0010
0200
0000
0300
0000
,
0110
0011
1010
1001
,
0101
0000
0100
0001
2000
0000
3000
0000
,
1100
0110
0011
0101
,
1001
0000
0001
1000
0020
0000
0030
0000
,
0110
1010
0011
1001
,
0101
0000
0100
0000
0010
1000
0001
0000
0001
0000
0010
0000
0001
0020
0230
2300
,
3200
0300
1000
0000
0010
0100
0001
0000
1000
0000
0001
0000
1000
0010
0100
0000
,
0010
1000
0010
0000
0100
0010
1000
0001
0010
0100
1000
0000
0100
0020
0230
2300
,
3002
1003
0001
0000
0001
1000
0100
0000
1000
0010
0100
0001
0010
0100
1000
0000
,
1001
0000
0001
0100
0020
0000
0130
0000
,
0120
1030
0210
0301
,
2002
0000
0000
3003
0001
0000
0100
0000
2000
0000
0000
0000
3100
0000
0000
0000
,
2100
3100
0120
1030
,
0210
0000
0310
1000
0002
0000
0013
0000
,
0012
0103
0120
1030
,
0220
0000
0000
0330
0010
0000
1000
0000
0002
0000
0000
0000
1003
0000
0000
0000
,
2100
3010
0102
0013
,
1001
0000
0001
0000
0100
0000
0000
0010
0000
0000
1000
0000
0001
0000
0000
0000
,
0010
0000
0000
0100
0000
0000
1000
0000
0000
0001
0000
0000
0100
0000
0010
0000
,
1000
0000
0001
0000
0010
0000
0000
0001
0000
0000
0100
0000
0010
0000
0000
0000
,
0100
0000
0000
1000
0000
0000
0100
0000
0000
0010
0000
0000
1000
0000
0001
0000
,
0010
1000
0010
0001
0100
0010
1000
0000
,
1000
0100
0001
0100
0010
0001
0100
0000
,
0001
0000
0100
0000
0010
0000
0000
0110
0000
0000
1010
0000
0011
0000
0000
0000
,
2002
0000
0000
0000
0000
0000
0003
3000
,
0010
0000
0000
0100
0000
0000
0001
0000
0000
0000
0000
0000
0000
0000
0000
0000
,
0001
0000
0000
1000
0000
0000
0100
0000
0000
0000
0000
0000
0000
0000
0000
0000
,
0100
0000
0000
0010
0000
0000
0001
0000
0000
0000
0000
0000
0000
0000
0000
0000
,
0010
0000
0000
0001
0000
0000
2000
0000
0002
0000
0000
0000
3003
0000
0000
0000
,
0001
0100
0010
0100
0001
0010
0100
0010
,
0001
0000
0010
0000
0100
0000
0001
0000
0100
0000
0000
0010
0000
0000
1000
0000
,
0100
1000
0010
0100
0010
1000
0100
1000
,
0010
0000
0100
0000
0010
0000
1000
0000
0010
0000
0000
1000
0000
0000
0010
0000
,
1000
0010
0001
0010
1000
0010
0001
0010
,
1000
0000
0010
0000
0001
0000
0010
0000
1000
0000
0000
0010
0000
0000
0100
0000
,
0001
0100
1000
0100
0001
0100
1000
0100
,
0001
0000
0100
0000
1000
0000
0100
0000
0001
0000
0000
0100
0000
0000
0010
0000
,
1000
0010
0001
0010
0100
1000
0100
0010
,
1000
0001
0100
0010
0001
0010
0100
0001
,
1000
0010
1000
0100
1000
0010
0100
0001
,
0010
0100
0010
0001
1000
0010
0100
0001
,
0022
0000
0000
0000
,
0000
0000
0000
0000
,
0033
0000
0000
0000
;

//---------------dance-single - ----------------
#NOTES:
     dance-single:
     :
     Medium:
     6:
     0.375,0.438,0.174,0.592,0.020:
0000
0000
0000
0000
,
0000
0000
0000
0000
,
0020
0000
0030
0000
,
0200
0000
0000
0310
,
1000
0000
0001
0100
0002
0000
0000
0000
,
0100
0100
0100
0103
,
0101
0000
0001
0100
0020
0000
0000
0000
,
1000
1000
1000
1030
,
1100
0000
1000
0100
0020
0000
0000
0000
,
0100
0100
0100
0130
,
0110
0000
0010
0100
2000
0000
0000
0000
,
0001
0001
0001
3001
,
0002
0000
0000
0000
0000
0000
0000
0000
0000
0000
0000
0000
0003
0100
0001
0010
,
0200
0000
0000
0000
1000
1000
1000
1300
,
0200
0000
0000
0000
0000
0000
0000
0000
0000
0000
0000
0000
0000
0310
0001
1000
,
0002
0000
0000
0000
0103
0001
0010
0100
,
1000
0000
0100
0010
0002
0000
0000
0000
,
0013
0011
0001
0011
,
0002
0000
1003
0010
0200
0000
0000
0000
,
0310
0110
0100
1001
,
0002
0000
0103
0010
2000
0000
0000
0000
,
3100
1100
1000
1100
,
1100
0000
1000
0010
0200
0000
0000
0000
,
0310
0110
0100
1001
,
0001
1000
0100
1000
0001
0100
0001
0000
,
0200
0320
2030
3002
,
1003
0001
0100
0001
0010
0001
0010
0000
,
0200
2300
3200
1300
,
1100
0101
1001
1010
,
0002
0023
0032
0023
,
0031
0010
0100
1000
,
2002
0000
0000
3003
,
0020
0000
0030
0000
,
0200
0000
0300
0000
,
0002
0000
0003
0000
,
2000
0000
0002
3003
,
0001
0000
0001
0100
0020
0000
0000
0000
,
0100
1000
0230
0302
,
2003
0000
3001
1000
0020
0000
0000
0000
,
0230
0302
1000
2003
,
3200
0000
1300
0010
0200
0000
0000
0000
,
0010
0010
0320
2030
,
3020
0000
0130
0001
0020
0000
0000
0000
,
0230
0320
0032
2003
,
3001
1000
0001
0100
0002
0000
0013
0000
,
0001
0010
0100
0000
0010
0100
1000
0000
,
0100
1000
0010
0100
0001
0010
0100
1000
,
0200
2300
3020
0230
,
0002
0000
0000
0000
,
0000
0000
0000
0000
,
0000
0000
0303
0000
;

//---------------dance-single - ----------------
#NOTES:
     dance-single:
     :
     Easy:
     3:
     0.225,0.277,0.163,0.112,0.000:
0000
0000
0000
0000
,
0000
0000
0000
0000
,
0000
0000
0000
0000
,
0000
0000
0000
0000
,
1000
0001
0010
0000
,
0100
0100
0100
0100
,
0010
0001
1000
0000
,
0010
0010
0010
0010
,
0100
0001
1000
0000
,
0001
0001
0001
0001
,
0100
0010
0100
0000
,
1000
1000
1000
1000
,
0002
0000
0000
0000
,
2000
0000
0000
0000
0000
0000
0000
3003
,
0020
0000
0000
0000
,
0200
0000
0000
0000
0000
0000
0000
0330
,
0010
1000
0001
0000
,
1000
1000
1000
1000
,
0001
0100
0010
0000
,
0100
0100
0100
0100
,
0010
1000
0100
0000
,
0010
0010
0010
0010
,
0001
1000
0001
0000
,
0100
0100
0100
0100
,
0110
0110
0110
0000
,
2000
0000
0000
3000
,
1001
1001
1001
0000
,
0020
0000
0000
0030
,
0100
0001
0100
1000
,
0200
0000
0000
0300
,
0010
1000
0010
0001
,
0220
0000
0000
0000
,
0330
0000
0000
0000
,
0000
0000
0000
0000
,
0000
0000
0000
0000
,
0000
0000
0000
0000
,
1000
0001
1000
0001
,
1000
0001
1001
1001
,
0010
0100
0010
0100
,
0010
0100
0110
0110
,
0010
1000
0010
1000
,
0010
1000
1010
0011
,
0001
0010
0001
0010
,
0001
0010
0011
0101
,
0001
0100
0001
0100
,
0001
0100
0001
0100
,
0010
1000
0010
1000
,
0010
1000
0010
1000
,
2002
0000
0000
0000
,
0000
0000
0000
3003
0000
0000
0000
0000
;

//---------------dance-single - ----------------
#NOTES:
     dance-single:
     :
     Beginner:
     2:
     0.140,0.196,0.102,0.000,0.000: // measure 1
0000
0000
0000
0000
,  // measure 2
0000
0000
0000
0000
,  // measure 3
0000
0000
0000
0000
,  // measure 4
0000
0000
0000
0000
,  // measure 5
0010
0000
0000
0000
,  // measure 6
1000
0000
1000
0000
,  // measure 7
0001
0000
0000
0000
,  // measure 8
0010
0000
0010
0000
,  // measure 9
0100
0000
0000
0000
,  // measure 10
1000
0000
0001
0000
,  // measure 11
0100
0000
0000
0000
,  // measure 12
0010
0000
0010
0000
,  // measure 13
0100
0000
0000
0000
,  // measure 14
0001
0000
0000
0000
,  // measure 15
1000
0000
0000
0000
,  // measure 16
0100
0000
0000
0000
,  // measure 17
0010
0000
0001
0000
,  // measure 18
1000
1000
1000
1000
,  // measure 19
1000
0000
0010
0000
,  // measure 20
0100
0100
0100
0100
,  // measure 21
0010
0000
0100
0000
,  // measure 22
0001
0001
0001
0001
,  // measure 23
0001
0000
1000
0000
,  // measure 24
0010
0010
0010
0010
,  // measure 25
1001
0000
0000
0000
,  // measure 26
0100
0000
0000
0000
,  // measure 27
1001
0000
0000
0000
,  // measure 28
0010
0000
0000
0000
,  // measure 29
1001
0000
0010
0000
,  // measure 30
1001
0000
0010
0000
,  // measure 31
0100
0000
0010
0010
,  // measure 32
1001
0000
0000
0000
,  // measure 33
0100
0000
0000
0000
,  // measure 34
0000
0000
0000
0000
,  // measure 35
0000
0000
0000
0000
,  // measure 36
0000
0000
0000
0000
,  // measure 37
0010
0010
0010
0000
,  // measure 38
0100
0010
1001
0000
,  // measure 39
1000
1000
1000
0000
,  // measure 40
0001
0100
1001
0000
,  // measure 41
0010
1000
0010
0000
,  // measure 42
0100
0001
1001
0000
,  // measure 43
1000
1000
1000
0000
,  // measure 44
0001
0001
1001
0000
,  // measure 45
0001
0000
0100
0000
,  // measure 46
0010
0000
1000
0000
,  // measure 47
0100
0000
0010
0000
,  // measure 48
0001
0000
1000
0000
,  // measure 49
1001
0000
0000
0000
;
