#TITLE:Papa Gonzales;
#SUBTITLE:;
#ARTIST:BanYa;
#TITLETRANSLIT:;
#SUBTITLETRANSLIT:;
#ARTISTTRANSLIT:;
#CREDIT:;
#BANNER:Papa Gonzales-banner.png;
#BACKGROUND:Papa Gonzales-bg.png;
#LYRICSPATH:;
#CDTITLE:;
#MUSIC:Papa Gonzales.ogg;
#OFFSET:-0.045;
#SAMPLESTART:13.279;
#SAMPLELENGTH:18.000;
#SELECTABLE:YES;
#BPMS:0.000=145.000;
#STOPS:112.000=2.897
,121.000=1.655
;
#BGCHANGES:-10000.000=songbackground=1.000=0=0=1,
0.000=Papa Gonzales.avi=1.000=0=0=1,
203.000=Papa Gonzales-bg.png=1.000=1=0=0,
99999=-nosongbg-=1.000=0=0=0 // don't automatically add -songbackground-
;

//---------------dance-single - ----------------
#NOTES:
     dance-single:
     :
     Hard:
     9:
     0.607,0.697,0.132,0.033,0.593:
0000
0000
0000
0000
,
0000
0000
0000
0000
,
0000
0000
0000
0000
,
0000
0000
0000
0000
,
1001
0000
0000
0000
0000
0001
0100
0000
0010
0000
1000
0000
0100
0000
0001
0000
,
0100
0000
0000
0010
0000
0000
0000
0000
0000
0000
0000
0000
0000
0000
0100
0000
,
0010
0000
0000
0000
0000
0000
0010
0000
0001
0000
0000
0100
0000
0000
0100
0000
,
0000
0000
0100
0000
0010
0000
0000
0000
1000
0000
0000
0001
0000
0000
0010
0000
,
0001
0000
0100
0000
0010
0000
1000
0001
0000
0010
0000
0001
0100
0000
0010
0000
,
1000
0000
0100
0000
1000
0000
1000
0010
0000
0100
0000
0001
0010
0000
0100
0000
,
0010
0000
0001
0000
1000
0000
0010
0100
0000
0100
0000
0010
1000
0000
0001
0000
,
0010
0000
0000
0100
0000
0000
0010
0000
0000
0100
0000
0000
0010
0000
0000
0100
0000
0000
0010
0000
0000
0100
0000
0000
0010
0000
0000
0000
0100
0000
0000
0000
0010
0000
0000
0000
0000
0000
0000
0000
0000
0000
0000
0000
0000
0000
0000
0000
,
0010
0000
0001
0000
0100
0000
0010
1000
0000
1000
0000
1000
0010
0000
0100
0000
,
0001
0000
0010
0000
1000
0000
0010
0100
0000
0100
0000
0100
1000
0000
0010
0000
,
0100
0000
0001
0000
0010
0000
0100
1000
0000
0010
0000
0100
0001
0000
1000
0000
,
0001
0000
0000
0100
0000
0000
0001
0000
0000
0100
0000
0000
0001
0000
0000
0100
0000
0000
0001
0000
0000
0100
0000
0000
0001
0000
0000
0000
0100
0000
0000
0000
0001
0000
0000
0000
0000
0000
0000
0000
0000
0000
0000
0000
0000
0000
0000
0000
,
0001
1000
0001
0000
1000
0001
1000
0000
0001
1000
0001
0000
1000
0001
1000
0000
,
0001
0010
0001
0100
1000
0100
0010
1000
,
0001
0100
0001
0000
0010
1000
0010
0000
0100
0001
0100
0000
0010
1000
0010
0000
,
1000
0100
1000
0100
1000
0100
1000
0100
0010
0000
0000
0000
0000
0000
0000
0000
,
0100
0010
0001
0100
0010
1000
0001
1000
,
0200
0000
0000
0000
,
1300
0000
0100
0010
0001
1000
0010
0000
,
0100
0010
0000
1000
0000
0001
0010
0000
0000
0000
0000
0000
0000
0000
0000
0000
,
0000
0000
0010
0001
0100
0010
1010
0010
,
1000
0000
1100
0000
0100
0000
0010
0000
0011
0000
0001
0010
0000
0010
0000
0001
,
0000
0000
0000
0000
0100
0000
0010
0000
1000
0001
0000
0010
0000
0000
0010
0000
,
0010
0000
0100
0000
1000
0001
0000
0100
0000
0000
0000
0000
0000
0000
0000
0000
,
1001
0000
0000
0000
0001
0010
0001
0010
0100
1000
0100
1000
0010
1000
0010
1000
,
0010
0100
0010
0100
0001
0000
0100
0010
0000
0010
1000
0000
0001
0010
0000
0000
,
0000
0000
1100
0000
0001
0001
0200
0000
,
0320
0000
0000
0000
1030
0010
1000
0000
1000
0001
1000
0000
1000
0100
1000
0000
,
1000
0001
1000
0000
0001
0000
0010
0000
0100
0000
0010
0000
0001
0000
0100
0000
,
0010
0000
1000
0000
0001
0010
0001
0000
0001
1000
0001
0000
0001
0010
0001
0000
,
0001
0100
0001
0000
0100
0010
0100
0010
0100
0010
0100
0010
0100
0000
0000
0000
,
0000
0000
0010
1000
0001
0010
0100
0010
,
0001
0000
0011
0000
0000
1010
0000
0000
,
1001
0000
0001
0100
1000
0100
0010
1000
,
0000
0000
1100
0000
0000
0101
0000
0000
,
1001
0000
0000
0000
0100
0000
0010
0000
1000
0000
0001
0010
0000
0010
0000
0010
,
0100
0000
0010
0000
0001
0000
0100
0000
0010
0000
0100
0010
0000
1000
0000
0001
,
0010
0000
0100
0000
0010
0000
0001
0000
1000
0000
0010
1000
0000
0001
0000
0010
,
0100
0000
0000
0000
0000
0000
1000
0000
0000
0000
0000
0000
0001
0000
0000
0100
0000
0000
0001
0000
0000
0100
0000
0000
0001
0000
0000
0100
0000
0000
0001
0000
0000
0100
0000
0000
0001
0000
0000
0000
0100
0000
0000
0000
0001
0000
0000
0000
,
0000
0000
0100
0010
1000
0001
0010
1000
,
0010
0001
0100
0010
1000
0100
0010
0100
,
1000
0000
0001
0100
0010
1000
0100
0010
,
0100
0000
0000
0000
0000
0000
1000
0000
0000
0000
0000
0000
0010
0000
0000
1000
0000
0000
0010
0000
0000
1000
0000
0000
0010
0000
0000
1000
0000
0000
0010
0000
0000
1000
0000
0000
0010
0000
0000
0000
1000
0000
0000
0000
0010
0000
0000
0000
,
0000
0100
0100
0010
,
0010
0000
0100
0010
1000
0001
0010
0001
,
1000
0001
0001
1000
,
1000
0000
0000
0000
0000
0000
0001
0100
0001
0100
0001
0100
0001
0100
0001
0100
0001
0100
0001
0000
0000
0000
0000
0000
;

//---------------dance-single - ----------------
#NOTES:
     dance-single:
     :
     Medium:
     5:
     0.337,0.418,0.242,0.198,0.000:
0000
0000
0000
0000
,
0000
0000
0000
0000
,
0000
0000
0000
0000
,
0000
0000
0000
0000
,
0010
0000
0100
0010
,
1000
0000
1000
0000
0000
0000
0000
0001
,
0100
0000
0010
0010
,
0100
0001
1000
0100
,
0010
0100
1000
0000
0010
0000
0110
0000
,
0100
0001
1000
0000
0010
0000
0101
0000
,
0001
0010
0100
0000
1000
0000
1100
0000
,
0200
0000
0000
0300
,
0010
0001
0010
0000
0001
0000
1100
0000
,
1000
0010
0100
0000
0010
0000
1001
0000
,
0001
0100
0010
0000
1000
0000
1010
0000
,
0202
0000
0303
0000
,
0001
1000
0001
0000
1000
0001
1000
0000
,
0001
0100
0010
1000
,
1000
0100
0010
0000
0010
0100
1000
0000
,
0020
0000
0030
0000
,
0100
0010
1000
0001
,
0022
0000
0000
0033
,
1001
0000
0001
0100
1000
0100
0010
0000
,
0100
0010
1000
0001
,
1000
0000
0100
0000
1000
0100
1000
0000
,
0100
1000
0100
0000
1000
0000
0100
0000
,
0011
0000
0001
0010
0100
0000
0010
0000
,
0001
1000
0010
0000
0100
0000
0001
0000
,
1100
0002
2003
3020
,
2030
3020
0230
0302
,
0000
0013
0000
0000
,
0000
0001
0001
1000
,
1000
0001
0100
0010
,
1000
0100
0100
1000
,
1000
0220
0000
0330
,
0000
0010
1000
0001
,
0010
0000
0110
0000
0000
1001
0000
0000
,
0101
0100
0010
0100
,
0100
0000
1001
0000
0000
0101
0000
0000
,
0110
0000
0010
0000
1000
0000
0001
0010
,
0001
0000
0100
0000
0010
0000
1000
0010
,
0100
0000
0010
0000
1000
0000
0001
0010
,
0100
0022
0000
0033
,
0000
0000
0001
1000
0001
0000
1000
0001
,
1000
0000
0001
0100
0010
0000
0100
0010
,
1000
1000
0100
0010
,
0001
0000
0001
0010
0100
1000
1100
0000
,
0000
1000
0000
0000
,
0000
0101
0000
0000
,
0000
0110
0000
0000
,
0000
0002
0000
1003
;

//---------------dance-single - ----------------
#NOTES:
     dance-single:
     :
     Easy:
     3:
     0.228,0.251,0.044,0.088,0.000:
0000
0000
0000
0000
,
0000
0000
0000
0000
,
0000
0000
0000
0000
,
0000
0000
0000
0000
,
0000
0000
1000
0001
,
0100
0000
0000
0000
,
0110
0000
0010
0000
,
0100
0100
0010
1000
,
0001
1000
0001
1000
,
0001
0100
0001
0100
,
0010
0100
0010
0100
,
0002
0000
0003
0000
,
1000
0001
1000
1000
,
0010
0100
0010
0010
,
0100
0001
0100
0100
,
0020
0000
0030
0000
,
0100
0100
0100
0100
,
0010
1000
0001
0010
,
0100
0100
0100
0100
,
0020
0000
0030
0000
,
0001
0000
1000
0000
,
0020
0000
0000
0000
,
0130
0010
1000
0001
,
0010
0100
0000
0000
,
0000
0010
0001
0001
,
1000
0001
0100
0001
,
0010
0100
0100
0100
,
0010
0010
0010
0000
,
1001
0200
0000
0000
,
0000
0000
0000
0300
,
0000
1001
0000
0000
,
0000
0010
0010
0010
,
0010
1000
0001
0010
,
0100
0010
0010
0010
,
0010
0200
0000
0300
,
0000
1000
0100
0010
,
0001
0000
1000
0000
0000
1000
0000
0000
,
1000
0001
0010
0100
,
1000
0000
0001
0000
0000
0001
0000
0000
,
0001
0100
0100
0010
,
0010
0100
0001
1000
,
0100
1000
0001
0010
,
0100
0020
0000
0030
,
0000
0100
0100
0010
,
0010
0001
0010
0100
,
1000
0100
0100
1000
,
1000
0020
0000
0030
,
0000
0100
0000
0000
,
0000
0010
0000
0000
,
0000
1000
0000
0000
,
0000
0001
1000
1001
;

//---------------dance-single - ----------------
#NOTES:
     dance-single:
     :
     Challenge:
     11:
     0.843,0.976,0.143,0.022,1.000:
0000
0000
0000
0000
,
0000
0000
0000
0000
,
0000
0000
0000
0000
,
0000
0000
0000
0000
,
0000
0000
0000
0000
0000
0000
0000
0000
0000
0000
0000
0000
1000
0000
0001
0100
0000
0000
0010
0000
0000
0000
0100
0000
0000
0000
0001
0000
0000
0000
0010
0000
0000
0000
0100
0000
1000
0000
0000
0000
0001
0000
0000
0000
0100
0000
0000
0000
,
0001
0000
0000
0010
0000
0000
0000
0000
0000
0000
0000
0000
0000
0000
0011
0000
,
1001
0000
0000
0000
0000
0000
0001
0000
0100
0000
0000
1000
0000
0000
0100
0000
,
0000
0000
0010
0000
0010
0000
0000
0000
0100
0000
0000
0100
0000
0000
0001
0000
,
1000
0001
0100
0001
0100
0001
0100
0010
0000
1000
0000
0010
1000
0000
0010
0000
,
1000
0001
0100
0001
0010
0100
0010
0001
0000
0010
0000
0100
1000
0100
0010
0001
,
1000
0000
0000
0001
0000
0000
0100
0000
0000
0001
0000
0000
0010
0000
0000
0001
0000
0000
0100
0000
0000
0010
0000
0000
0000
0000
0000
0100
0000
0000
0001
0000
0000
0000
0000
0000
1000
0000
0000
0000
0001
0000
0000
0000
0100
0000
0000
0000
,
0001
0000
0000
0100
0000
0000
0001
0000
0000
0100
0000
0000
0001
0000
0100
0000
0001
0000
0100
0000
0001
0000
0100
0000
0001
0000
0000
0000
0100
0000
0000
0000
0001
0000
0000
0000
0000
0000
0000
0000
0000
0000
0000
0000
0000
0000
0000
0000
,
0001
0100
0010
1000
0100
0010
0001
1000
0000
1000
0000
1000
0001
0000
1000
0000
,
0010
1000
0010
0100
0010
1000
0001
0010
0000
0100
0000
1000
0100
0010
0100
1000
,
0001
0000
0000
0010
0000
0000
0001
0000
0000
0100
0000
0000
0010
0000
0000
1000
0000
0000
0001
0000
0000
0010
0000
0000
0001
0000
0000
0000
0000
0000
0001
0000
0000
0100
0000
0000
0010
0000
0000
0000
1000
0000
0000
0000
0010
0000
0000
0000
,
0100
0000
0000
0010
0000
0000
0100
0000
0010
0000
0100
0000
0010
0000
0100
0000
0010
0000
0100
0000
0010
0000
0100
0000
0010
0000
0000
0000
0010
0000
0000
0000
0100
0000
0000
0000
0000
0000
0000
0000
0000
0000
0000
0000
0000
0000
0000
0000
,
0100
0000
0001
0010
0000
0000
0100
0000
0100
1000
0000
0000
1000
0000
0010
1000
0000
0000
0010
0000
0100
0001
0000
0000
,
0001
0010
1000
0010
0001
0100
1000
0100
,
0010
0000
0100
0001
0000
0000
0001
0000
0001
0010
0000
0000
0010
0000
0010
0001
0000
0000
0001
0000
1000
0010
0000
0000
,
0100
0000
0000
0001
0000
0000
0100
0000
0001
0000
0100
0000
0001
0000
0100
0000
0001
0000
0100
0000
0001
0000
0100
0000
0010
0000
0000
0000
0000
0000
0000
0000
0000
0000
0000
0000
1001
0000
0000
0000
0000
0000
0000
0000
0000
0000
0000
0000
,
0001
0100
0001
0100
0001
0000
0001
0100
0000
0010
1000
0000
0000
0000
0000
0000
,
1000
0100
1000
0100
1000
0000
1000
0100
0000
0010
0001
0000
0000
0000
0000
0000
,
1001
0000
0000
0000
0100
0010
1000
0001
0010
0000
0100
0000
1000
0000
0000
0000
,
1000
0010
0000
0010
0000
0100
0001
0000
0000
0000
0000
0000
0000
0000
0000
0000
,
0000
0000
0000
0000
0001
0000
0010
0000
0100
1000
0010
0100
0001
0000
0001
0100
,
0010
1000
0100
0000
0010
0001
0010
0100
1000
0000
1000
0010
0000
0100
0000
0001
,
0000
0000
0000
0000
0001
0000
0001
0000
0001
0100
0000
0100
0000
0000
0010
0000
,
1000
0000
0010
0000
0100
0001
0000
1000
0000
0000
0000
0000
0000
0000
0000
0000
,
2002
3003
0000
0000
0000
0000
1000
0100
0010
0001
0010
0100
1000
0100
0010
0001
0010
0100
1000
0100
0010
0001
0010
0100
,
1000
0000
0100
0000
0010
0000
0001
0000
0010
0000
0100
0000
1000
0000
0000
0000
0000
0000
1000
0000
0000
0010
0000
0000
0000
0000
0000
0100
0000
0000
0001
0000
0000
0000
0000
0000
0001
0000
0000
0010
0000
0000
0000
0000
0000
0000
0000
0000
,
0000
0000
0000
0000
0000
0000
0000
0000
0000
0000
0000
0000
1100
0000
0000
0000
0000
0000
0000
0000
0000
0000
0000
0000
0010
0000
0000
0001
0000
0000
1000
0000
0001
0000
1000
0000
0001
0000
1000
0000
0001
0000
1000
0000
0001
0000
1000
0000
,
0001
0100
0001
0100
0001
0100
0010
0000
0100
0010
0000
0000
1000
0000
0001
1000
0000
0000
1000
0000
0010
1000
0000
0000
,
0100
0000
0000
0000
0001
0000
0100
0000
0000
0000
0000
0000
0010
0000
0000
1000
0000
0000
0010
0000
0000
1000
0000
0000
0010
0000
0000
1000
0000
0000
0001
0000
0000
0010
0000
0000
0001
0000
0000
0010
0000
0000
0100
0000
0000
1000
0000
0000
,
0001
0000
0000
0100
0000
0000
0001
0000
0000
0000
0000
0000
1000
0000
0000
0000
0001
0000
0100
0000
0000
0000
0000
0000
0010
0000
0000
0000
0100
0000
0001
0000
0000
0000
0000
0000
0001
0000
0000
0000
0010
0000
0100
0000
0000
0000
0000
0000
,
0100
0000
0100
1000
0000
0000
1000
0010
1000
0010
1000
0010
1000
0010
1000
0010
1000
0010
0100
0000
0000
0000
0000
0000
,
1001
0000
0000
0000
0001
0100
1000
0100
1000
0000
0100
0010
0000
1000
0100
0000
,
0000
0000
1100
0000
0000
0011
0000
0000
,
1001
0000
0000
0000
0001
0010
1000
0010
1000
0000
0010
0100
0000
0100
1000
0000
,
0000
0000
1100
0000
0000
1001
0000
0000
,
0101
0000
0000
0000
0001
0100
0010
1000
0100
0010
0100
1000
0000
1000
0000
0001
,
1000
0000
0100
0000
0010
0001
0010
0100
1000
0010
0100
0001
0000
0001
0000
0001
,
0010
0100
0010
0001
1000
0010
1000
0001
0010
0100
0010
0001
0000
1000
0001
0100
,
0010
0000
1000
0000
0010
0000
0100
0001
0100
0001
0100
0001
0100
0001
0100
0001
0100
0001
0100
0000
0001
0000
0010
0000
,
0000
0000
0000
0000
0000
0000
0010
0000
0010
0100
0000
0000
0100
0000
0100
1000
0000
0000
1000
0000
1000
0001
0000
0000
,
0001
0000
0000
0000
0001
0000
0100
0000
0000
0000
0000
0000
0010
0000
0000
1000
0000
0000
0001
0000
0000
0010
0000
0000
1000
0000
0000
0010
0000
0000
0001
0000
0000
0100
0000
0000
1000
0000
0000
0100
0000
0000
0010
0000
0000
1000
0000
0000
,
0001
0000
0000
0010
0000
0000
0100
0000
0000
0010
0000
0000
0001
0000
0000
0000
0100
0000
0010
0000
0000
0000
0000
0000
1000
0000
0000
0000
0001
0000
0010
0000
0000
0000
0000
0000
0010
0000
0000
0000
0100
0000
1000
0000
0000
0000
0000
0000
,
1000
0000
0001
0100
0000
0000
0010
0100
0010
0100
0010
0100
0010
0100
0010
0100
0010
0100
0001
0000
0001
0000
1000
0000
,
0000
0000
0000
0000
0010
1000
0001
0000
0010
0000
0100
1000
0000
0010
0001
0000
,
0001
0100
1000
0100
0010
1000
0001
0000
0010
0000
0100
1000
0000
1000
0001
0000
,
0100
0000
0001
0000
0010
0100
1000
0000
1000
0010
0100
0000
0100
0001
0010
0000
,
0010
0000
0000
0100
0000
0000
1000
0000
0000
0000
0000
0000
1000
0000
0100
0000
0010
0000
0001
0000
0010
0000
0100
0000
1000
0000
0100
0000
0010
0000
0001
0000
0010
0000
0100
0000
1000
0000
0000
0000
0000
0000
0000
0000
0000
0000
0000
0000
;

//---------------dance-single - ----------------
#NOTES:
     dance-single:
     :
     Beginner:
     1:
     0.097,0.195,0.077,0.000,0.000: // measure 1
0000
0000
0000
0000
,  // measure 2
0000
0000
0000
0000
,  // measure 3
0000
0000
0000
0000
,  // measure 4
0000
0000
0000
0000
,  // measure 5
0010
0000
0000
0000
,  // measure 6
0000
0000
0000
0000
,  // measure 7
0100
0000
0000
0000
,  // measure 8
0000
0000
0000
0000
,  // measure 9
0001
0000
0000
0000
,  // measure 10
1000
0000
0000
0000
,  // measure 11
0001
0000
0000
0000
,  // measure 12
0110
0000
0000
0000
,  // measure 13
0100
0000
0000
0000
,  // measure 14
0010
0000
0000
0000
,  // measure 15
1000
0000
0000
0000
,  // measure 16
1001
0000
0000
0000
,  // measure 17
0100
0000
0100
0000
,  // measure 18
0100
0000
0000
0000
,  // measure 19
0010
0000
0010
0000
,  // measure 20
0010
0000
0000
0000
,  // measure 21
1000
0000
0000
0000
,  // measure 22
1000
0000
0000
0000
,  // measure 23
0001
0100
0000
0000
,  // measure 24
0010
0000
0000
0000
,  // measure 25
0000
0100
0100
0000
,  // measure 26
0010
0000
1000
1000
,  // measure 27
1001
0000
0000
0000
,  // measure 28
0100
0000
0000
0000
,  // measure 29
0010
0100
0000
0000
,  // measure 30
0000
0000
0000
0000
,  // measure 31
0000
0010
0000
0000
,  // measure 32
0000
1000
0000
0000
,  // measure 33
0000
0001
0000
0000
,  // measure 34
0000
0100
0000
0000
,  // measure 35
0000
0010
0000
0000
,  // measure 36
0000
0100
0000
0000
,  // measure 37
0000
0001
0000
0000
,  // measure 38
1000
0001
0000
0000
,  // measure 39
0000
0110
0000
0000
,  // measure 40
0100
0010
0000
0000
,  // measure 41
0000
1000
0000
0000
,  // measure 42
0000
0001
0000
0000
,  // measure 43
0000
1001
0000
0000
,  // measure 44
0000
0100
0000
0000
,  // measure 45
0000
0010
0000
0000
,  // measure 46
0000
1000
0000
0000
,  // measure 47
0000
1001
0000
0000
,  // measure 48
0000
0001
0000
0000
,  // measure 49
0000
0100
0000
0000
,  // measure 50
0000
0001
0000
0000
,  // measure 51
0000
1000
0001
1001
;
