#TITLE:Pandemonium²;
#SUBTITLE:;
#ARTIST:ZaG-X;
#TITLETRANSLIT:;
#SUBTITLETRANSLIT:;
#ARTISTTRANSLIT:;
#CREDIT:;
#BANNER:bn.png;
#BACKGROUND:bgkni.png;
#LYRICSPATH:;
#CDTITLE:;
#MUSIC:King Arthur.ogg;
#OFFSET:-0.004;
#SAMPLESTART:102.077;
#SAMPLELENGTH:12.000;
#SELECTABLE:YES;
#DISPLAYBPM:*;
#BPMS:0.000=330.000,52.000=340.000,56.000=350.000,64.000=360.000,128.000=330.000,342.000=340.000,350.000=350.000,358.000=360.000,366.000=370.000,374.000=380.000,382.000=390.000,390.000=400.000,398.000=410.000,430.000=420.000,476.000=330.000;
#STOPS:130.000=0.182
,133.000=0.182
,464.000=0.143
,467.000=0.143
;
#BGCHANGES:;

//---------------dance-single - ----------------
#NOTES:
     dance-single:
     :
     Hard:
     13:
     1.000,1.000,0.848,0.721,0.156:
0000
0000
0000
0000
,
0000
0000
0000
0000
,
0000
0000
0000
0000
,
0000
0000
0000
0000
,
0000
0000
0000
0000
,
0000
0000
0000
0000
,
0000
0000
0000
0000
,
0000
0000
0000
0000
,
1001
0101
1001
0011
,
1001
1010
1100
0110
,
0011
0110
1100
1001
,
1010
1001
1100
0110
,
0100
0010
0100
0000
1000
0001
1000
0000
,
0001
0010
0001
0000
1000
0100
1000
0000
,
1000
0001
0100
0010
1000
0100
0010
0100
,
1000
0001
0010
0001
0100
0010
0100
0000
,
1001
0000
1000
0001
0010
0001
0100
0000
,
1010
0000
1000
0001
0010
0001
0100
0000
,
1010
0000
1000
0100
0010
0001
0010
0000
,
0011
0000
0001
0100
1000
0100
0001
0000
,
1001
0000
0001
0010
1000
0010
0001
0000
,
1100
0000
1000
0001
0010
0001
0100
0000
,
0010
1000
0010
0000
0010
1000
0100
0000
,
0010
0100
0000
0010
0000
1000
0001
0000
,
0010
0100
1000
0100
0010
0100
1000
0000
,
0010
1000
0100
0010
0100
1000
0100
0000
,
0100
0001
0010
0100
0010
0001
0100
0000
,
0100
0001
0010
0100
0010
0001
0100
0000
,
0010
0100
0001
0000
0001
0010
0001
0000
,
0100
0010
1000
0000
0001
0010
0100
0000
,
0100
0010
1000
0001
0010
0001
0100
0010
,
1000
0100
0010
0001
0010
0100
1000
0001
,
0100
0000
0010
0000
1000
0000
1100
0000
0000
1000
0000
0001
,
0000
0010
0000
0011
0000
0000
0001
0000
0100
0000
0010
0000
,
1000
0000
0100
0000
0010
0000
0011
0000
0001
0000
0100
0000
,
0110
0000
0100
0000
0010
0000
2000
0000
0000
3001
0000
0000
,
0001
0100
0010
0000
0200
0000
0310
0000
,
0010
1000
0100
0000
2000
0000
3100
0000
,
1000
0100
1000
0000
0020
0000
0130
0000
,
0010
1000
0001
0000
0020
0000
0031
0000
,
0010
0001
0100
0000
0200
0000
0310
0000
,
0010
1000
0001
0000
0001
0000
1000
0000
,
0010
1000
0000
1010
0000
0010
1000
0000
,
0001
0000
0001
1000
0010
0000
0100
0000
,
0001
0010
0000
0010
0100
0000
1100
0000
,
1000
0001
0000
0100
0010
0000
1001
0000
,
0001
0100
0000
0010
0100
0000
1001
0000
,
1000
0100
0000
0100
1000
0000
1100
0000
,
0001
0010
0000
0100
1000
0000
1001
0000
,
0001
0100
0000
0010
1000
0001
0010
0000
,
0010
0100
1000
0000
1000
0100
0010
0100
,
1000
0100
0010
0001
0100
0000
0010
1000
,
0200
0010
0010
0000
,
1300
0000
0000
0000
1100
0000
0001
0100
,
0020
1000
1000
0000
,
0100
0000
0030
0000
1002
0000
0013
0001
,
0200
0010
0010
0000
,
0001
0000
0000
0000
0000
0000
0000
0000
0300
0000
0000
0000
0000
0000
0000
0000
0002
0000
0000
0000
0000
0000
0000
0003
1010
0000
0000
0000
0000
0000
0000
0000
,
0002
0000
0000
0000
0000
0000
0000
0000
0000
0000
0000
0000
0000
0000
0000
0000
0000
0000
0000
0000
0000
0000
0000
0000
0000
0000
0000
0000
0000
0000
0000
0000
0000
0000
0000
0000
0000
0000
0000
0000
0000
0000
0003
0000
0000
0000
0000
0000
0110
0000
0000
0000
0000
0000
0000
0000
0000
0000
0000
0000
0000
0000
0000
0000
0000
0000
0000
0000
0000
0000
0000
0000
0000
0000
0000
0000
0000
0000
0000
0000
0000
0000
0000
0000
0000
0000
0000
0000
0000
0000
0000
0000
0000
0000
0000
0000
0001
0000
0000
0000
0000
0000
0000
0000
0000
0000
0000
0000
0000
0000
0000
0000
0000
0000
0000
0000
0000
0000
0000
0000
0000
0000
0000
0000
0000
0000
0000
0000
1000
0000
0000
0000
0000
0000
0000
0000
0000
0000
0000
0000
0000
0000
0000
0000
0000
0000
0000
0000
0000
0000
0000
0000
0000
0000
0000
0000
0000
0000
0000
0000
0001
0000
0000
0000
0000
0000
0000
0000
0000
0000
0000
0000
0000
0000
0000
0000
0000
0000
0000
0000
0000
0000
0000
0000
0000
0000
0000
0000
0000
0000
0000
0000
,
1000
0000
0000
0000
2001
0000
3001
0010
,
0200
1300
1100
0110
,
0011
0000
0000
0000
0101
0000
0001
0100
,
0010
0110
0020
0130
,
0200
0000
0000
0000
0000
0000
0000
0000
0000
0000
0000
0000
0000
0000
0000
0000
0310
0000
0000
0000
0000
0000
0000
0000
0000
0000
0000
0000
0000
0000
0000
0000
2002
0000
0000
0000
0000
0000
0000
0000
0000
0000
0000
0000
0000
0000
0000
0000
0000
0000
0000
0000
0000
0000
0000
0000
0000
0000
0000
0000
0000
0000
0000
3003
,
2002
3003
0000
0000
0000
0000
0000
0000
0000
0000
0000
0000
0000
0000
0000
0000
0000
0000
0000
0000
0000
0000
0000
0000
0000
0000
0000
0000
0000
0000
0000
0000
0001
0000
0000
0000
0000
0000
0000
0000
0000
0000
0000
0000
0000
0000
0000
0000
0000
0000
0000
0000
0000
0000
0000
0000
0000
0000
0000
0000
0000
0000
0000
0000
,
1100
0000
0000
0000
0000
0000
1000
0000
0001
0000
0010
0000
,
0001
0000
0100
0000
0010
0000
1010
0000
0000
0000
1100
0000
,
0000
0000
0011
0000
0000
0000
0002
0000
0000
0203
0000
0000
,
0320
0230
0302
2003
,
3200
0320
0032
2003
,
3002
0000
2003
0000
3010
1000
0010
0100
,
0001
0010
0001
0000
2000
0000
3002
0000
,
0203
0320
2030
3200
,
0320
0032
2003
3002
,
2003
0000
3010
0100
0010
0100
0001
0020
,
0000
0100
0230
0320
,
0032
0203
0320
2030
,
3200
2300
3020
0230
,
0310
1000
0001
0000
0001
0010
0001
0000
,
0001
0100
0010
0000
1001
0000
0000
0000
,
0101
0000
1010
0000
,
1100
0000
0220
0000
,
0000
0000
0000
0000
,
0000
0330
1001
1000
,
0001
1000
0000
1000
0100
0000
0010
0000
,
0001
0010
0000
0001
0010
0000
0100
0000
,
0100
1000
0000
1000
0001
0000
0010
0000
,
0001
0100
0010
1000
0100
0000
1000
0000
,
0010
1000
0000
1000
0100
0000
0010
0000
,
0001
0010
0000
0001
0100
0000
0010
0000
,
0010
0100
0000
0010
1000
0001
1000
0001
,
0000
0001
0010
0000
0100
0000
0100
0000
,
0100
1000
0000
1000
0100
0000
0100
0000
,
0100
0010
0000
0010
0001
0000
0001
0000
,
0001
0010
0000
0001
0100
0000
0010
0000
,
1000
0001
0010
0100
1000
0000
1000
0000
,
1000
0001
0000
0001
0010
0000
0100
0000
,
0100
1000
0000
1000
0100
0010
0100
0010
,
0100
0010
0100
0010
0100
0010
0100
0010
,
0100
0010
0100
0010
0100
0000
1000
0000
,
1000
0001
0010
0000
0001
0000
0100
0000
,
0010
1000
0001
0000
0010
0000
0001
0000
,
0100
0001
0100
0000
0010
1000
0001
0000
,
0010
0001
0010
0000
0001
0000
1000
0000
,
1000
0001
0010
0000
0001
0000
0010
0000
,
0001
0100
0001
0000
0001
0100
0010
0000
,
0010
1000
0100
0000
1100
0000
0110
0000
,
0011
1010
2001
3100
,
1000
0100
0000
0100
0020
0000
0130
0000
,
0100
0010
0000
0001
1000
0000
1001
0000
,
0001
0100
0000
0010
2000
0000
3100
0000
,
1000
0001
0000
0001
0010
0000
1100
0000
,
0001
0100
0000
0010
1000
0000
1001
0000
,
1000
0100
0000
1000
0100
0010
0100
0000
,
0100
1000
0010
0000
0010
1000
0001
0010
,
0001
0000
0000
0100
0000
0000
0010
0000
0000
1000
0000
0000
0001
0000
0000
0000
0010
0000
0000
0000
0100
0000
0000
0000
,
1001
0000
0000
0010
0000
0100
0000
0010
0000
1010
0000
0000
,
1000
0000
0100
0000
0010
0000
0100
0000
1000
0000
0001
0000
,
0010
0000
0001
0000
0100
0000
0010
0000
1000
0000
0001
0000
,
0020
0000
0130
0000
0010
0100
0000
0100
,
2000
0000
3100
0000
1000
0100
0000
0100
,
0020
0000
0031
0000
0001
0100
0110
0000
,
1010
0000
1001
0000
1000
0100
0000
0100
,
1000
0000
1100
0000
1000
0001
0000
0001
,
0100
0000
1010
0000
0100
0001
0000
0001
,
0010
0000
1100
0000
0001
0100
0000
0010
,
1000
0100
0000
0010
0000
0001
0100
0001
,
1001
0000
0101
0000
0002
0100
0003
0200
,
0010
0300
0110
0000
0020
1000
0030
0100
,
0020
0000
0130
0000
0001
0200
0000
0310
,
2000
0000
3100
0000
1000
0001
0000
0001
,
0011
1100
0101
1010
,
1100
0110
0011
1001
,
1000
0100
0001
0100
1000
0010
0001
0010
,
1000
0020
0000
0001
0030
1000
1001
0000
,
0010
0200
0000
0010
0000
0310
1010
0000
,
1000
0200
0000
0001
0000
0310
0110
0000
,
1000
0002
0000
1000
0000
0103
0101
0000
,
0020
0100
0000
1000
0000
1030
1010
0000
,
0201
0000
0000
0010
0000
0000
1000
0000
,
0000
0010
0000
0000
0001
0000
0000
0010
,
0000
0000
0010
0000
0000
0001
0000
0000
,
1000
0000
0000
0310
0000
0000
0000
0000
;

//---------------dance-single - ----------------
#NOTES:
     dance-single:
     :
     Medium:
     10:
     0.872,1.000,0.497,0.546,0.151:
0000
0000
0000
0000
,
0000
0000
0000
0000
,
0000
0000
0000
0000
,
0000
0000
0000
0000
,
0000
0000
0000
0000
,
0000
0000
0000
0000
,
0000
0000
0000
0000
,
0000
0000
0000
0000
,
0001
0010
0001
0100
,
0010
1000
0100
1000
,
0010
0100
0001
0010
,
0100
0010
0001
0100
,
0010
1000
0001
0010
,
0001
0100
0010
1000
,
0100
1000
0100
0000
0010
0001
0010
0000
,
0001
0100
0010
1000
0100
0000
0011
0000
,
0001
1000
2200
3300
,
1000
0010
0220
0330
,
0010
1000
0200
1300
,
0010
0000
0100
0000
0001
0100
0000
0100
,
0010
1000
2020
3030
,
1000
0001
0022
0033
,
0001
0100
0020
1030
,
0001
0101
1000
1100
,
1001
0001
0200
0301
,
0010
0100
2000
3100
,
0010
0020
0130
1000
,
0020
0130
0001
1000
,
0001
0101
0100
0110
,
0010
1010
1000
1001
,
0001
0011
0010
0110
,
0100
1100
0011
0101
,
1000
0000
0001
0000
0010
0000
0001
0000
0000
0001
0000
0100
,
0000
0010
0000
1000
0000
0000
1000
0000
0100
0000
0010
0000
,
0001
0000
0010
0000
0100
0000
0010
0000
0001
0000
0100
0000
,
0010
0000
1000
0000
0100
0000
0010
0000
0000
0001
0000
0000
,
0010
0001
0000
0010
0001
0000
0010
0000
,
0001
0000
0100
0001
,
0100
0001
0000
0100
0001
0000
0100
0000
,
0001
0000
0010
1000
,
0010
1000
0000
0010
1000
0000
0010
0000
,
1000
0000
1000
0001
,
0010
0001
0000
0100
0000
0010
1000
0000
,
0001
0000
1000
0001
0100
0000
0010
0000
,
0100
0010
0000
0010
0000
0010
0100
0000
,
0010
0000
1000
0001
,
0010
0001
0000
0010
0000
0001
0010
0000
,
0001
0000
1000
0010
,
1000
0010
0000
0010
0000
0010
1000
0000
,
0100
0000
1000
0100
,
0010
0001
0000
0100
0000
0010
1000
0000
,
0001
0000
0001
0100
0010
0000
0100
0001
,
0010
0100
1000
0000
,
1100
0000
2000
3001
,
0002
1003
1001
1001
,
0110
0000
0110
0000
0010
0000
0100
0001
,
0010
0100
2000
0000
,
3010
0000
0100
0001
,
0010
0000
0000
0001
0000
0000
0100
0000
0010
0000
1000
0000
,
0100
0000
0000
0000
1000
0000
0001
0010
,
0001
0100
0110
0000
,
1001
0000
1000
0100
,
0001
0100
1100
0100
,
0010
0001
1001
0000
,
0110
0000
1010
0000
,
0101
0000
0000
0000
0000
0000
1000
0000
0100
0000
1000
0000
,
0100
0000
0000
0000
0000
0000
0000
0000
1000
0000
0000
0000
0000
0000
0000
0000
0100
0000
0000
0000
0000
0000
0000
0000
1000
0000
0000
0000
0000
0000
0000
0000
0000
0000
0000
0000
0000
0000
0000
0001
0000
0000
0000
0000
0000
0000
0000
0000
,
0000
0100
0000
0000
0120
0000
0000
0000
,
1000
0000
0100
0000
,
1000
0000
0100
0000
,
1030
0000
0000
0000
0001
1000
0001
1000
,
0001
0100
0012
0000
,
0100
0000
0010
0000
,
1000
0000
1000
0000
,
0013
0000
0001
0010
,
0001
0100
1020
0000
,
0130
0000
2010
0000
,
3100
0000
0120
0000
,
1000
0000
0001
0000
,
0130
0000
2002
3003
,
0202
0303
2020
3030
,
2002
3003
0202
0000
,
0000
0000
0000
0000
,
0000
0303
0001
0100
,
0010
1000
0100
0010
,
0001
0000
0001
0100
,
0010
1000
0001
0001
,
0010
0000
0010
0100
,
1000
0100
0010
0001
,
0001
0000
0001
0100
,
0010
1000
0000
0000
0001
1000
0000
0001
,
0000
0010
0001
0000
0100
0000
0010
0000
,
1000
0100
0010
0100
,
1000
0000
0001
0010
,
0001
0100
0010
0010
,
0110
0000
0100
0010
,
1000
0000
0001
0010
,
0001
0000
0000
0000
0100
0001
0100
0001
,
0100
0001
0100
0001
0100
0001
0100
0001
,
0100
0001
0100
0001
0100
0000
0010
0000
,
2000
3100
0010
0001
,
0020
0031
0100
0010
,
2000
3100
0100
1000
,
0020
0130
0010
1000
,
0002
0013
0010
0001
,
0200
0310
1000
0100
,
0020
0130
0100
1000
,
0020
0130
0100
0001
,
0020
0031
0001
0100
,
0020
1030
0100
0010
,
0002
0013
0001
0100
,
0020
1030
0001
0010
,
0200
1300
1000
0010
,
0200
0301
0002
0203
,
0320
2030
3200
0320
,
0230
0000
0000
2300
0000
0000
3001
0000
1000
0000
0001
0000
,
1000
0000
0000
0000
0000
0000
0010
0000
0100
0000
0010
0000
,
0100
0000
0000
0000
0000
0000
0001
0000
0100
0000
0010
0000
,
1000
0000
0100
0000
1000
0000
0010
0000
0100
0000
0001
0000
,
0010
0000
0001
0000
0100
0000
0010
0000
0000
0100
0000
0000
,
0010
1000
0001
0010
,
0100
0000
0100
1000
,
0010
1000
0101
1010
,
1100
0011
1001
0001
,
0100
0010
1000
1000
,
1000
0100
0000
0010
,
0001
0010
0000
0100
1000
0010
0000
0100
,
0000
0010
1000
0000
1000
0000
0001
0000
,
0010
0001
0000
0010
0100
0000
0100
0000
,
0100
1000
0000
1000
0001
0000
0010
0000
,
0001
0000
0000
0100
0001
0000
0001
0000
,
0001
1000
0000
0001
0010
0000
0100
0000
,
1000
0100
0010
0100
,
1000
0000
0001
0000
0100
0001
0100
0000
,
0010
1000
0010
0000
1000
0100
0000
1100
,
0000
1000
0100
0000
0010
0001
0000
0011
,
0000
0010
0001
0000
0100
0001
0000
0101
,
0000
0100
0001
0000
0100
0010
0000
0110
,
0000
0010
0100
0000
0010
1000
0000
0011
,
0000
0001
0100
0000
2002
0000
0000
0000
,
0000
0000
0000
0000
,
0000
0000
0000
0000
,
0000
0000
3003
0000
;

//---------------dance-single - ----------------
#NOTES:
     dance-single:
     :
     Easy:
     9:
     0.664,0.764,0.361,0.253,0.000:
0000
0000
0000
0000
,
0000
0000
0000
0000
,
0000
0000
0000
0000
,
0000
0000
0000
0000
,
0000
0000
0000
0000
,
0000
0000
0000
0000
,
0000
0000
0000
0000
,
0000
0000
0000
0000
,
1000
0001
0100
0001
,
0010
0100
0010
0001
,
1000
0010
1000
0001
,
0010
0100
0010
0001
,
1000
0010
1000
0001
,
0010
0100
1000
0100
,
0010
0001
1000
0010
,
1000
0001
0010
0100
,
0010
0001
0100
0010
,
1000
0010
0100
0010
,
0100
0001
0010
0100
,
0010
0001
1000
0010
,
1000
0100
0010
0100
,
1000
0010
0100
0001
,
1000
0100
1000
0001
,
0100
0001
0010
0100
,
0010
0001
1000
0010
,
1000
0001
0010
0001
,
0100
0010
1000
0001
,
0010
0100
1000
0100
,
1000
0010
0100
0001
,
1000
0001
0100
0001
,
1000
0100
1000
0001
,
1000
0001
1000
0100
,
0010
0000
0011
1000
,
0000
1100
1001
0000
,
0101
0000
1001
0000
,
1010
0000
1001
0000
,
0101
0000
0001
0100
,
0010
0100
0100
0000
,
0110
0000
0010
1000
,
0001
0001
0100
0000
,
0110
0000
0010
1000
,
1000
0010
0100
0001
,
0010
1000
0010
0001
,
0010
1000
0010
0100
,
0010
0010
0100
0000
,
1001
0000
0001
0100
,
0010
0000
1010
0000
,
0000
0000
1000
0100
,
0100
0000
1100
0000
,
1000
0000
0100
1000
,
0100
0001
0100
1000
,
0010
0100
0001
0001
,
0100
0100
0001
0000
,
0101
0000
0001
0000
,
0100
0000
0010
0000
,
1000
0000
0010
0010
,
1000
1000
0010
0000
,
1010
0000
0010
0100
,
0001
1000
1001
0001
,
1001
0000
0001
0100
,
0001
0100
0010
0010
,
0010
0000
0100
0010
,
1000
0001
1000
1000
,
1000
0000
0001
0000
,
1010
0000
0001
0000
,
1100
0000
1001
0000
,
0110
0000
1001
0000
,
1001
0000
0002
0000
,
2003
0000
3020
0000
,
0230
0000
0320
0000
,
2030
0000
3010
0100
,
0010
0100
0020
0000
,
0230
0000
0302
0000
,
2003
0000
3200
0000
,
2300
0000
3100
0010
,
0001
0010
0200
0000
,
0320
0000
0032
0000
,
2003
0000
3020
0000
,
0230
0000
0302
0000
,
2003
0000
3001
0000
,
0100
0000
0010
0000
,
1000
0000
2002
0000
,
0000
0000
0000
0000
,
3003
0000
0001
0100
,
0010
1000
0010
1000
,
0010
0000
1000
0100
,
0010
0001
0010
0001
,
0010
0000
0001
0100
,
0010
1000
0001
1000
,
0001
0000
1000
0100
,
0010
0001
0010
0001
,
0100
0000
0010
1000
,
0010
1000
0001
0010
,
0100
0000
1000
0100
,
0010
0001
0010
0001
,
1000
0000
0001
0100
,
0010
1000
0001
1000
,
0100
0010
0002
0000
,
0000
0000
2000
0000
,
0000
3003
1000
0001
,
1000
0001
0100
0010
,
0100
0010
1000
0010
,
1000
0010
0100
0001
,
0100
0001
0100
0010
,
0100
0010
1000
0010
,
1000
0010
1000
0100
,
0010
0001
1000
0100
,
0010
0001
1000
0010
,
0100
0001
1000
0010
,
0100
0001
1000
0100
,
0010
0001
1000
0100
,
0010
0001
1000
0010
,
0100
0001
0010
0100
,
1000
0100
0010
0001
,
0100
0010
1000
0001
,
1000
0001
0100
0000
,
0101
0001
0000
1010
,
1001
0000
1100
0000
,
0011
0000
1001
0000
,
0101
0000
0001
0000
,
0001
0100
0100
0000
,
0010
0000
1000
0000
,
0010
0010
0100
0000
,
0010
0000
1000
0000
,
0001
0001
1000
0000
,
0001
0000
0100
0000
,
0010
0010
0010
0000
,
0100
0010
0100
0001
,
1000
0010
0100
0001
,
1000
0100
0001
0100
,
1000
0010
0100
0001
,
1000
1000
0001
0001
,
0100
0100
0010
0010
,
1000
0010
1000
0010
,
1010
0000
0000
0001
,
0101
0000
0000
1000
,
1100
0000
0000
0010
,
0011
0000
0000
0100
,
1100
0000
0000
0010
,
2002
0000
0000
0000
,
0000
0000
0000
0000
,
0000
0000
0000
0000
,
0000
0000
3003
0000
;

//---------------dance-single - ----------------
#NOTES:
     dance-single:
     :
     Beginner:
     4:
     0.337,0.678,0.341,0.029,0.000:
0000
0000
0000
0000
,
0000
0000
0000
0000
,
0000
0000
0000
0000
,
0000
0000
0000
0000
,
0000
0000
0000
0000
,
0000
0000
0000
0000
,
0000
0000
0000
0000
,
0000
0000
0000
0000
,
0010
0000
0000
0000
,
0100
0000
0000
0000
,
0001
0000
0000
0000
,
1000
0000
0000
0000
,
0001
0000
0001
0000
,
1000
0000
1000
0000
,
0010
0000
0010
0000
,
0100
0000
0100
0000
,
0010
0000
0000
0000
,
1000
0000
0000
0000
,
0001
0000
0000
0000
,
1000
0000
0001
0000
,
0100
0000
0000
0000
,
0001
0000
0000
0000
,
0100
0000
0010
0000
,
1000
0000
0010
0000
,
0100
0000
0000
0000
,
0010
0000
0000
0000
,
1001
0000
0000
0000
,
0001
0000
0000
0000
,
0110
0000
0000
0000
,
0110
0000
0000
0000
,
0110
0000
0110
0000
,
1001
0000
1001
0000
,
0001
0000
1100
0001
,
0000
0110
1001
0000
,
0110
0000
1001
0000
,
1001
0000
0000
0000
,
0001
0100
0001
0000
,
0000
0000
0100
0000
,
0010
0000
0110
0000
,
0000
0000
0010
0000
,
0100
0010
1000
0000
,
0000
0000
0100
0000
,
0010
0000
0110
0000
,
0000
0000
0100
0000
,
0100
0001
1000
0000
,
0000
0000
0001
0000
,
1000
0000
1001
0000
,
0000
0000
0001
0000
,
0001
0100
0010
0000
,
0000
0000
0100
0000
,
0010
1000
0010
0000
,
0100
0000
0020
0000
,
0000
0000
0000
0000
,
0030
0000
0100
0010
,
0100
0010
0100
0010
,
0100
0010
2000
0000
,
0000
0000
0000
0000
,
3000
0000
0001
1000
,
0001
1000
0001
0000
,
0001
0000
0001
0100
,
0010
0100
0010
0000
,
0000
0000
0000
0000
,
0000
0000
0020
0000
,
0000
0000
0130
0000
,
1001
0000
0000
0000
,
0110
0000
0010
0000
,
0010
0000
0100
0000
,
0100
0000
0010
0000
,
0010
0000
0100
0000
,
0100
0000
0001
0000
,
0001
0000
1000
0001
,
1000
0001
1000
0000
,
1000
0000
0001
0000
,
0001
0000
0100
0000
,
0100
0000
0010
0100
,
0010
0100
0010
0000
,
0010
0000
1000
0000
,
1000
0000
0001
0000
,
0001
0000
1000
0000
,
0001
0000
1000
0000
,
0001
0000
0100
0000
,
0010
0000
1001
0000
,
0000
0000
0000
0000
,
0000
0000
0001
0000
,
0000
0000
1000
0000
,
0000
0000
0010
0000
,
0000
0000
0100
0000
,
0000
0000
0010
0000
,
0000
0000
1000
0000
,
0000
0000
0100
0000
,
0000
0000
1000
0000
,
1000
0000
1000
0000
,
0000
0000
0001
0000
,
0000
0000
0100
0000
,
0000
0000
0010
0000
,
0000
0000
0100
0000
,
0000
0000
0001
0000
,
0000
0000
1000
0000
,
1000
0000
1000
0000
,
1000
0000
0001
0000
,
0000
0000
1000
0000
,
0000
0000
0010
0000
,
0000
0000
0100
0000
,
0100
0000
0010
0000
,
0000
0000
1000
0000
,
0000
0000
0001
0000
,
1000
0000
0100
0000
,
1000
0000
0010
0000
,
0000
0000
0100
0000
,
0000
0000
0001
0000
,
0000
0000
0100
0000
,
0000
0000
0110
0000
,
0000
0000
1001
0000
,
0000
0000
0110
0000
,
0110
0000
1001
0000
,
1001
0000
0001
0000
,
0000
1000
0000
0000
,
0001
0000
0000
0000
,
1000
0000
0000
0000
,
0010
0000
0000
0000
,
0100
0000
0000
0000
,
0010
0000
1000
0000
,
0010
0000
0000
0000
,
0100
0000
0000
0000
,
0001
0000
0000
0000
,
1000
0000
0000
0000
,
0001
0000
0001
0000
,
1001
0000
0000
0000
,
0110
0000
0000
0000
,
0110
0000
0000
0000
,
0110
0000
0000
0000
,
0010
0000
0100
0000
,
0001
0000
1000
0000
,
0010
0100
0001
1000
,
1001
0000
0000
0000
,
0110
0000
0000
0000
,
1001
0000
0000
0000
,
0110
0000
0000
0000
,
1001
0000
0000
0000
,
0110
0000
0000
0000
;
