#TITLE:PLASMA STORM;
#SUBTITLE:;
#ARTIST:xRGTMx;
#TITLETRANSLIT:;
#SUBTITLETRANSLIT:;
#ARTISTTRANSLIT:;
#GENRE:;
#CREDIT:;
#BANNER:bn.png;
#BACKGROUND:Knighs bg.png;
#LYRICSPATH:;
#CDTITLE:;
#MUSIC:Knights of the Round 2 (Lamorak).mp3;
#OFFSET:-0.034;
#SAMPLESTART:54.000;
#SAMPLELENGTH:12.000;
#SELECTABLE:YES;
#BPMS:0.000=100.000
,8.000=200.000
,36.000=100.000
,40.000=200.000
,96.000=100.000
,100.000=200.000
,164.000=100.000
,180.000=200.000
,194.000=100.000
,243.000=200.000
,275.000=100.000
,279.000=200.000
;
#STOPS:180.000=4.785
;
#BGCHANGES:;
#KEYSOUNDS:;
#ATTACKS:;

//---------------dance-single - ----------------
#NOTES:
     dance-single:
     :
     Hard:
     10:
     0.672,0.944,0.335,0.067,0.310,514.000,40.000,8.000,0.000,0.000,0.000,0.672,0.944,0.335,0.067,0.310,514.000,40.000,8.000,0.000,0.000,0.000: // measure 0
0000
0000
0000
0000
,  // measure 1
0000
0000
0000
0000
,  // measure 2
1000
0010
0100
0001
,  // measure 3
0010
0001
0100
1000
,  // measure 4
0100
0010
1000
0001
,  // measure 5
0010
0000
1000
0000
0010
0000
0001
0100
,  // measure 6
0010
0100
0001
0010
,  // measure 7
0100
1000
0001
0100
,  // measure 8
0001
0010
0100
1000
,  // measure 9
0002
0000
0000
0000
0000
0000
0000
0000
0103
0000
0100
0000
0100
0000
0010
1000
,  // measure 10
1010
0010
0100
0000
0010
0000
1000
0001
,  // measure 11
0010
0001
0100
0000
0010
0000
0100
0001
,  // measure 12
1000
0000
1001
0000
0011
0000
0001
1000
,  // measure 13
1001
0000
1010
0000
1001
0000
0010
0100
,  // measure 14
0001
0010
0100
0000
0010
0000
0010
0100
,  // measure 15
1000
0000
0000
0010
0000
0000
0100
0000
0000
0000
0000
0000
0100
0000
0010
0000
1000
0000
0001
0000
0010
0000
0100
0000
,  // measure 16
1000
0010
0100
0000
0010
0000
1000
0001
,  // measure 17
0010
0000
0001
0000
0100
0000
0000
0000
0010
0000
1000
0000
0001
1000
0001
1000
,  // measure 18
0001
0010
0001
0000
0100
0000
0100
0010
,  // measure 19
0100
0010
1000
0001
0010
0100
0010
0100
,  // measure 20
1000
0000
1000
0000
0010
0000
0100
0010
,  // measure 21
1000
0000
0000
0010
0000
0000
0100
0000
,  // measure 22
0100
0010
1000
0000
0000
0000
0001
0010
,  // measure 23
1000
0010
0010
0000
0000
0000
0010
0000
,  // measure 24
0011
0001
0100
0000
0010
1000
0001
0000
1001
0000
0000
0101
0000
0000
1010
0000
,  // measure 25
1000
0100
0100
1000
1000
0001
1000
0001
,  // measure 26
1000
0010
1000
0001
0010
0001
0100
0010
,  // measure 27
0001
0010
1000
1000
0010
0100
0001
0100
,  // measure 28
1000
0100
0010
1000
0001
1000
0001
1000
,  // measure 29
0001
1000
0010
0100
0001
0100
0010
0100
,  // measure 30
0010
0100
0001
1000
0010
1000
0001
0100
,  // measure 31
0010
1000
0100
0010
0001
1000
0100
0010
,  // measure 32
0001
1000
0001
0100
0010
0100
0001
0000
,  // measure 33
0100
1000
0001
0100
0010
0100
0001
1000
,  // measure 34
0001
0010
0100
1000
0001
0010
0100
1000
,  // measure 35
0010
0100
0001
1000
0010
1000
0001
0100
,  // measure 36
0010
0100
0010
0100
0001
0100
0010
1000
,  // measure 37
0001
1000
0001
1000
0001
1000
0010
0100
,  // measure 38
1000
0100
0001
0100
0010
1000
1000
0010
,  // measure 39
0001
0010
0100
0001
0010
0001
1000
0010
,  // measure 40
1000
0001
1000
0001
1000
1000
0100
0100
,  // measure 41
1000
0000
1000
0100
0000
0010
0001
0000
0000
0001
0100
0010
0100
0001
1000
0100
,  // measure 42
0010
0000
0000
0000
0010
0000
0000
0000
1100
0000
0000
0000
1001
0000
0000
0000
0000
0000
0001
0000
0100
0010
0100
0000
0010
0000
1000
0000
0200
0300
0200
0300
,  // measure 43
0110
0000
0001
0011
0000
0100
1001
0000
0000
0001
0010
0001
1000
0100
1000
0010
,  // measure 44
0110
0000
0000
0000
0000
0000
0101
0000
0000
0000
0000
0000
1001
0000
0000
0000
1000
0000
0001
0100
0010
0000
0100
0010
1000
0000
0001
0010
0100
0000
1000
0000
,  // measure 45
2002
3003
0000
0000
0000
0000
0000
0000
0000
0000
0000
0000
0000
0000
0000
0000
0000
0000
0000
0000
0000
0000
0000
0000
0000
0000
0000
0000
0000
0000
0000
0000
0000
0000
0000
0000
0000
0000
0000
0000
0000
0000
0000
0000
0000
0000
0000
0000
0000
0000
0000
0000
0000
0000
0000
0000
0000
0000
0000
0000
0000
0000
0000
0000
,  // measure 46
0000
0000
0000
0000
,  // measure 47
0000
0000
0000
0000
,  // measure 48
0000
0000
0000
0000
0000
0000
0000
0000
0010
0000
0000
0000
1000
0000
1000
0001
,  // measure 49
0010
0000
0001
0000
0100
0000
1000
0000
0100
0000
0010
0000
1000
0000
0010
1000
,  // measure 50
0001
0000
0010
0000
1000
0000
0010
0000
0100
0000
0010
0000
0001
0000
0100
0010
,  // measure 51
1000
0000
0001
0000
0100
0000
0010
0000
1000
0000
0001
0000
0010
0100
1000
0001
,  // measure 52
0100
0000
0010
0000
1000
0000
0100
0000
0010
0000
0001
0000
0010
0000
0001
0100
,  // measure 53
1000
0100
0010
1000
0001
0000
1000
0000
0100
0000
0010
0000
0001
0000
0100
0010
,  // measure 54
1000
0001
0010
0100
1000
0000
0001
0000
0001
0000
0100
0000
0010
0000
0100
0001
,  // measure 55
0010
1000
0010
0000
0010
0000
0001
0000
0100
0000
1000
0000
0100
0000
0100
0010
,  // measure 56
1000
0001
1000
0001
0001
0000
0010
0000
0001
0000
0110
0000
1001
0000
0001
0100
,  // measure 57
0010
0000
1000
0000
0001
0000
0010
0000
0100
0000
0110
0000
1001
0000
0001
0100
,  // measure 58
1000
0000
1000
0100
0010
0000
1000
0000
0001
0000
0011
0000
1100
0000
0010
0100
,  // measure 59
0001
0000
0010
0000
0100
0000
1000
0000
0001
0000
1010
0000
0110
0100
0001
0010
,  // measure 60
0100
0010
0011
0000
1100
0000
0100
0000
0110
0000
0010
0000
0011
0000
0000
0000
,  // measure 61
0001
0100
0101
0000
0100
0010
0110
0000
,  // measure 62
0010
1000
1010
0000
1000
0100
1100
0000
,  // measure 63
0100
0010
0110
0000
0010
0001
0011
0000
,  // measure 64
0001
0000
0100
0000
0101
0000
0000
0000
0100
0000
0010
0000
0110
0000
0100
0001
,  // measure 65
1000
0000
0100
0000
0010
0000
0100
0000
1000
0000
0001
0000
1000
0000
0001
0100
,  // measure 66
0001
0000
0100
0000
0010
0000
1000
0000
0001
0000
0010
0000
0100
0010
0001
1000
,  // measure 67
0001
0000
0001
0100
0010
1000
0100
0000
1000
0100
1000
0010
0200
0000
0000
0000
,  // measure 68
1000
0000
0000
0000
0010
0000
0000
0000
0001
0000
0000
0000
0310
0000
0000
1000
,  // measure 69
0000
0000
0001
0000
0010
0000
0000
0010
0000
0000
0001
0000
0100
0010
1000
0001
,  // measure 70
0010
0000
0010
0100
1000
0001
0100
0000
0010
1000
0001
0010
0100
0000
1000
0000
,  // measure 71
0100
0001
0100
1000
0010
0001
0202
0000
,  // measure 72
0000
0000
0000
0303
;

//---------------dance-single - ----------------
#NOTES:
     dance-single:
     :
     Medium:
     8:
     0.520,0.548,0.393,0.310,0.059,351.000,47.000,37.000,0.000,0.000,0.000,0.520,0.548,0.393,0.310,0.059,351.000,47.000,37.000,0.000,0.000,0.000:
0000
0000
0000
0000
,
0000
0000
0000
0000
,
1000
0100
1000
0010
,
0100
0001
0010
0001
,
0100
0010
1000
0001
,
0010
0000
0100
0000
1000
0000
0020
0030
,
0100
0010
1000
0001
,
0010
1000
0010
0001
,
0100
0010
1000
0001
,
0020
0000
0000
0000
0000
0000
0000
0000
0031
0000
1000
0000
0100
0000
1000
0001
,
0100
0010
1000
0000
1100
0000
1000
0001
,
0010
0000
0001
0000
0101
0000
0001
0100
,
0010
0000
1000
0000
0001
0000
0001
0010
,
0100
0010
0001
1000
,
0010
0100
0001
0000
1001
0000
0001
0100
,
0010
1000
0200
0000
,
0310
0000
0001
0000
0010
0000
1000
0010
,
0001
0100
1000
0100
,
0010
1000
0001
0000
0011
0000
0001
0100
,
0010
0000
1000
0000
1100
0000
1000
0001
,
0010
0000
0001
0000
0100
0000
0010
0100
,
0001
0000
0000
1000
0000
0000
0100
0000
,
0100
0010
0001
0000
0000
0000
0001
0001
,
0010
0100
1000
0000
0000
0000
0001
0100
,
0020
0000
0000
0000
0000
0000
0000
0000
0100
0000
0000
0100
0000
0000
0130
0000
,
0020
1030
2000
3100
,
0200
0310
0020
0031
,
0002
0103
0200
0310
,
0020
0000
2030
0000
3002
0000
0013
0001
,
0021
0130
0200
1300
,
2000
3010
0020
0130
,
0120
1030
2100
3001
,
0102
0000
0013
0000
0210
0000
0301
0010
,
0210
1300
2000
3010
,
0200
0301
0002
0013
,
0200
0310
0002
0103
,
0120
1000
0100
0031
,
0002
0013
0200
0310
,
0020
1030
2000
3001
,
0002
0103
0200
0310
,
0020
1030
2000
3100
,
1001
0000
0000
0011
0000
0000
0110
0000
0000
0000
0000
0000
0000
0000
0000
0000
,
1010
0000
0101
0110
0000
0000
0000
0000
,
0110
0000
0000
1100
0000
0000
0011
0000
0000
0000
0000
0000
0000
0000
0000
0000
,
1001
0000
0000
0011
0000
0000
0110
0000
0000
0000
0000
0000
0000
0000
0000
0000
,
1001
0000
0000
0000
,
0000
0000
0000
0000
,
0000
0000
0000
0000
,
0000
0000
0000
0000
0000
0000
0000
0000
1000
0000
0000
0000
0100
0000
0010
0100
,
0010
0001
0010
0001
0100
0010
1000
0001
,
0100
1000
0100
0001
0100
1000
0010
0100
,
0001
0000
1000
0000
0100
0000
1000
0000
0010
0000
0100
0000
0001
0100
0010
0100
,
0001
0000
0100
0000
0010
0000
1000
0000
0001
0000
0010
0000
0100
0000
0100
1000
,
0100
0000
1000
0000
0010
0000
0100
0000
0001
0000
1000
0000
0010
0000
0100
0010
,
0100
0000
0010
0000
1000
0000
1000
0000
0001
0000
0001
0000
1000
0000
0001
0100
,
0010
0000
1000
0000
0100
0000
0010
0000
0100
0000
1000
0000
0010
0000
0100
0001
,
0100
0010
1000
0001
0100
0010
1001
0001
,
0100
0010
1000
0100
0010
0001
1100
1000
,
0100
0010
0001
0010
0100
0010
1001
0001
,
0100
0010
1000
0001
0010
0100
0011
0001
,
0100
0010
1001
0010
0101
0010
0101
0000
,
1000
1100
0010
0011
,
0001
0110
0001
1001
,
0100
0110
0010
1010
,
0010
0110
0010
1010
,
0101
0011
1100
0110
,
0011
0000
0110
0000
1100
0000
1000
0001
,
0100
0001
0010
0100
0010
0001
0100
0010
,
1000
0000
0001
0000
0010
0000
0100
0000
1000
0000
0001
0000
0010
0000
0000
0100
,
0000
0000
1000
0000
0010
0000
0000
0100
0000
0000
0001
0000
0010
0000
0100
0000
,
1000
0001
0100
1000
0100
0001
0010
1000
,
0010
0001
0010
0100
1000
0001
0200
0000
,
0000
0000
0000
0300
;

//---------------dance-single - ----------------
#NOTES:
     dance-single:
     :
     Easy:
     6:
     0.359,0.489,0.151,0.033,0.017,278.000,18.000,4.000,0.000,0.000,0.000,0.359,0.489,0.151,0.033,0.017,278.000,18.000,4.000,0.000,0.000,0.000:
0000
0000
0000
0000
,
0000
0000
0000
0000
,
1000
0001
0100
0001
,
0010
0001
0100
1000
,
0100
0010
1000
0001
,
0010
0100
1000
1100
,
1000
0100
0100
1000
,
0010
0100
0001
0010
,
0100
1000
0001
0100
,
0220
0000
0330
0000
,
0010
1000
0010
1000
,
0001
0010
0100
0010
,
0001
0001
1000
1000
,
0010
0010
0100
0100
,
0010
1000
0010
0001
,
0010
0100
0001
0010
,
0100
0010
0001
1000
,
0010
0100
0001
0010
,
0110
0010
0001
1000
,
0100
1000
0010
0010
,
0100
0001
0010
0100
,
1000
0100
1000
0010
,
0001
0010
0100
0000
0000
0000
0100
1000
,
0010
0100
0001
0000
0000
0000
0001
0000
,
1001
0000
0000
0000
0000
0000
0000
0000
0001
0000
0000
1000
0000
0000
0100
0000
,
1000
0000
0100
1000
,
0000
0010
0000
0100
,
0001
0000
0001
1000
,
0100
0000
1000
0000
,
0010
0000
0100
0010
,
0000
0010
0001
0010
,
1000
0000
0100
0000
,
0010
0000
0001
0000
,
0012
0000
0100
0000
,
0000
0103
0010
1000
,
0100
0000
0100
0000
,
0010
0001
0100
0000
,
0100
0000
0010
0100
,
0000
0010
1000
0001
,
0011
0000
1100
0000
,
0101
0000
1010
0000
,
0001
0000
0000
0001
0000
0000
0001
0000
0000
0000
0000
0000
0000
0000
0000
0000
,
1000
0000
1000
0010
0000
0000
0000
0000
,
0100
0000
0000
0100
0000
0000
0100
0000
0000
0000
0000
0000
0000
0000
0000
0000
,
0010
0000
0000
0010
0000
0000
0010
0000
0000
0000
0000
0000
0000
0000
0000
0000
,
1001
0000
0000
0000
,
0000
0000
0000
0000
,
0000
0000
0000
0000
,
0000
0000
0000
0000
1000
0000
0001
0100
,
0010
0100
0010
1000
0001
0010
0100
0010
,
0001
0100
0010
1000
0100
0010
0001
0010
,
0001
0100
1000
0100
0010
1000
0001
0010
,
0001
0100
1000
0100
0010
1000
0001
0010
,
0100
1000
0100
0100
0010
0010
0001
0100
,
0010
1000
0001
0001
1000
1000
0010
0100
,
0010
1000
0001
0010
0100
1000
0100
1000
,
0010
0100
0001
0010
0100
1000
1100
0000
,
0100
0000
0010
0000
0001
0100
0110
0000
,
0010
0000
1000
0000
0100
0010
0110
0000
,
0100
0000
1000
0000
0001
0100
0101
0000
,
0001
0100
0110
0000
1001
0000
0101
0000
,
0010
1000
0100
1000
,
0010
0100
0001
0010
,
0100
1000
0100
1000
,
0010
0100
0001
0010
,
0001
0100
1000
0100
,
0010
1000
0001
1000
,
1000
0001
0001
0100
,
0010
1000
0100
0110
,
0000
0000
0000
0000
0000
0000
0010
0100
,
0001
1000
0010
0100
0001
1000
0001
0010
,
0100
1000
0100
0010
0001
0010
0200
0000
,
0000
0000
0000
0000
,
0300
0000
0000
0000
;

//---------------dance-single - ----------------
#NOTES:
     dance-single:
     :
     Beginner:
     3:
     0.161,0.180,0.126,0.025,0.000,117.000,15.000,3.000,0.000,0.000,0.000,0.161,0.180,0.126,0.025,0.000,117.000,15.000,3.000,0.000,0.000,0.000:
0000
0000
0000
0000
,
0000
0000
0000
0000
,
1000
0000
0000
0000
,
0001
0000
0000
0000
,
0100
0000
0000
0000
,
0010
0000
1000
1000
,
1000
0000
0000
0000
,
0001
0000
0000
0000
,
0010
0000
0000
0000
,
0110
0000
0010
0000
,
0001
0000
0000
0000
,
1000
0000
0000
0000
,
0010
0000
0010
0000
,
0100
0000
0100
0000
,
0001
0000
0000
0000
,
1000
0000
0020
0000
,
0130
0000
0000
0000
,
0010
0000
1000
0000
,
1001
0000
0000
0000
,
0001
0000
1000
0000
,
0001
0000
0000
0100
,
0100
0000
0000
0000
,
0010
0010
0000
0000
,
1000
1000
0000
0001
,
1001
0000
0100
0000
,
0010
0000
0010
0000
,
0100
0000
0100
0000
,
0001
0000
1000
0000
,
0001
0001
0001
0000
,
1000
0000
0010
0000
,
0100
0000
0001
0000
,
1000
0000
0001
0000
,
0100
0000
0010
0000
,
2002
0000
0000
0000
,
3003
0001
0001
0001
,
1000
0000
0001
0000
,
0100
0100
0100
0000
,
0010
0000
0010
0010
,
0000
0100
0000
0000
,
0100
0000
0010
0000
,
1000
0000
0001
0000
,
1001
0000
0000
0000
,
0110
0010
0000
0000
,
1001
0000
0000
0000
,
0100
0000
0000
0000
,
0110
0000
0000
0000
,
0000
0000
0000
0000
,
0000
0000
0000
0000
,
0000
0000
0010
0010
,
0000
0001
0000
0100
,
0000
1000
0000
0100
,
0000
0010
0000
1000
,
0001
1000
0001
0100
,
0000
0010
0000
1000
,
0000
0100
0000
1000
,
0000
0010
0000
0100
,
0000
0001
0000
1001
,
0000
0000
0000
0110
,
0000
0000
0000
0110
,
0000
0000
0000
1001
,
0000
0110
0000
1001
,
0000
0000
0000
1000
,
0000
0000
0000
0001
,
0000
0000
0000
0100
,
0000
0000
0000
0010
,
0000
0010
0000
0100
,
0000
0100
0000
0001
,
0000
1000
0000
0001
,
0000
1000
0000
0010
,
0000
0000
0000
0100
,
0000
0000
0000
0010
,
0000
1000
0000
1001
;
