#TITLE:PARANOiA (kskst mix);
#SUBTITLE:;
#ARTIST:180;
#TITLETRANSLIT:;
#SUBTITLETRANSLIT:;
#ARTISTTRANSLIT:;
#CREDIT:;
#BANNER:bn.png;
#BACKGROUND:PARANOiA-bg.png;
#LYRICSPATH:;
#CDTITLE:;
#MUSIC:PARANOiA(kskst mix).mp3;
#OFFSET:-0.019;
#SAMPLESTART:0.000;
#SAMPLELENGTH:12.000;
#SELECTABLE:YES;
#DISPLAYBPM:*;
#BPMS:0.000=190.000,192.000=95.000,220.000=47.500,222.000=190.001;
#STOPS:64.000=0.474
,64.500=0.158
,65.000=0.474
,65.500=0.158
,66.000=0.158
,66.500=0.158
,191.000=0.947
,282.000=0.158
,282.500=0.158
,283.000=0.158
,283.500=0.158
;
#BGCHANGES:;

//---------------dance-single - ----------------
#NOTES:
     dance-single:
     :
     Hard:
     10:
     0.682,1.000,0.344,0.000,0.176:
0000
0000
0000
0000
,
0000
0000
0000
0000
,
0000
0000
0000
0000
,
0000
0000
0000
0000
,
1000
0100
0000
0100
1000
0010
0000
0010
,
0100
0010
0000
0010
0100
0001
0000
0001
,
0010
0100
1000
0001
,
0001
0000
0100
0000
0010
1000
0010
1000
0010
1000
0010
1000
0010
1000
0010
1000
,
0001
0010
1000
0000
0100
0000
0001
0000
,
1000
0100
0001
0000
0100
1000
0010
0000
,
0001
0010
1000
0000
0100
0000
0001
0000
,
1000
0100
0001
0000
0100
1000
0010
0000
,
0001
1000
0100
0001
,
1000
0100
0001
0000
0100
1000
0010
0000
,
0001
0010
1000
0000
0100
0000
0001
0000
,
1000
0100
0001
0000
0100
1000
0010
0000
,
0110
0101
0110
1010
0011
1001
0001
0100
,
0010
1000
0100
0010
0100
1000
0010
0100
,
0001
0010
0100
0010
0001
1000
0001
0010
,
0001
0100
0010
1000
0100
0010
0100
1000
,
0010
0100
0001
0010
0100
0000
0010
0001
,
0100
0010
1000
0100
0001
1000
0100
1000
,
0010
0001
0010
0100
0001
0010
0001
1000
,
0010
1000
0001
0010
0100
0010
0110
0000
,
1001
0000
0001
0001
0001
0000
1000
0100
,
0001
0100
1000
0010
0100
0001
0010
1000
,
0010
0001
0100
0010
1000
0001
0010
0001
,
0010
0100
1000
0100
0010
0100
1000
0001
,
0100
1000
0100
0010
1000
0001
0010
0001
,
0101
0000
0100
0010
1001
0000
0001
0100
,
0100
0001
0100
0100
0010
1000
0001
0010
,
1000
0010
0001
0100
1000
0100
0110
0100
,
0110
0010
1010
1000
1100
0100
1000
0100
,
1000
0000
0010
0000
0010
0000
1000
0100
,
1000
0001
0010
0000
0010
0000
0001
0100
,
0010
1000
0100
0000
0001
0000
1000
0000
,
0100
0000
1000
0001
0010
0000
1000
0100
,
0000
0001
0100
0000
1000
0100
0000
0001
,
0100
0000
0010
1000
0001
0000
1000
0000
,
0100
0000
0001
0010
0100
1000
0000
0000
,
0010
0000
0001
0000
0010
0001
1000
0100
,
0001
0000
0001
0010
1000
0000
1000
0100
,
0010
0000
0010
0100
1000
0000
0010
1000
,
0001
0000
0001
0100
1000
0000
0100
0010
,
1000
0000
0001
1000
0001
0000
0010
0001
,
0001
0001
0010
0001
0001
0000
0010
1000
,
1000
1000
0010
1000
1000
0000
0100
1000
,
0100
1000
1000
1000
1000
0000
1001
0000
,
0110
0000
0100
0010
1000
0000
1000
0001
0010
0000
0010
0001
0100
0000
0110
0000
,
0010
0000
0100
0001
1000
0100
0010
0000
0010
0100
1000
0000
1001
0000
0110
0000
,
0010
0000
1000
1000
0001
0000
0001
0001
0010
0000
0010
0100
1000
0000
1100
0000
,
1000
0000
0010
0010
0100
0000
0001
0001
0010
0000
0010
0100
1000
0000
1001
0001
,
0100
0010
0010
1000
0001
0001
0010
0100
0100
0010
0001
1000
0000
1000
0000
1000
,
0001
0010
0100
0100
1000
0010
0010
1000
0001
0001
0010
0100
0000
1001
0000
0000
,
0001
0100
0010
0010
1000
0001
0001
0010
0100
0100
0010
0001
0000
0001
0000
0001
,
0100
0010
1001
0000
0010
0001
0100
0000
,
0010
1000
0100
0000
1000
0100
0010
0000
,
0001
0100
1000
0000
0010
0001
0100
0000
,
0010
1000
0100
0000
1000
0100
0010
0000
,
0001
0100
1000
0000
0010
0000
0001
0000
,
0010
0001
0010
0000
0100
0000
1000
0000
,
0100
1000
0100
0000
0010
0000
0010
1000
,
0100
1000
0100
0000
0010
0001
0100
0001
,
0100
0000
0010
1000
,
0100
0000
0010
1000
0001
0000
0100
0000
,
0010
0000
0001
0100
1000
0000
0110
0000
,
0001
0000
0010
0100
1000
0000
0001
0000
,
0110
0000
0001
0000
0100
0000
1000
0001
,
0010
0000
1000
0000
0010
0000
1000
0001
,
0100
0000
1000
0000
0100
0000
0010
0001
,
0010
0000
1000
0000
0110
0110
1001
1001
,
0101
0100
1000
1000
0100
0010
1000
0001
,
1000
0000
1000
0100
0000
0100
0000
0100
,
0010
0001
0010
1000
0100
0001
0100
0010
,
1000
0000
0100
0010
0000
0010
0000
0010
,
0001
0100
1000
0100
0010
1000
0001
0010
,
0001
0000
0100
0100
0000
0010
0000
1000
,
0001
0010
0100
0010
0001
1000
0010
1000
,
0001
0000
0000
0000
0001
0000
0010
0000
0100
0000
0000
0000
0010
0001
0010
0001
,
0011
0101
1010
1001
,
0101
0000
0100
0010
0000
0010
1000
0000
,
1010
0011
0110
1100
,
1000
0000
0010
1000
0000
0100
0010
0001
,
0011
0110
1100
1001
,
0001
0100
0010
0100
0010
1000
0001
0000
,
0001
0000
0010
0000
0010
1000
0100
0000
,
0001
0010
1000
0000
;

//---------------dance-single - ----------------
#NOTES:
     dance-single:
     :
     Medium:
     9:
     0.575,0.691,0.423,0.000,0.000:
0000
0000
0000
0000
,
0000
0000
0000
0000
,
0000
0000
0000
0000
,
0000
0000
0000
0000
,
1000
0010
0000
0100
0001
0100
0000
0100
,
0010
1000
0000
1000
0001
0010
0000
0010
,
0100
0010
0001
1000
,
0010
0010
0100
0001
0100
1000
0100
0010
,
1000
0010
0100
0000
0010
0000
1000
0000
,
0001
0000
1000
0100
0000
0100
1000
0000
,
0100
0100
1000
0000
0100
0000
1000
0000
,
0010
0100
0001
0000
0001
0100
0010
0000
,
0100
0100
0010
0000
1000
0000
0001
0000
,
1000
0000
0100
1000
0010
0000
0100
0010
,
1000
1000
0001
0000
0100
0000
0010
0000
,
0110
0000
0110
0000
0110
0000
0110
0010
,
1000
0001
1000
0100
0100
0100
0010
0001
,
0010
0000
0001
0100
0010
0000
0100
0010
,
1000
0001
0100
0010
1000
0100
0010
0001
,
0010
0000
0001
0100
0010
0000
0100
0010
,
1000
0001
0010
0100
0010
0001
0010
0001
,
0010
0000
0001
0100
0010
0000
0100
0010
,
1000
0001
0010
0100
0010
0001
1000
0001
,
1000
0000
0001
0100
0001
0000
0101
0000
,
1100
0000
0101
0000
1100
0000
0001
0100
,
0001
0000
0010
0100
0010
0000
0010
1000
,
0010
0100
0010
1000
0001
0010
0100
1000
,
0100
0000
0010
0100
0010
0000
0100
1000
,
0010
0000
0100
0010
1000
0000
0001
0001
,
1000
0000
0010
0010
0100
0000
0010
0010
,
1000
0000
1000
1000
0100
0000
1100
0000
,
0011
0000
0110
0000
1001
0000
0001
1000
,
0001
1000
0001
1000
0001
1000
0001
0100
,
0010
0100
0010
1000
,
0010
0100
0100
0000
0010
0000
1000
0000
,
0001
0010
0100
1000
,
0100
1000
1000
0000
0010
0000
0100
0000
,
0010
0000
1000
0000
0001
0100
1000
0000
,
1000
0000
0100
0000
0110
0000
0010
1000
,
0001
0010
0100
1100
,
1100
0000
1000
0100
0010
0000
0001
0010
,
0000
0000
0001
0010
0000
0000
0001
0100
,
0000
0000
0100
0010
0000
0000
0010
1000
,
0000
0000
0001
1000
0000
0000
1000
0000
,
0100
0010
0000
0001
,
0010
0000
0100
0000
0010
0001
0010
0000
,
0001
0100
0010
0000
0100
0000
0001
0100
,
1000
0100
1000
0100
0010
1000
0001
0000
,
1000
0100
0010
0100
1000
1000
1010
0000
,
0010
0100
0001
0010
1000
0010
0110
0000
,
0100
1000
0001
0100
1000
0010
0011
0000
,
0001
0010
0100
0010
0001
0100
1000
0100
,
0010
1000
0001
0010
1000
0010
0001
0100
,
1000
0100
0001
0100
1000
0100
0001
0010
,
0010
0100
1000
0100
0010
1000
0001
0010
,
0100
0010
1001
0000
0001
0000
1000
0000
,
0010
0000
1000
0000
0010
0000
0100
0010
,
0000
0010
0000
0010
0100
0000
0010
0000
,
1000
0000
0001
0000
0010
0000
0100
1000
,
0000
1100
0000
0000
0000
0000
1000
0000
,
0001
0000
0100
0000
0010
0000
0100
0100
,
0000
0010
0000
1000
0010
0000
0100
0000
,
0001
0010
0100
1000
,
0100
0000
1000
0000
1000
0100
0010
0100
,
1000
0010
0100
0000
0010
1000
0001
0100
,
0010
1000
0001
0000
0001
0010
0100
0010
,
0001
0100
0010
0000
0010
1000
0001
0100
,
0010
1000
0001
0000
0001
1000
0010
1000
,
0001
0100
0010
0001
0010
0100
0010
0001
,
0010
0100
1000
0100
0001
0100
1000
0010
,
0100
0010
1000
0001
1001
0110
1001
0110
,
0001
0001
0100
0010
1000
0001
0100
0010
,
0000
0000
0000
0000
,
1000
0100
0100
1000
0010
0100
0001
1000
,
0000
0000
0000
0000
,
0000
0001
0100
0010
1000
0100
0010
0001
,
0000
0000
0000
0000
,
0000
0001
0010
0100
0010
0001
1000
0000
,
0000
0000
0000
0000
,
1001
0110
0101
1010
,
0110
1001
0011
0110
,
1100
0110
0011
0110
,
1001
0110
1001
0110
,
0101
1010
1100
0011
,
0110
1100
0011
1010
,
1010
0100
1010
0100
,
1010
0011
1001
0000
;

//---------------dance-single - ----------------
#NOTES:
     dance-single:
     :
     Easy:
     7:
     0.447,0.726,0.168,0.000,0.060:
0000
0000
0000
0000
,
0000
0000
0000
0000
,
0000
0000
0000
0000
,
0000
0000
0000
0000
,
0001
1000
0000
0000
1000
0010
0000
0000
,
0100
0010
0000
0000
0010
1000
0000
0000
,
0001
1000
0100
0010
,
0001
0010
0100
1000
0100
1000
0100
1000
,
0100
0000
0000
0000
,
0000
0000
0000
0010
0000
0000
0001
0000
,
0100
0100
0000
0000
0000
0000
0000
0000
,
0000
0000
0000
0010
0000
0000
0100
0000
,
0010
0010
0000
0000
0000
0000
0000
0000
,
0000
0000
0000
1000
0000
0000
0001
0000
,
0100
0100
0000
0000
0000
0000
0000
0000
,
0010
0000
0010
0000
0010
0000
0010
0100
,
0010
1000
0001
0100
0100
0100
0010
1000
,
0010
0100
0010
1000
,
0001
0000
0010
0000
0100
0000
1000
0100
,
1000
0010
0100
0001
,
1000
0000
0001
0100
0010
0000
0100
0100
,
0010
1000
0001
0010
,
0100
0000
0100
0010
0001
0000
0001
0010
,
1000
0010
0001
0011
,
1010
0000
0001
0001
0001
0000
0001
0100
,
0010
0000
0100
0000
0010
0000
1000
0001
,
0100
0000
0010
1000
0001
0000
1000
1000
,
0001
0100
0010
0100
,
0010
0000
1000
0010
0100
0000
0010
0000
,
1001
0010
0101
0010
,
0110
0010
1001
0001
,
0100
1000
0100
0110
,
1001
0000
0001
0001
1000
0000
0010
1000
,
0010
0100
0010
1000
,
0001
0010
0010
0000
0001
0000
0001
0100
,
0010
1000
0001
0100
,
0010
1000
1000
0000
0010
0000
0100
0000
,
0010
0000
1000
0000
0001
1000
1001
0000
,
0001
0100
0010
0000
0100
0000
0010
1000
,
0001
0010
0100
1000
,
0100
1000
0010
0000
0100
0000
0010
0100
,
0000
0000
0010
0100
0000
0000
0010
0100
,
0000
0000
0010
0000
1000
0000
0001
1000
,
0000
0000
0001
1000
0000
0000
0001
0000
,
1000
0001
1000
0000
0000
0000
0100
0000
,
0010
1000
0000
0001
,
0000
1000
0000
0010
,
1000
0010
0100
1001
,
0001
0101
0100
0110
,
0010
1000
0010
0001
0010
0010
0010
0000
,
0100
0000
1001
0000
0001
0100
1000
0100
,
0010
0000
0110
0000
0010
1000
0001
0100
,
0010
0100
0010
0100
0010
0100
0010
0100
0010
0100
0000
0000
0000
0000
0000
0000
,
0001
1000
0001
1000
0001
1000
0001
1000
0001
1000
0000
0000
0000
0000
0000
0000
,
1000
0100
1000
0100
1000
0100
1000
0100
1000
0100
0000
0000
0000
0000
0000
0000
,
0100
0010
0011
0000
0001
0000
0100
0000
,
0010
1000
0010
0100
,
0100
0100
0010
1000
,
0001
0010
0100
0010
,
0001
0001
1000
0010
,
1000
0010
0100
0010
,
1000
0001
0010
0100
,
1000
0100
1000
0010
,
0100
0000
0001
0000
0100
0001
0100
0000
,
0010
0000
0100
0000
0010
1000
0001
0000
,
0001
0010
0100
0000
1000
0000
0100
0000
,
1000
0000
0010
0100
0001
0000
1000
0000
,
0001
0000
0000
0000
0001
0100
0010
0000
,
0100
0000
0010
0000
1000
0000
0010
0100
,
0001
1001
0001
1000
,
0001
0000
0100
0000
0010
0100
0010
0100
,
0010
1000
0010
1000
0010
1000
0010
1000
,
0000
0000
0000
0000
,
0001
0100
0001
0100
0001
0100
0001
0100
,
0000
0000
0000
0000
,
0010
0100
0010
0100
0010
0100
0010
0100
,
0000
0000
0000
0000
,
0010
1000
0010
1000
0010
1000
0010
1000
,
0000
0000
0000
0000
,
1000
0001
1000
0001
,
0100
0000
0000
0100
0000
0000
0010
0000
,
1000
1000
1000
1000
,
0001
0000
0000
0010
0000
0000
0100
0000
,
0000
1000
0100
0010
,
0001
0000
0000
0010
0000
0000
0100
0000
,
0110
0001
0110
0100
,
0110
1001
0110
0000
;

//---------------dance-single - ----------------
#NOTES:
     dance-single:
     :
     Beginner:
     3:
     0.203,0.311,0.128,0.000,0.000:
0000
0000
0000
0000
,
0000
0000
0000
0000
,
0000
0000
0000
0000
,
0000
0000
0000
0000
,
0010
0000
0100
0000
,
0010
0000
0100
0000
,
0010
0000
1000
0000
,
0001
0001
0001
0001
,
1001
0000
0000
0000
,
0000
0000
0100
0000
,
0010
0000
0000
0000
,
1000
1000
1000
0000
,
0001
0000
0000
0000
,
0100
0000
0010
0000
,
0100
0000
0000
0000
,
0001
0000
1000
0000
,
1001
0000
0000
0010
,
0000
0000
0000
0100
,
0000
0010
0000
1000
,
0000
0000
0000
0001
,
0000
1000
0000
0010
,
0000
0000
0000
0100
,
0000
0100
0000
0010
,
0000
0000
0000
1000
,
1000
1001
1001
0001
,
0000
0001
0000
0001
,
0001
0001
0000
0100
,
0000
0010
0000
0100
,
0100
0010
0000
1001
,
0000
0110
0000
0110
,
0010
1001
1001
0001
,
0000
1000
0000
0010
,
0010
0010
0010
0100
,
0000
0010
0000
0100
,
0000
0110
0110
0000
,
0010
0000
1000
0000
,
0001
1001
1001
0000
,
1000
0000
1000
0000
,
1000
1001
1001
0000
,
0001
0000
0001
0000
,
0100
0000
0010
0010
,
0000
0100
0000
0000
,
0000
0000
0000
0010
,
0000
0100
0000
0010
,
0000
0000
0000
1000
,
0000
0000
0000
0000
,
0000
0000
0000
0001
,
0000
0000
0000
0000
,
0010
0000
0100
0000
,
0001
0000
0000
0000
,
1000
0000
0010
0000
,
0100
0000
0000
0000
,
0001
0000
1000
0000
,
0100
0000
0000
0000
,
1000
0000
0001
0000
,
0010
0000
0010
0000
,
0000
0000
0000
0000
,
0001
0000
0100
0000
,
0000
0000
0000
0000
,
0010
0000
0100
0000
,
0000
0000
0000
0000
,
0010
0000
1000
0000
,
0000
0000
0001
0000
,
0000
0000
1000
1000
,
1000
0000
0001
0001
,
0001
0000
0100
0100
,
0100
0000
0010
0010
,
0010
0000
0100
0000
,
0010
0000
1000
0000
,
0001
0000
1000
0001
,
0100
0010
0100
0000
,
0010
1000
0010
0001
,
0000
0000
0000
0000
,
0100
0010
1000
0001
,
0000
0000
0000
0000
,
0001
0100
0010
1000
,
0000
0000
0000
0000
,
0100
1000
0010
0100
,
0000
0000
0000
0000
,
0010
0000
0100
0000
,
0010
0010
0010
0000
,
1000
0000
0001
0000
,
1000
1000
1000
0000
,
0001
0000
0100
0000
,
0010
0010
0010
0000
,
0100
0000
0010
0000
,
0100
0010
1001
0000
;

//---------------dance-single - ----------------
#NOTES:
     dance-single:
     :
     Challenge:
     12:
     0.942,1.000,0.567,0.000,0.735: // measure 1
0000
0000
0000
0000
,  // measure 2
0000
0000
0000
0000
,  // measure 3
0000
0000
0000
0000
,  // measure 4
0000
0000
0000
0000
,  // measure 5
0101
0000
0001
0000
0000
0000
0101
0000
0100
0000
0010
0000
0010
1000
0100
1000
,  // measure 6
0100
0010
0000
0010
0100
0010
1000
0001
,  // measure 7
0010
0100
1000
0100
1000
0010
0100
0001
,  // measure 8
1000
0000
1000
0000
0001
0100
0010
1000
0001
0100
0010
1000
0001
0100
0010
1000
,  // measure 9
0001
0100
1000
0100
0001
0010
1000
0010
,  // measure 10
0001
0100
0010
1000
0001
0010
0001
0100
,  // measure 11
0010
1000
0001
0010
0100
0010
0001
0100
,  // measure 12
0010
1000
0100
0001
0100
0010
0001
0100
,  // measure 13
1000
0100
0010
1000
0001
0010
0100
0010
,  // measure 14
0001
0001
0100
1000
0100
0100
0100
0010
,  // measure 15
1000
0001
0010
0100
0010
0001
1000
0001
,  // measure 16
0100
0000
0000
0100
0010
0000
0000
0100
0010
0000
0000
0100
0010
0000
0010
0000
,  // measure 17
0110
0101
0011
0110
1100
1001
0100
0010
,  // measure 18
1000
0000
0100
0000
0010
0000
0100
0000
0001
0000
0100
0010
1000
0000
0100
0000
,  // measure 19
0010
0001
0010
0001
0100
0101
1001
0001
,  // measure 20
1000
0000
0000
0010
0000
0000
1000
0000
0000
0100
0000
0000
0010
0000
0000
0001
0000
0000
0010
0000
0000
0100
0010
0100
,  // measure 21
0010
0000
0010
0000
0011
0000
0001
0000
0100
0010
1000
0001
0100
0000
0010
0000
,  // measure 22
1000
0100
1000
0001
0010
0100
0010
0001
,  // measure 23
0001
0100
1000
0100
0010
1000
0100
0010
,  // measure 24
1000
0001
0010
0100
0001
1000
0110
0000
,  // measure 25
1001
0000
1001
0010
1001
0010
1001
0101
,  // measure 26
0100
1000
0100
0010
1000
0001
0010
0001
,  // measure 27
1000
0010
1000
0100
0010
0100
1000
0001
,  // measure 28
0010
0001
0100
1000
0100
0010
1000
0001
,  // measure 29
1000
0001
1000
0001
1000
0001
0100
0010
,  // measure 30
0110
0100
0001
0010
0110
0100
1000
0010
,  // measure 31
1010
0000
1000
0000
0010
0000
0100
0000
0110
0000
0100
0001
0100
0000
0010
0000
,  // measure 32
1000
1000
1000
0010
1000
1000
0011
0000
,  // measure 33
0110
0000
1100
0000
1010
0000
1001
0001
,  // measure 34
0100
0000
1001
0010
1000
0000
1010
0010
,  // measure 35
0100
0010
0110
0000
0110
0000
1010
0010
,  // measure 36
0100
0000
0110
0010
1000
0000
1010
0010
,  // measure 37
0100
0010
0110
0100
1001
0000
0001
0100
,  // measure 38
0101
0000
0010
0100
0110
0000
0010
1000
,  // measure 39
1010
0010
0110
0000
1001
0000
0001
0100
,  // measure 40
0110
0000
0010
1000
1100
0000
1100
0000
,  // measure 41
0011
0000
0110
0000
1001
0000
0001
0100
,  // measure 42
1000
0100
0001
0010
1000
0000
0010
0001
,  // measure 43
0010
0100
1000
0100
0010
0001
0010
0001
,  // measure 44
0100
1000
0100
0010
1000
0010
0100
0010
,  // measure 45
1000
0001
0010
0100
1000
0100
0010
0000
,  // measure 46
0010
0000
0011
0000
0001
0100
1000
0000
,  // measure 47
0100
0000
0010
0000
1000
0000
0000
0000
0001
0000
1000
0000
0100
0010
0001
0010
,  // measure 48
0100
0010
0001
1000
0010
1000
0001
0010
0100
0010
0001
1000
0010
0000
0000
0000
,  // measure 49
0100
0010
1000
0001
0010
1000
0010
0001
0100
0010
1000
0100
0010
0100
1000
0001
,  // measure 50
0100
0000
0000
0010
0000
0000
1000
0000
0000
0100
0000
0000
0010
0000
0000
0001
0000
0000
0100
0000
0000
0010
0000
0000
0100
0000
0000
0000
0100
0000
0000
0000
0000
0000
0100
0000
0000
0000
0000
0000
0000
0000
0000
0000
0000
0000
0000
0000
,  // measure 51
0010
0100
0010
1000
0001
0010
0100
0010
0001
0010
0100
0010
1000
0000
0011
0000
,  // measure 52
0001
0000
0100
0010
1000
0000
1000
0001
0010
0000
0010
0100
1000
0000
1001
0000
,  // measure 53
0110
0010
0100
0010
1000
0001
0010
0100
1000
0100
1000
1100
0000
0011
0000
0011
,  // measure 54
0000
0001
0100
0010
0100
0001
1000
0010
0100
0100
0010
1000
0000
1001
0000
0000
,  // measure 55
0001
0100
0010
0100
0100
0100
0010
1000
0010
1000
0010
0110
0000
0110
0000
0110
,  // measure 56
0100
0010
0100
1000
0010
1000
0001
0100
0101
0000
0000
0000
0000
0000
0000
0000
0001
0000
0000
0000
0100
0000
0000
0000
1000
0000
0000
0000
0100
0000
0000
0000
,  // measure 57
0100
0010
1000
0010
0001
0010
0100
0110
,  // measure 58
0000
1001
0000
0110
0010
1000
0001
0001
,  // measure 59
0010
0100
0010
0001
0100
0010
0000
0110
,  // measure 60
0000
1001
0000
0000
0000
0001
0001
1000
,  // measure 61
0010
1000
0100
0001
0100
0010
0100
0010
,  // measure 62
0000
0010
0000
0010
0001
0100
1000
0100
,  // measure 63
0010
1000
0001
0010
0100
0010
0001
1000
,  // measure 64
0100
0000
0000
0000
0100
0000
0000
0000
0100
0010
0001
1000
0001
0000
0001
0100
,  // measure 65
0010
0000
0010
0100
0010
0000
1000
0000
0001
0010
0100
1000
0100
0000
1000
0010
,  // measure 66
0100
0000
0100
0010
1000
0001
0010
0001
1000
0100
0010
0001
0010
0000
0010
0001
,  // measure 67
0100
0000
0100
0010
1000
0001
0010
0001
0010
0100
1000
0000
1000
0100
1000
0000
,  // measure 68
0100
1000
0010
0100
0001
0010
0100
1000
0100
0000
0000
0100
0010
0000
0001
0000
,  // measure 69
0100
0010
1000
0000
0001
0010
0100
0000
0100
1000
0000
0100
1000
0000
1000
0100
,  // measure 70
0010
0001
0010
0100
0010
0001
1000
0001
0100
0000
0000
0100
0010
0000
0101
0000
,  // measure 71
0010
0000
1100
0000
0011
0000
0001
0100
1000
0100
0010
0001
0010
0100
0001
0000
,  // measure 72
1000
0100
0010
0100
1000
0010
0100
0001
0010
0100
1000
0001
0010
0100
0001
0000
,  // measure 73
0000
0000
0000
0000
,  // measure 74
0100
0010
1000
0001
0010
0100
0010
0001
1000
0010
1000
0100
0010
0100
1000
0000
,  // measure 75
0000
0000
0000
0000
,  // measure 76
1000
0010
0100
0001
0010
0100
1000
0100
0010
1000
0001
0100
0001
0010
0100
0000
,  // measure 77
0000
0000
0000
0000
,  // measure 78
0100
0010
1000
0001
0010
0100
0010
0001
1000
0010
1000
0100
0010
0100
1000
0000
,  // measure 79
0000
0000
0000
0000
1001
0101
0110
1010
,  // measure 80
1000
0100
1000
0000
0100
0010
0100
0000
0010
0001
0010
0000
0001
0100
0001
0000
,  // measure 81
0001
0100
0010
1000
0100
0010
0100
1000
0001
0100
0001
0010
0100
1000
0100
1000
,  // measure 82
0010
1000
0010
0000
0100
0001
0100
0000
0010
0100
0010
0000
1000
0010
1000
0000
,  // measure 83
1000
0010
0100
0010
0100
0010
1000
0100
0010
0001
1000
0001
0100
0000
0000
0000
,  // measure 84
0010
0100
1000
0000
1000
0100
0010
0000
1000
0001
0010
0000
0010
0100
1000
0000
,  // measure 85
0001
0100
0010
1000
0100
0010
0100
1000
0010
1000
0001
0010
0100
0010
0001
1000
,  // measure 86
0010
1000
0010
1000
0010
0000
0000
0000
0001
0100
0001
0100
0001
0000
0000
0000
,  // measure 87
0001
0010
0100
1000
0100
0010
0001
0010
1001
0000
0000
0000
0000
0000
0000
0000
;
